osu file format v5

[General]
AudioFilename: Hirano Aya - Tsuiterune Notterune.mp3
AudioLeadIn: 0
PreviewTime: 57667
Countdown: 0
SampleSet: Soft
StackLeniency: 0.7
Mode: 0
LetterboxInBreaks: 1
EditorBookmarks: 2793,97540

[Metadata]
Title:Tsuiterune Notterune
Artist:Hirano Aya
Creator:kioukiou
Version:Hard
Source:
Tags:

[Difficulty]
HPDrainRate:8
CircleSize:5
OverallDifficulty:7
SliderMultiplier:1.4
SliderTickRate:2

[Events]
//Background and Video events
0,0,"White Album.jpg"
//Break Periods
2,83690,96640
//Storyboard Layer 0 (Background)
//Storyboard Layer 1 (Failing)
//Storyboard Layer 2 (Passing)
//Storyboard Layer 3 (Foreground)
//Storyboard Sound Samples
5,15705,0,"soft-hitfinish.wav"
5,16464,0,"soft-hitfinish.wav"
//Background Colour Transformations
3,100,163,162,255

[TimingPoints]
1275,379.746835443038,4,2,0,100,1,0
2983,-100,4,2,1,100,0,0
5072,-100,4,2,2,100,0,0
5262,-100,4,2,1,100,0,0
32414,-100,4,2,2,100,0,0
32604,-100,4,2,1,100,0,0
40768,-100,4,2,2,100,0,0
40958,-100,4,2,1,100,0,0
55009,-100,4,2,0,100,0,0
56528,-100,4,2,1,100,0,0
83490,-100,4,2,0,100,0,0
96971,-100,4,2,1,100,0,0
107604,-100,4,2,2,100,0,0
107793,-100,4,2,1,100,0,0
110642,-100,4,2,2,100,0,0
110831,-100,4,2,1,100,0,0
112161,-100,4,2,2,100,0,0
112350,-100,4,2,1,100,0,0
121844,-100,4,2,0,100,0,0
124312,-100,4,2,1,100,0,0
141021,-100,4,2,2,100,0,0
141211,-100,4,2,1,100,0,0
150515,-100,4,2,0,100,0,0

[HitObjects]
256,192,2793,1,4
128,192,3173,5,0
128,128,3363,2,0,B|128:48,2,70,0|4|0
192,128,3933,2,0,B|296:128,2,70,0|0|4
192,192,4502,2,0,B|192:336,2,140
256,192,5452,5,0
384,192,5831,1,4
384,64,6211,1,0
320,64,6401,1,0
256,64,6591,1,4
128,64,6971,2,0,B|56:64,1,70
88,120,7350,2,0,B|168:120,1,70,4|0
128,176,7730,2,0,B|24:176,1,70
88,232,8110,2,0,B|168:232,1,70,4|0
120,288,8490,2,0,B|40:288,2,70,0|0|4
248,288,9249,5,0
304,256,9439,1,0
248,224,9629,1,4
304,192,9819,1,0
248,160,10009,2,0,B|248:64,3,70,0|0|4|0
144,160,10958,1,0
88,192,11148,1,4
144,224,11338,1,0
88,256,11528,1,0
144,288,11718,2,0,B|144:360,2,70,0|4|0
208,288,12287,6,0,B|376:288,1,140,0|4
392,240,12857,1,0
344,192,13047,2,0,B|176:192,1,140,0|4
200,128,13616,1,0
144,160,13806,1,0
144,224,13996,1,0
200,256,14186,1,4
312,192,14566,6,0,B|400:192,2,70,0|0|4
256,192,15135,12,0,16844
384,56,17224,5,4
256,56,17604,1,0
256,120,17793,2,0,B|256:200,2,70,0|4|0
320,120,18363,1,0
448,120,18743,1,4
448,248,19123,1,0
384,248,19312,1,0
320,248,19502,1,4
384,248,19692,1,0
384,120,20072,1,0
384,184,20262,1,4
256,184,20642,5,0
256,120,20831,1,0
192,120,21021,1,4
128,120,21211,2,0,B|40:120,2,70
128,184,21781,2,0,B|128:336,1,140,4|0
192,328,22350,1,0
256,328,22540,1,4
320,328,22730,2,0,B|320:176,1,140
320,188,23300,1,4
192,184,23680,5,0
256,184,23869,1,0
256,120,24059,1,4
320,120,24249,2,0,B|384:72|456:128,1,140
448,184,24819,2,0,B|384:240|304:176,1,140,4|0
320,248,25388,2,0,B|320:328,2,70,0|4|0
192,248,26148,1,0
192,248,26338,1,4
192,120,26718,1,0
192,184,26907,1,0
256,184,27097,1,4
256,56,27477,5,0
40,192,27857,1,0
256,328,28237,1,0
472,192,28616,1,0
256,192,28996,12,0,30515
424,104,30705,6,0,L|424:32,2,70,0|4|0
424,168,31274,1,0
424,168,31464,1,0
424,232,31654,1,4
424,232,31844,1,0
424,296,32034,2,0,B|376:352|208:352|162:294,1,280
112,256,32983,1,0
112,256,33173,1,4
112,128,33553,5,0
144,72,33743,1,0
176,128,33933,2,0,B|328:128,1,140,4|0
320,64,34502,1,0
376,96,34692,1,4
376,160,34882,1,0
320,192,35072,2,0,B|152:192,1,140,0|4
184,256,35642,1,0
248,256,35831,1,2
248,256,35926,1,0
248,256,36021,1,2
312,256,36211,6,0,B|400:256|400:344,1,140,4|0
336,336,36781,1,0
272,336,36971,1,4
208,336,37161,1,0
144,336,37350,1,0
80,336,37540,6,0,B|16:272,2,70,0|4|0
88,208,38300,2,0,B|24:144,2,70,0|4|0
152,208,38869,1,0
152,208,39249,1,4
152,80,39629,6,0,B|224:40|296:88,2,140,2|4|2
152,16,40578,2,0,B|152:176,1,140
104,200,41148,1,2
104,200,41338,1,0
152,240,41528,1,4
152,240,41718,1,0
200,200,41907,2,0,B|200:352,1,140,2|4
320,304,42667,5,2
320,240,42857,2,0,B|400:240,2,70,0|4|0
256,240,43426,2,0,B|192:176|272:104,1,140,2|4
296,167,43996,2,0,B|363:109|299:45,1,140
240,48,44566,2,0,B|152:48,2,70,4|0|2
368,48,45325,5,4
424,80,45515,1,0
368,112,45705,1,2
424,144,45895,1,0
368,176,46085,1,4
424,208,46275,2,0,B|424:296,1,70,0|2
368,248,46654,2,0,B|368:336,1,70,0|4
312,296,47034,2,0,B|312:368,1,70,0|2
256,328,47414,2,0,B|256:232,1,70,0|4
200,288,47793,2,0,B|200:144,1,140
264,136,48363,5,4
232,80,48553,1,0
168,80,48743,1,2
136,136,48933,1,0
168,192,49123,1,4
232,192,49312,1,0
264,248,49502,1,2
232,304,49692,1,0
168,304,49882,1,4
136,248,50072,1,0
200,248,50262,2,0,B|360:248,2,140,2|4|2
136,248,51211,5,0
72,248,51401,2,0,B|72:336,2,70,4|0|0
256,192,51971,12,0,53110
256,96,53490,5,2
256,160,53680,1,2
256,224,53869,1,2
256,288,54059,2,0,B|192:344|112:272,1,140
128,352,54629,2,0,B|128:208,1,140,0|4
128,212,55199,1,0
376,216,55578,1,4
376,216,55768,1,0
128,152,56148,1,4
128,152,56338,1,0
256,192,56528,12,4,57477
440,64,57857,5,0
440,128,58047,1,0
376,128,58237,1,4
376,192,58426,1,0
312,192,58616,2,0,B|160:192,1,140,0|4
136,248,59186,2,0,B|56:248,2,70
200,248,59756,2,0,B|360:248,1,140,4|0
340,248,60325,1,8
340,248,60515,1,12
344,120,60895,5,0
304,72,61085,1,0
264,120,61275,2,0,B|112:120,1,140,4|0
72,152,61844,1,0
128,184,62034,1,4
72,216,62224,2,0,B|8:280|80:360,1,140
128,344,62793,1,4
192,344,62983,2,0,B|240:273|176:209,1,140
128,184,63553,2,0,B|128:80,2,70,4|0|0
256,184,64312,5,4
256,184,64692,1,0
320,184,64882,6,0,B|376:128,2,70,0|4|0
192,184,65642,1,0
192,184,65831,1,4
192,183,66021,2,0,B|193:279|104:280,1,140
112,344,66591,2,0,B|112:192,1,140,4|0
48,192,67161,5,0
80,136,67350,1,4
144,136,67540,1,0
176,192,67730,1,0
208,248,67920,1,0
272,248,68110,1,4
296,192,68300,6,0,B|368:264,2,70
288,128,68869,6,0,B|344:72,2,70,4|0|0
232,160,69439,6,0,B|136:160,2,70,0|4|0
232,96,70009,5,0
168,96,70199,1,0
168,32,70388,1,4
104,32,70578,1,0
104,96,70768,2,0,B|104:272,1,140,0|4
168,232,71338,1,0
168,232,71528,1,0
296,232,71907,1,4
232,232,72097,1,0
232,168,72287,2,0,B|232:80,2,70,0|8|12
360,168,73047,6,0,B|440:168|440:72,2,140,0|4|0
296,168,73996,1,0
296,168,74186,1,4
232,168,74376,2,0,B|298:233|219:303,1,140
184,336,74945,1,4
136,288,75135,2,0,B|70:223|149:153,1,140
184,120,75705,1,4
184,120,75895,1,0
256,192,76085,12,0,76844
416,192,77034,6,0,B|416:288,2,70,0|4|0
416,64,77793,1,0
416,128,77983,2,0,B|504:128,2,70,4|0|0
352,128,78553,1,0
352,128,78743,1,4
256,48,79123,5,0
200,80,79312,1,0
256,112,79502,2,0,B|336:112,2,70,4|0|0
200,144,80072,1,0
256,176,80262,1,4
200,208,80452,6,0,B|104:208,2,70
256,240,81021,6,0,B|352:240,2,70,4|0|0
200,272,81591,6,0,B|112:272,2,70,0|4|0
256,192,82161,12,4,83490
72,48,97540,5,0
72,112,97730,2,0,B|72:184,2,70,4|0|0
136,112,98300,1,0
136,112,98490,1,4
200,112,98680,1,0
200,112,98869,2,0,B|296:112,2,70,0|0|4
200,176,99439,2,0,B|144:240|208:312,1,140
136,304,100009,2,0,B|312:304,1,140,4|0
320,256,100578,6,0,B|400:256,1,70,0|4
368,192,100958,2,0,B|456:192,1,70
416,128,101338,2,0,B|496:128,2,70,0|4|0
352,128,101907,1,0
296,88,102097,1,0
248,128,102287,1,4
200,88,102477,2,0,B|48:88,1,140
32,144,103047,6,0,B|192:144,1,140,4|0
176,208,103616,1,0
112,208,103806,1,4
48,208,103996,2,0,B|-8:288|64:352,1,140
112,336,104566,1,4
176,336,104756,1,0
304,336,105135,1,0
240,336,105325,1,4
176,336,105515,1,0
176,208,105895,1,0
176,208,106085,1,4
304,208,106464,5,2
304,80,106844,1,4
176,80,107224,1,2
240,80,107414,2,0,B|240:224,1,140
176,216,107983,1,2
144,160,108173,1,0
80,160,108363,1,4
48,216,108553,1,0
112,216,108743,2,0,B|112:360,1,140,2|4
240,352,109502,5,2
240,224,109882,1,4
368,224,110262,1,2
304,224,110452,2,0,B|248:160|320:80,1,140
368,96,111021,1,2
368,96,111211,1,0
336,40,111401,1,4
336,40,111591,2,0,B|168:40,2,140
304,96,112540,5,2
248,128,112730,1,0
304,160,112920,1,4
248,192,113110,1,0
304,224,113300,2,0,B|360:280,1,70,2|0
288,288,113680,2,0,B|232:232,1,70,4|0
216,296,114059,2,0,B|280:360,1,70,2|0
200,360,114439,2,0,B|136:296,1,70,4|0
200,192,115009,5,0
144,160,115199,1,4
144,96,115388,1,0
200,64,115578,1,2
256,96,115768,1,0
200,128,115958,2,0,B|328:208,1,140,4|2
376,168,116528,2,0,B|376:80,2,70,0|4|0
376,232,117097,2,0,B|376:304,2,70,2|0|4
320,200,117667,2,0,B|216:304,1,140
160,304,118237,1,4
160,304,118426,1,0
96,304,118616,5,0
96,176,118996,1,4
96,48,119376,1,0
224,48,119756,1,4
160,48,119945,1,0
160,176,120325,1,2
208,136,120515,1,2
256,176,120705,1,2
304,136,120895,2,0,B|472:136,1,140,0|0
444,72,121464,2,0,B|444:248,1,140,0|4
444,212,122034,1,0
191,214,122414,1,4
191,214,122604,1,0
444,275,122983,1,4
444,275,123173,1,0
256,192,123363,12,4,124312
136,56,124692,6,0,B|64:120|136:184,1,140,0|4
160,120,125262,1,0
160,120,125452,2,0,B|240:120,2,70,0|0|4
160,184,126021,2,0,B|160:344,1,140
224,328,126591,2,0,B|312:328,2,70,4|0|0
224,264,127161,1,8
224,264,127350,1,12
224,136,127730,6,0,B|272:72,2,70,0|0|4
224,200,128300,1,0
224,200,128490,1,0
160,200,128680,1,0
160,200,128869,1,4
96,200,129059,2,0,B|40:272|104:336,1,140
32,328,129629,1,4
32,328,129819,2,0,B|200:328,1,140
168,264,130388,1,4
232,264,130578,1,0
296,264,130768,2,0,B|368:200|280:128,2,140,0|4|0
264,208,131718,6,0,B|168:208,2,70,0|4|0
328,208,132287,1,0
392,208,132477,2,0,B|464:208,2,70,0|4|0
392,80,133237,1,0
392,80,133426,1,4
264,80,133806,5,0
200,80,133996,1,0
136,80,134186,2,0,B|80:136,1,70,4|0
144,152,134566,6,0,B|80:216,2,70,0|0|4
208,152,135135,6,0,B|296:152,2,70
176,208,135705,6,0,B|104:280,2,70,4|0|0
240,208,136274,6,0,B|320:208,2,70,0|4|0
240,272,136844,5,0
240,272,137034,1,0
304,272,137224,1,4
304,272,137414,1,0
368,272,137604,2,0,B|456:272|456:168,1,140,0|4
512,184,138173,2,0,B|336:184,1,140
328,136,138743,1,4
328,136,138933,1,0
280,176,139123,2,0,B|192:176,2,70,0|8|12
280,304,139882,5,0
280,240,140072,1,0
216,240,140262,2,0,B|120:240,2,70,4|0|0
216,176,140831,2,0,B|360:176,2,140
216,112,141781,1,4
216,112,141971,1,0
152,112,142161,1,0
152,112,142350,1,0
88,112,142540,2,0,B|32:56,2,70,4|0|0
88,240,143300,1,4
216,240,143680,5,0
152,240,143869,1,0
152,176,144059,1,4
216,176,144249,2,0,B|296:176|296:80,1,140
232,80,144819,1,4
232,80,145009,2,0,B|384:80,1,140
372,80,145578,1,4
456,176,145958,5,0
424,232,146148,1,0
360,232,146338,1,4
328,176,146528,1,0
296,120,146718,5,0
232,120,146907,1,0
200,176,147097,1,4
168,232,147287,5,0
104,232,147477,1,0
72,176,147667,1,0
104,120,147857,5,4
168,120,148047,1,0
200,176,148237,1,0
232,232,148426,5,0
296,232,148616,1,4
328,176,148806,1,0
256,192,148996,12,4,150515
256,192,151085,5,4
256,192,151654,5,4
