osu file format v12

[General]
AudioFilename: Hirano Aya - Super Driver (Tv Size Cut).ogg
AudioLeadIn: 1000
PreviewTime: 44436
Countdown: 0
SampleSet: Normal
StackLeniency: 0.7
Mode: 1
LetterboxInBreaks: 0
WidescreenStoryboard: 1

[Editor]
DistanceSpacing: 1
BeatDivisor: 4
GridSize: 32
TimelineZoom: 4.199998

[Metadata]
Title:Super Driver (TV Size)
TitleUnicode:Super Driver (TV Size)
Artist:Hirano Aya
ArtistUnicode:Hirano Aya
Creator:xWillx
Version:Oni
Source:Suzumiya Haruhi No Yuutsu
Tags:hirano aya haruhi suzumiya melancholy of no yuutsu anime
BeatmapID:405030
BeatmapSetID:166651

[Difficulty]
HPDrainRate:5
CircleSize:4
OverallDifficulty:6
ApproachRate:5
SliderMultiplier:1.4
SliderTickRate:1

[Events]
//Background and Video events
0,0,"xsuzumiyax.png",0,0
//Break Periods
//Storyboard Layer 0 (Background)
//Storyboard Layer 1 (Fail)
//Storyboard Layer 2 (Pass)
//Storyboard Layer 3 (Foreground)
//Storyboard Sound Samples
//Background Colour Transformations
3,100,163,162,255

[TimingPoints]
1236,300,4,1,1,80,1,0
44436,-100,4,1,1,100,0,1
63636,-100,4,1,1,80,0,0
73236,-76.9230769230769,4,1,1,100,0,1
82836,-100,4,1,1,80,0,0

[HitObjects]
0,224,1236,5,10,0:0:0:0:
0,224,1386,5,10,0:0:0:0:
0,224,1536,1,10,0:0:0:0:
0,224,1686,1,10,0:0:0:0:
0,224,1836,1,10,0:0:0:0:
0,224,2136,5,10,0:0:0:0:
0,224,2286,5,10,0:0:0:0:
0,224,2436,1,10,0:0:0:0:
0,224,2586,1,10,0:0:0:0:
0,224,2736,5,10,0:0:0:0:
0,224,3036,1,0,0:0:0:0:
0,224,3111,5,0,0:0:0:0:
0,224,3186,1,0,0:0:0:0:
0,224,3336,1,0,0:0:0:0:
0,224,3411,1,0,0:0:0:0:
0,224,3486,1,0,0:0:0:0:
0,224,3636,5,10,0:0:0:0:
0,224,3786,1,10,0:0:0:0:
0,224,3936,1,10,0:0:0:0:
0,224,4086,5,10,0:0:0:0:
0,224,4236,1,10,0:0:0:0:
0,224,4536,5,10,0:0:0:0:
0,224,4686,1,10,0:0:0:0:
0,224,4836,1,10,0:0:0:0:
0,224,4986,1,10,0:0:0:0:
0,224,5136,5,10,0:0:0:0:
0,224,5436,1,0,0:0:0:0:
0,224,5511,5,0,0:0:0:0:
0,224,5586,1,0,0:0:0:0:
0,224,5736,1,4,0:0:0:0:
0,224,5886,1,0,0:0:0:0:
64,256,6036,1,8,0:0:0:0:
96,224,6111,1,8,0:0:0:0:
0,224,6186,5,0,0:0:0:0:
0,224,6336,1,8,0:0:0:0:
0,224,6486,1,0,0:0:0:0:
0,224,6561,5,0,0:0:0:0:
0,224,6636,1,8,0:0:0:0:
0,224,6786,1,0,0:0:0:0:
0,224,6936,1,8,0:0:0:0:
0,160,7236,5,0,0:0:0:0:
0,160,7386,1,0,0:0:0:0:
0,160,7536,5,8,0:0:0:0:
0,160,7686,1,0,0:0:0:0:
0,224,7836,1,8,0:0:0:0:
0,224,7911,5,8,0:0:0:0:
0,224,7986,1,0,0:0:0:0:
0,224,8136,1,0,0:0:0:0:
0,224,8211,1,8,0:0:0:0:
0,224,8286,1,8,0:0:0:0:
0,160,8436,1,8,0:0:0:0:
0,160,8586,5,0,0:0:0:0:
0,160,8736,1,8,0:0:0:0:
0,160,8886,1,0,0:0:0:0:
0,160,8961,1,0,0:0:0:0:
0,160,9036,1,8,0:0:0:0:
0,160,9186,5,0,0:0:0:0:
0,160,9336,1,8,0:0:0:0:
0,160,9636,5,14,0:0:0:0:
0,160,9936,1,14,0:0:0:0:
0,160,10236,5,0,0:0:0:0:
0,160,10311,1,0,0:0:0:0:
0,160,10386,5,0,0:0:0:0:
0,160,10536,1,8,0:0:0:0:
0,160,10686,1,0,0:0:0:0:
0,160,10836,1,8,0:0:0:0:
0,160,11136,5,8,0:0:0:0:
0,160,11286,1,0,0:0:0:0:
0,160,11436,5,0,0:0:0:0:
32,160,11511,1,0,0:0:0:0:
64,160,11586,1,0,0:0:0:0:
0,160,11736,1,0,0:0:0:0:
64,160,11886,5,0,0:0:0:0:
96,192,11961,1,0,0:0:0:0:
0,160,12036,1,8,0:0:0:0:
64,192,12186,1,0,0:0:0:0:
0,160,12336,1,8,0:0:0:0:
64,160,12486,5,0,0:0:0:0:
128,128,12636,1,8,0:0:0:0:
141,117,12711,5,0,0:0:0:0:
0,160,12786,1,0,0:0:0:0:
0,160,12936,1,8,0:0:0:0:
0,160,13086,1,0,0:0:0:0:
0,160,13236,1,8,0:0:0:0:
32,160,13311,1,8,0:0:0:0:
64,160,13386,1,0,0:0:0:0:
0,160,13536,5,8,0:0:0:0:
0,160,13686,1,0,0:0:0:0:
32,160,13761,1,0,0:0:0:0:
0,160,13836,1,0,0:0:0:0:
0,160,13986,5,0,0:0:0:0:
0,160,14061,1,0,0:0:0:0:
0,160,14136,1,8,0:0:0:0:
0,160,14286,1,8,0:0:0:0:
0,160,14436,5,0,0:0:0:0:
0,160,14736,1,8,0:0:0:0:
96,160,14886,1,0,0:0:0:0:
96,160,14961,1,0,0:0:0:0:
96,160,15036,1,8,0:0:0:0:
96,160,15111,1,8,0:0:0:0:
96,160,15186,1,0,0:0:0:0:
96,160,15261,1,0,0:0:0:0:
96,160,15336,1,8,0:0:0:0:
96,160,15486,1,0,0:0:0:0:
0,160,15636,1,8,0:0:0:0:
0,160,15711,1,8,0:0:0:0:
0,160,15786,5,0,0:0:0:0:
0,160,15936,1,8,0:0:0:0:
0,160,16011,1,8,0:0:0:0:
0,160,16086,1,0,0:0:0:0:
64,160,16236,1,8,0:0:0:0:
96,160,16386,5,0,0:0:0:0:
160,192,16536,1,8,0:0:0:0:
128,192,16686,1,0,0:0:0:0:
0,160,16836,5,8,0:0:0:0:
0,160,16911,1,8,0:0:0:0:
32,160,16986,1,0,0:0:0:0:
0,160,17136,1,0,0:0:0:0:
128,192,17211,1,8,0:0:0:0:
0,160,17286,5,8,0:0:0:0:
0,160,17436,1,8,0:0:0:0:
32,160,17511,1,8,0:0:0:0:
0,192,17586,1,0,0:0:0:0:
0,192,17661,1,0,0:0:0:0:
0,160,17736,1,8,0:0:0:0:
64,160,17886,5,0,0:0:0:0:
0,160,18036,1,8,0:0:0:0:
32,160,18111,1,8,0:0:0:0:
0,160,18186,1,0,0:0:0:0:
96,160,18261,1,0,0:0:0:0:
32,160,18336,1,8,0:0:0:0:
64,160,18486,1,0,0:0:0:0:
32,160,18636,1,8,0:0:0:0:
96,160,18786,1,0,0:0:0:0:
96,160,18936,1,8,0:0:0:0:
96,160,19011,1,8,0:0:0:0:
96,160,19086,1,0,0:0:0:0:
96,160,19236,1,8,0:0:0:0:
0,160,19536,5,14,0:0:0:0:
0,160,19836,1,14,0:0:0:0:
96,160,19986,1,0,0:0:0:0:
96,160,20061,1,0,0:0:0:0:
0,160,20136,5,0,0:0:0:0:
0,160,20211,5,0,0:0:0:0:
0,160,20286,1,0,0:0:0:0:
0,160,20361,1,0,0:0:0:0:
0,160,20436,1,8,0:0:0:0:
0,160,20586,1,0,0:0:0:0:
96,160,20736,1,12,0:0:0:0:
96,160,21036,1,0,0:0:0:0:
96,160,21111,1,0,0:0:0:0:
192,256,21186,1,0,0:0:0:0:
0,160,21336,1,8,0:0:0:0:
128,128,21486,1,0,0:0:0:0:
96,160,21636,1,8,0:0:0:0:
128,160,21711,1,8,0:0:0:0:
160,256,21786,5,0,0:0:0:0:
96,160,21936,1,8,0:0:0:0:
160,224,22086,1,0,0:0:0:0:
96,160,22236,1,8,0:0:0:0:
96,160,22311,1,0,0:0:0:0:
128,160,22386,1,0,0:0:0:0:
160,224,22536,1,8,0:0:0:0:
128,160,22686,1,0,0:0:0:0:
96,160,22836,1,0,0:0:0:0:
96,160,22911,1,0,0:0:0:0:
160,224,22986,1,0,0:0:0:0:
160,192,23061,1,0,0:0:0:0:
160,224,23136,1,8,0:0:0:0:
160,224,23286,5,0,0:0:0:0:
128,192,23361,1,0,0:0:0:0:
96,160,23436,1,0,0:0:0:0:
96,160,23586,1,0,0:0:0:0:
96,160,23661,1,0,0:0:0:0:
96,160,23736,1,8,0:0:0:0:
96,160,23886,1,8,0:0:0:0:
96,160,24036,1,0,0:0:0:0:
0,160,24336,1,8,0:0:0:0:
0,160,24486,1,0,0:0:0:0:
32,160,24561,1,0,0:0:0:0:
96,160,24636,1,8,0:0:0:0:
96,160,24711,1,8,0:0:0:0:
128,128,24786,1,0,0:0:0:0:
128,128,24936,1,8,0:0:0:0:
0,160,25086,1,0,0:0:0:0:
128,128,25236,5,8,0:0:0:0:
128,128,25311,1,8,0:0:0:0:
128,128,25386,1,0,0:0:0:0:
128,128,25536,1,8,0:0:0:0:
128,128,25611,5,8,0:0:0:0:
128,128,25686,1,0,0:0:0:0:
128,128,25836,1,8,0:0:0:0:
0,160,25986,1,0,0:0:0:0:
128,128,26136,5,8,0:0:0:0:
0,160,26286,1,0,0:0:0:0:
128,128,26436,1,8,0:0:0:0:
128,128,26511,5,8,0:0:0:0:
128,128,26586,1,0,0:0:0:0:
128,128,26736,1,0,0:0:0:0:
128,128,26811,1,8,0:0:0:0:
128,128,26886,1,8,0:0:0:0:
64,160,27036,1,8,0:0:0:0:
128,128,27186,1,0,0:0:0:0:
0,160,27336,1,8,0:0:0:0:
0,160,27486,5,0,0:0:0:0:
96,160,27636,1,8,0:0:0:0:
96,160,27711,1,0,0:0:0:0:
0,160,27786,1,0,0:0:0:0:
0,160,27861,1,0,0:0:0:0:
0,160,27936,5,8,0:0:0:0:
96,160,28086,1,0,0:0:0:0:
96,160,28161,1,0,0:0:0:0:
64,160,28236,1,8,0:0:0:0:
0,160,28386,1,0,0:0:0:0:
0,160,28536,5,8,0:0:0:0:
96,160,28611,1,0,0:0:0:0:
0,160,28686,1,0,0:0:0:0:
64,160,28836,1,14,0:0:0:0:
128,160,29136,5,14,0:0:0:0:
128,160,29436,1,14,0:0:0:0:
0,160,29586,1,0,0:0:0:0:
0,160,29661,5,0,0:0:0:0:
96,160,29736,1,8,0:0:0:0:
96,160,29811,1,0,0:0:0:0:
0,160,29886,1,0,0:0:0:0:
64,192,30036,5,8,0:0:0:0:
96,192,30111,1,8,0:0:0:0:
128,192,30186,1,0,0:0:0:0:
192,224,30336,1,8,0:0:0:0:
0,160,30486,5,0,0:0:0:0:
96,160,30636,1,8,0:0:0:0:
96,160,30786,1,0,0:0:0:0:
192,256,30936,1,8,0:0:0:0:
160,192,31086,5,0,0:0:0:0:
160,224,31161,1,0,0:0:0:0:
160,224,31236,1,8,0:0:0:0:
160,224,31386,5,0,0:0:0:0:
160,224,31536,1,8,0:0:0:0:
160,224,31836,1,12,0:0:0:0:
160,224,32136,5,8,0:0:0:0:
160,224,32211,1,0,0:0:0:0:
160,224,32286,1,0,0:0:0:0:
160,224,32361,5,0,0:0:0:0:
160,224,32436,1,8,0:0:0:0:
128,160,32586,1,0,0:0:0:0:
160,224,32736,1,8,0:0:0:0:
160,224,33036,5,8,0:0:0:0:
160,224,33186,1,0,0:0:0:0:
160,224,33336,1,8,0:0:0:0:
160,224,33486,5,0,0:0:0:0:
160,224,33561,1,0,0:0:0:0:
160,224,33636,1,8,0:0:0:0:
160,224,33711,1,0,0:0:0:0:
160,224,33786,1,0,0:0:0:0:
160,224,33936,5,12,0:0:0:0:
160,224,34236,1,12,0:0:0:0:
160,224,34536,5,12,0:0:0:0:
224,160,34686,1,0,0:0:0:0:
160,224,34836,1,8,0:0:0:0:
160,224,34911,1,0,0:0:0:0:
160,224,34986,1,0,0:0:0:0:
160,224,35136,5,8,0:0:0:0:
160,224,35286,1,0,0:0:0:0:
160,224,35436,5,8,0:0:0:0:
128,160,35586,1,0,0:0:0:0:
96,128,35661,1,0,0:0:0:0:
160,224,35736,1,8,0:0:0:0:
96,128,35886,1,0,0:0:0:0:
96,128,36036,1,8,0:0:0:0:
96,128,36186,1,0,0:0:0:0:
160,224,36336,1,8,0:0:0:0:
160,224,36411,1,8,0:0:0:0:
160,224,36486,1,0,0:0:0:0:
96,128,36636,1,12,0:0:0:0:
96,128,36936,1,8,0:0:0:0:
160,192,37011,5,0,0:0:0:0:
160,160,37086,1,0,0:0:0:0:
160,224,37161,1,0,0:0:0:0:
160,192,37236,1,8,0:0:0:0:
160,224,37386,1,0,0:0:0:0:
160,224,37536,5,8,0:0:0:0:
96,128,37611,1,0,0:0:0:0:
160,224,37686,1,0,0:0:0:0:
96,128,37836,1,8,0:0:0:0:
160,224,37986,1,0,0:0:0:0:
160,224,38136,5,8,0:0:0:0:
160,224,38436,1,8,0:0:0:0:
96,128,38511,1,0,0:0:0:0:
160,224,38586,1,0,0:0:0:0:
160,224,38736,1,8,0:0:0:0:
160,224,38886,1,0,0:0:0:0:
96,128,39036,1,8,0:0:0:0:
96,128,39186,1,0,0:0:0:0:
96,128,39336,1,8,0:0:0:0:
160,224,39636,5,8,0:0:0:0:
96,128,39936,1,8,0:0:0:0:
0,192,40236,1,8,0:0:0:0:
0,192,40311,1,0,0:0:0:0:
96,128,40386,1,0,0:0:0:0:
160,224,40536,1,8,0:0:0:0:
160,224,40686,5,0,0:0:0:0:
160,224,40836,1,8,0:0:0:0:
160,224,41136,5,0,0:0:0:0:
160,224,41436,5,8,0:0:0:0:
28,176,41736,1,0,0:0:0:0:
0,160,41886,5,0,0:0:0:0:
0,160,42036,1,8,0:0:0:0:
0,160,42111,1,8,0:0:0:0:
127,212,42186,1,0,0:0:0:0:
160,224,42336,5,8,0:0:0:0:
160,224,42486,1,0,0:0:0:0:
160,224,42561,1,0,0:0:0:0:
0,160,42636,1,8,0:0:0:0:
0,160,42711,1,8,0:0:0:0:
206,171,42786,1,0,0:0:0:0:
160,224,42936,5,8,0:0:0:0:
160,224,43086,1,0,0:0:0:0:
160,224,43161,1,0,0:0:0:0:
0,160,43236,1,8,0:0:0:0:
94,200,43386,5,0,0:0:0:0:
0,160,43536,1,12,0:0:0:0:
0,160,43686,1,12,0:0:0:0:
160,224,43986,5,0,0:0:0:0:
160,224,44061,1,0,0:0:0:0:
160,224,44136,1,0,0:0:0:0:
128,192,44211,1,0,0:0:0:0:
160,224,44286,1,0,0:0:0:0:
128,192,44361,1,0,0:0:0:0:
128,288,44436,1,0,0:0:0:0:
192,288,44586,1,8,0:0:0:0:
96,160,44736,5,0,0:0:0:0:
192,288,44886,1,8,0:0:0:0:
224,256,44961,1,8,0:0:0:0:
128,288,45036,1,0,0:0:0:0:
192,224,45186,1,8,0:0:0:0:
96,128,45336,5,0,0:0:0:0:
160,96,45486,1,8,0:0:0:0:
192,96,45561,1,8,0:0:0:0:
128,288,45636,1,0,0:0:0:0:
128,256,45711,1,8,0:0:0:0:
192,256,45861,1,8,0:0:0:0:
128,160,45936,5,0,0:0:0:0:
192,160,46086,1,8,0:0:0:0:
128,320,46236,1,0,0:0:0:0:
128,256,46386,1,8,0:0:0:0:
128,256,46461,1,8,0:0:0:0:
128,192,46536,5,0,0:0:0:0:
128,256,46686,1,8,0:0:0:0:
128,320,46836,1,0,0:0:0:0:
128,256,46911,1,0,0:0:0:0:
128,256,46986,1,8,0:0:0:0:
128,192,47136,5,0,0:0:0:0:
128,256,47286,1,8,0:0:0:0:
128,256,47361,1,8,0:0:0:0:
128,320,47436,1,0,0:0:0:0:
128,256,47511,1,8,0:0:0:0:
128,256,47586,1,8,0:0:0:0:
128,224,47736,5,0,0:0:0:0:
128,256,47811,1,8,0:0:0:0:
128,256,47961,1,8,0:0:0:0:
128,352,48036,1,0,0:0:0:0:
128,256,48111,1,0,0:0:0:0:
128,256,48186,1,8,0:0:0:0:
128,256,48336,5,0,0:0:0:0:
128,256,48486,1,8,0:0:0:0:
128,256,48636,1,0,0:0:0:0:
128,256,48711,1,0,0:0:0:0:
128,256,48786,1,8,0:0:0:0:
128,256,48861,1,0,0:0:0:0:
128,256,48936,5,0,0:0:0:0:
128,256,49086,1,8,0:0:0:0:
128,256,49236,1,0,0:0:0:0:
128,256,49311,1,0,0:0:0:0:
128,256,49386,1,0,0:0:0:0:
32,128,49536,1,12,0:0:0:0:
128,256,49686,1,8,0:0:0:0:
128,256,49836,5,0,0:0:0:0:
128,256,49911,1,0,0:0:0:0:
128,256,49986,1,0,0:0:0:0:
32,128,50136,1,12,0:0:0:0:
128,256,50286,1,8,0:0:0:0:
128,256,50361,1,8,0:0:0:0:
128,256,50436,5,0,0:0:0:0:
128,256,50511,1,0,0:0:0:0:
128,256,50586,1,8,0:0:0:0:
32,128,50736,1,12,0:0:0:0:
128,256,50886,1,8,0:0:0:0:
128,256,50961,1,8,0:0:0:0:
128,256,51036,5,0,0:0:0:0:
128,256,51111,1,0,0:0:0:0:
128,256,51186,1,8,0:0:0:0:
32,128,51336,1,12,0:0:0:0:
128,256,51486,1,8,0:0:0:0:
128,256,51636,5,0,0:0:0:0:
128,256,51711,1,0,0:0:0:0:
128,256,51786,1,0,0:0:0:0:
32,128,51936,1,12,0:0:0:0:
128,256,52086,1,8,0:0:0:0:
128,256,52236,5,0,0:0:0:0:
128,256,52311,1,0,0:0:0:0:
128,256,52386,1,0,0:0:0:0:
32,128,52536,1,12,0:0:0:0:
128,256,52686,1,0,0:0:0:0:
128,256,52761,1,0,0:0:0:0:
128,256,52836,5,0,0:0:0:0:
128,256,52911,1,8,0:0:0:0:
128,256,52986,1,8,0:0:0:0:
128,256,53061,1,8,0:0:0:0:
128,256,53136,5,0,0:0:0:0:
128,256,53286,1,8,0:0:0:0:
128,256,53436,1,0,0:0:0:0:
128,256,53586,1,12,0:0:0:0:
128,256,53736,1,12,0:0:0:0:
128,256,54036,5,0,0:0:0:0:
64,224,54186,1,8,0:0:0:0:
32,192,54261,1,8,0:0:0:0:
128,256,54336,5,0,0:0:0:0:
64,224,54486,1,8,0:0:0:0:
128,256,54636,5,0,0:0:0:0:
64,224,54786,1,8,0:0:0:0:
32,192,54861,1,8,0:0:0:0:
128,256,54936,1,0,0:0:0:0:
64,224,55086,1,8,0:0:0:0:
32,192,55161,1,8,0:0:0:0:
128,256,55236,5,0,0:0:0:0:
96,224,55311,1,8,0:0:0:0:
32,192,55461,1,8,0:0:0:0:
128,256,55536,5,0,0:0:0:0:
64,224,55686,1,8,0:0:0:0:
128,256,55836,5,0,0:0:0:0:
64,224,55986,1,8,0:0:0:0:
32,192,56061,1,8,0:0:0:0:
128,256,56136,1,0,0:0:0:0:
96,224,56211,1,8,0:0:0:0:
64,224,56286,1,8,0:0:0:0:
128,128,56436,1,0,0:0:0:0:
64,160,56586,1,8,0:0:0:0:
32,160,56661,1,8,0:0:0:0:
128,256,56736,5,0,0:0:0:0:
64,224,56886,1,8,0:0:0:0:
128,256,57036,1,0,0:0:0:0:
96,224,57111,1,0,0:0:0:0:
64,192,57186,1,8,0:0:0:0:
128,256,57336,5,0,0:0:0:0:
64,224,57486,1,8,0:0:0:0:
32,192,57561,1,8,0:0:0:0:
128,256,57636,1,0,0:0:0:0:
64,224,57786,1,8,0:0:0:0:
128,256,57936,5,0,0:0:0:0:
64,224,58086,1,8,0:0:0:0:
32,192,58161,1,8,0:0:0:0:
128,256,58236,1,0,0:0:0:0:
96,224,58311,1,0,0:0:0:0:
64,192,58386,1,8,0:0:0:0:
128,256,58536,5,0,0:0:0:0:
64,224,58686,1,8,0:0:0:0:
32,192,58761,1,8,0:0:0:0:
128,256,58836,1,0,0:0:0:0:
64,224,58986,1,0,0:0:0:0:
256,288,59136,1,12,0:0:0:0:
192,256,59286,1,8,0:0:0:0:
128,256,59436,5,0,0:0:0:0:
96,224,59511,1,0,0:0:0:0:
64,224,59586,1,0,0:0:0:0:
256,288,59736,1,12,0:0:0:0:
192,256,59886,1,8,0:0:0:0:
128,256,60036,5,0,0:0:0:0:
96,224,60111,1,0,0:0:0:0:
32,192,60186,1,0,0:0:0:0:
256,288,60336,1,12,0:0:0:0:
192,256,60486,1,0,0:0:0:0:
160,256,60561,1,0,0:0:0:0:
128,256,60636,5,0,0:0:0:0:
64,224,60786,1,0,0:0:0:0:
256,288,60936,1,12,0:0:0:0:
192,256,61086,1,8,0:0:0:0:
128,256,61236,5,0,0:0:0:0:
96,224,61311,1,0,0:0:0:0:
64,224,61386,1,0,0:0:0:0:
256,288,61536,1,12,0:0:0:0:
192,256,61686,1,8,0:0:0:0:
128,256,61836,5,0,0:0:0:0:
96,224,61911,1,0,0:0:0:0:
64,224,61986,1,0,0:0:0:0:
256,288,62136,1,12,0:0:0:0:
192,256,62286,1,8,0:0:0:0:
160,256,62361,1,8,0:0:0:0:
128,256,62436,1,0,0:0:0:0:
96,224,62511,1,0,0:0:0:0:
32,192,62586,1,0,0:0:0:0:
256,288,62736,1,12,0:0:0:0:
192,256,62886,1,8,0:0:0:0:
128,256,63036,1,0,0:0:0:0:
64,224,63186,1,0,0:0:0:0:
32,192,63261,1,0,0:0:0:0:
256,288,63336,1,8,0:0:0:0:
192,256,63486,1,0,0:0:0:0:
256,160,63636,5,8,0:0:0:0:
256,160,63711,1,8,0:0:0:0:
256,160,63786,1,0,0:0:0:0:
256,160,63861,1,0,0:0:0:0:
256,160,63936,1,8,0:0:0:0:
256,160,64086,1,0,0:0:0:0:
256,160,64236,1,8,0:0:0:0:
256,160,64311,1,0,0:0:0:0:
256,160,64386,1,0,0:0:0:0:
224,160,64461,1,0,0:0:0:0:
256,160,64536,1,8,0:0:0:0:
256,160,64686,1,0,0:0:0:0:
256,160,64836,1,8,0:0:0:0:
256,160,64986,1,0,0:0:0:0:
256,160,65061,1,0,0:0:0:0:
256,160,65136,1,8,0:0:0:0:
256,160,65286,1,0,0:0:0:0:
256,160,65436,1,12,0:0:0:0:
192,160,65586,1,0,0:0:0:0:
188,37,65736,1,8,0:0:0:0:
204,67,65811,1,8,0:0:0:0:
221,97,65886,1,0,0:0:0:0:
254,158,66036,1,8,0:0:0:0:
221,95,66186,1,0,0:0:0:0:
253,156,66336,1,8,0:0:0:0:
192,224,66411,1,8,0:0:0:0:
192,224,66486,1,0,0:0:0:0:
392,168,66636,1,8,0:0:0:0:
322,162,66786,1,0,0:0:0:0:
322,162,66936,1,8,0:0:0:0:
322,162,67086,1,0,0:0:0:0:
256,160,67236,2,0,L|352:160,7,70
129,152,68436,5,8,0:0:0:0:
129,152,68586,1,0,0:0:0:0:
129,152,68661,1,0,0:0:0:0:
129,152,68736,1,8,0:0:0:0:
96,192,68886,1,0,0:0:0:0:
129,152,69036,1,8,0:0:0:0:
129,152,69186,1,0,0:0:0:0:
129,152,69336,1,8,0:0:0:0:
129,152,69411,1,8,0:0:0:0:
129,152,69486,1,0,0:0:0:0:
64,160,69636,1,8,0:0:0:0:
129,152,69786,1,0,0:0:0:0:
129,152,69861,1,0,0:0:0:0:
129,152,69936,1,8,0:0:0:0:
129,152,70086,1,0,0:0:0:0:
64,160,70236,1,12,0:0:0:0:
129,152,70536,1,8,0:0:0:0:
129,152,70686,1,0,0:0:0:0:
129,152,70836,1,8,0:0:0:0:
129,152,70911,1,8,0:0:0:0:
129,152,70986,1,0,0:0:0:0:
129,152,71136,1,8,0:0:0:0:
129,152,71286,1,0,0:0:0:0:
129,152,71436,1,8,0:0:0:0:
96,160,71511,1,8,0:0:0:0:
100,215,71586,1,0,0:0:0:0:
129,151,71736,1,8,0:0:0:0:
101,215,71886,1,0,0:0:0:0:
115,183,71961,1,0,0:0:0:0:
129,151,72036,1,8,0:0:0:0:
115,183,72186,1,0,0:0:0:0:
115,183,72336,1,8,0:0:0:0:
96,192,72411,1,8,0:0:0:0:
96,192,72486,1,8,0:0:0:0:
96,192,72561,1,8,0:0:0:0:
115,183,72636,1,0,0:0:0:0:
96,192,72786,1,8,0:0:0:0:
96,192,72936,1,0,0:0:0:0:
96,192,73086,1,8,0:0:0:0:
256,160,73236,5,8,0:0:0:0:
256,160,73311,1,8,0:0:0:0:
256,160,73386,1,0,0:0:0:0:
256,160,73461,1,0,0:0:0:0:
256,160,73536,1,8,0:0:0:0:
224,160,73611,1,8,0:0:0:0:
256,160,73686,1,0,0:0:0:0:
256,160,73836,1,8,0:0:0:0:
256,160,73911,1,0,0:0:0:0:
256,160,73986,1,0,0:0:0:0:
224,160,74061,1,0,0:0:0:0:
256,160,74136,1,8,0:0:0:0:
256,160,74286,1,0,0:0:0:0:
256,160,74436,1,8,0:0:0:0:
224,160,74511,1,8,0:0:0:0:
256,160,74586,1,0,0:0:0:0:
256,160,74661,1,0,0:0:0:0:
256,160,74736,1,8,0:0:0:0:
256,160,74886,1,0,0:0:0:0:
256,160,75036,1,12,0:0:0:0:
192,192,75186,1,0,0:0:0:0:
128,192,75336,1,8,0:0:0:0:
160,64,75411,1,8,0:0:0:0:
221,97,75486,1,0,0:0:0:0:
192,128,75561,1,0,0:0:0:0:
254,158,75636,1,8,0:0:0:0:
221,95,75786,1,0,0:0:0:0:
253,156,75936,1,8,0:0:0:0:
224,160,76011,1,8,0:0:0:0:
192,160,76086,1,0,0:0:0:0:
392,168,76236,1,8,0:0:0:0:
352,160,76311,1,8,0:0:0:0:
322,162,76386,1,0,0:0:0:0:
288,160,76461,1,0,0:0:0:0:
322,162,76536,1,8,0:0:0:0:
322,162,76686,1,0,0:0:0:0:
256,192,76836,1,8,0:0:0:0:
224,192,76911,1,8,0:0:0:0:
192,192,76986,1,0,0:0:0:0:
160,288,77136,1,8,0:0:0:0:
96,256,77286,1,0,0:0:0:0:
96,224,77361,1,0,0:0:0:0:
160,288,77436,1,8,0:0:0:0:
96,256,77586,1,0,0:0:0:0:
160,288,77736,1,8,0:0:0:0:
160,224,77786,1,8,0:0:0:0:
160,224,77836,1,8,0:0:0:0:
160,224,77886,1,8,0:0:0:0:
160,224,78036,1,8,0:0:0:0:
320,288,78186,1,0,0:0:0:0:
320,288,78261,1,0,0:0:0:0:
320,288,78336,1,8,0:0:0:0:
320,288,78486,1,0,0:0:0:0:
320,288,78636,1,8,0:0:0:0:
320,288,78711,1,0,0:0:0:0:
320,288,78786,1,0,0:0:0:0:
320,288,78861,1,0,0:0:0:0:
320,288,78936,1,8,0:0:0:0:
320,288,79086,1,0,0:0:0:0:
256,256,79236,1,8,0:0:0:0:
224,224,79311,1,0,0:0:0:0:
192,192,79386,1,0,0:0:0:0:
256,256,79536,1,8,0:0:0:0:
256,256,79686,1,0,0:0:0:0:
192,224,79836,1,12,0:0:0:0:
128,192,79986,1,0,0:0:0:0:
96,160,80061,1,0,0:0:0:0:
320,288,80136,1,8,0:0:0:0:
96,160,80211,1,0,0:0:0:0:
320,288,80286,1,0,0:0:0:0:
320,288,80436,1,8,0:0:0:0:
96,160,80511,1,0,0:0:0:0:
96,160,80586,1,0,0:0:0:0:
320,288,80736,1,12,0:0:0:0:
96,160,80886,1,0,0:0:0:0:
320,288,81036,1,8,0:0:0:0:
320,288,81111,1,0,0:0:0:0:
320,288,81186,1,8,0:0:0:0:
96,160,81336,1,0,0:0:0:0:
96,160,81486,1,8,0:0:0:0:
96,160,81561,1,8,0:0:0:0:
96,160,81636,1,8,0:0:0:0:
96,160,81711,1,8,0:0:0:0:
320,288,81786,1,8,0:0:0:0:
320,288,81936,1,0,0:0:0:0:
320,288,82086,1,8,0:0:0:0:
320,288,82236,1,0,0:0:0:0:
256,192,82386,12,0,82536,0:0:0:0:
32,96,82836,5,8,0:0:0:0:
0,224,82986,5,0,0:0:0:0:
0,224,83136,1,8,0:0:0:0:
0,224,83286,1,0,0:0:0:0:
0,224,83361,5,0,0:0:0:0:
0,224,83436,1,8,0:0:0:0:
0,224,83586,1,0,0:0:0:0:
0,224,83736,1,8,0:0:0:0:
0,160,84036,5,0,0:0:0:0:
0,160,84186,1,0,0:0:0:0:
0,160,84336,5,8,0:0:0:0:
0,160,84486,1,0,0:0:0:0:
0,224,84636,1,8,0:0:0:0:
0,224,84711,5,8,0:0:0:0:
0,224,84786,1,0,0:0:0:0:
0,224,84936,1,0,0:0:0:0:
0,224,85011,1,8,0:0:0:0:
0,224,85086,1,8,0:0:0:0:
0,160,85236,1,8,0:0:0:0:
0,160,85386,5,0,0:0:0:0:
0,160,85536,1,8,0:0:0:0:
0,160,85686,1,0,0:0:0:0:
0,160,85761,1,0,0:0:0:0:
0,160,85836,1,8,0:0:0:0:
0,160,85986,5,0,0:0:0:0:
0,160,86136,1,8,0:0:0:0:
160,160,86286,2,0,L|256:160,30,70
128,224,90936,1,0,0:0:0:0:
160,192,91011,1,0,0:0:0:0:
128,224,91136,1,0,0:0:0:0:
160,224,91236,1,0,0:0:0:0:
224,192,91386,1,0,0:0:0:0:
256,192,91536,12,0,92136,0:0:0:0:
