osu file format v12

[General]
AudioFilename: Hirano Aya - Super Driver (Tv Size Cut).ogg
AudioLeadIn: 1000
PreviewTime: 44436
Countdown: 0
SampleSet: Normal
StackLeniency: 0.7
Mode: 1
LetterboxInBreaks: 0
WidescreenStoryboard: 1

[Editor]
DistanceSpacing: 1
BeatDivisor: 2
GridSize: 32
TimelineZoom: 3.799999

[Metadata]
Title:Super Driver (TV Size)
TitleUnicode:Super Driver (TV Size)
Artist:Hirano Aya
ArtistUnicode:Hirano Aya
Creator:xWillx
Version:Kantan
Source:Suzumiya Haruhi No Yuutsu
Tags:hirano aya haruhi suzumiya melancholy of no yuutsu anime
BeatmapID:405028
BeatmapSetID:166651

[Difficulty]
HPDrainRate:3
CircleSize:4
OverallDifficulty:3
ApproachRate:5
SliderMultiplier:1.2
SliderTickRate:1

[Events]
//Background and Video events
0,0,"xsuzumiyax.png",0,0
//Break Periods
//Storyboard Layer 0 (Background)
//Storyboard Layer 1 (Fail)
//Storyboard Layer 2 (Pass)
//Storyboard Layer 3 (Foreground)
//Storyboard Sound Samples
//Background Colour Transformations
3,100,163,162,255

[TimingPoints]
1236,300,4,1,1,80,1,0
44436,-100,4,1,1,100,0,1
63636,-100,4,1,1,80,0,0
73236,-100,4,1,1,100,0,1
82836,-100,4,1,1,80,0,0

[HitObjects]
0,224,1236,5,10,0:0:0:0:
0,224,1536,1,10,0:0:0:0:
0,224,1836,1,10,0:0:0:0:
0,224,2136,5,10,0:0:0:0:
0,224,2436,1,10,0:0:0:0:
0,224,2736,5,10,0:0:0:0:
0,224,3036,1,0,0:0:0:0:
0,224,3336,1,0,0:0:0:0:
0,224,3636,5,10,0:0:0:0:
0,224,3936,1,10,0:0:0:0:
0,224,4236,1,10,0:0:0:0:
0,224,4536,5,10,0:0:0:0:
0,224,4836,1,10,0:0:0:0:
0,224,5136,5,10,0:0:0:0:
0,224,5436,1,0,0:0:0:0:
0,224,5736,1,4,0:0:0:0:
0,224,6036,1,8,0:0:0:0:
0,224,6636,1,0,0:0:0:0:
0,224,6936,1,8,0:0:0:0:
64,256,7536,2,0,L|256:192,2,120
0,160,8436,1,8,0:0:0:0:
0,160,9036,1,0,0:0:0:0:
0,160,9336,1,8,0:0:0:0:
0,160,9936,1,8,0:0:0:0:
0,160,10236,5,8,0:0:0:0:
0,160,10536,1,0,0:0:0:0:
0,160,11136,5,0,0:0:0:0:
0,160,11736,1,0,0:0:0:0:
0,160,12336,1,8,0:0:0:0:
0,160,12936,1,0,0:0:0:0:
0,160,13236,5,0,0:0:0:0:
0,160,13836,1,8,0:0:0:0:
0,160,14136,1,8,0:0:0:0:
0,160,14436,5,8,0:0:0:0:
0,160,15036,5,0,0:0:0:0:
0,160,15336,1,8,0:0:0:0:
0,160,15636,1,8,0:0:0:0:
0,160,16236,1,8,0:0:0:0:
160,192,16536,1,0,0:0:0:0:
0,160,16836,5,8,0:0:0:0:
0,160,17436,5,8,0:0:0:0:
128,160,17736,1,0,0:0:0:0:
0,160,18036,1,0,0:0:0:0:
0,160,18336,1,8,0:0:0:0:
0,160,18786,1,8,0:0:0:0:
0,160,19086,1,0,0:0:0:0:
0,160,19536,5,14,0:0:0:0:
64,192,19836,2,0,L|224:224,2,120
128,192,20736,5,8,0:0:0:0:
256,288,21036,1,8,0:0:0:0:
128,320,21636,1,8,0:0:0:0:
160,192,21936,1,8,0:0:0:0:
0,160,22236,5,8,0:0:0:0:
160,224,22836,5,8,0:0:0:0:
0,160,23436,1,8,0:0:0:0:
0,160,23736,5,0,0:0:0:0:
160,224,24036,1,8,0:0:0:0:
128,128,24636,5,0,0:0:0:0:
128,128,24936,1,8,0:0:0:0:
128,128,25236,5,8,0:0:0:0:
128,128,25836,1,8,0:0:0:0:
128,128,26136,5,8,0:0:0:0:
128,128,26436,1,8,0:0:0:0:
0,160,27036,5,8,0:0:0:0:
0,160,27336,1,0,0:0:0:0:
128,160,27636,1,8,0:0:0:0:
0,160,28236,5,0,0:0:0:0:
64,160,28836,1,14,0:0:0:0:
128,160,29136,5,14,0:0:0:0:
128,160,29436,1,14,0:0:0:0:
64,192,30036,5,8,0:0:0:0:
192,224,30336,1,8,0:0:0:0:
0,160,30636,5,0,0:0:0:0:
160,224,31236,5,0,0:0:0:0:
160,224,31536,1,8,0:0:0:0:
160,224,31836,1,12,0:0:0:0:
160,224,32436,1,0,0:0:0:0:
160,224,33036,5,0,0:0:0:0:
160,224,33336,1,8,0:0:0:0:
160,224,33636,1,0,0:0:0:0:
160,224,34236,1,12,0:0:0:0:
160,224,34536,5,12,0:0:0:0:
160,224,34836,1,12,0:0:0:0:
160,224,35436,1,0,0:0:0:0:
160,224,36036,1,0,0:0:0:0:
160,224,36336,1,8,0:0:0:0:
160,224,36636,5,12,0:0:0:0:
160,192,37236,1,0,0:0:0:0:
160,224,37836,1,0,0:0:0:0:
160,224,38436,1,8,0:0:0:0:
160,224,38736,1,8,0:0:0:0:
160,224,39036,1,0,0:0:0:0:
160,224,39636,5,8,0:0:0:0:
160,224,40236,1,0,0:0:0:0:
160,224,40836,1,8,0:0:0:0:
160,224,41436,5,8,0:0:0:0:
28,176,41736,1,8,0:0:0:0:
96,288,42036,2,0,L|288:192,1,120
96,288,42636,2,0,L|288:192,1,120
0,160,43236,1,8,0:0:0:0:
0,160,43536,1,12,0:0:0:0:
0,160,43686,1,12,0:0:0:0:
128,288,44436,1,0,0:0:0:0:
96,160,44736,5,0,0:0:0:0:
128,288,45036,1,0,0:0:0:0:
160,96,45336,1,0,0:0:0:0:
160,160,45486,1,8,0:0:0:0:
128,224,45786,1,0,0:0:0:0:
192,160,46086,1,8,0:0:0:0:
128,192,46536,5,0,0:0:0:0:
128,320,46836,1,0,0:0:0:0:
128,192,47136,5,0,0:0:0:0:
128,320,47436,1,0,0:0:0:0:
160,224,47736,1,0,0:0:0:0:
128,256,47886,1,8,0:0:0:0:
128,256,48186,1,8,0:0:0:0:
128,256,48636,1,0,0:0:0:0:
128,256,48936,5,0,0:0:0:0:
128,256,49236,1,0,0:0:0:0:
32,128,49536,1,12,0:0:0:0:
32,128,50136,1,12,0:0:0:0:
32,128,50736,1,12,0:0:0:0:
32,128,51336,1,12,0:0:0:0:
128,256,51636,5,0,0:0:0:0:
32,128,51936,1,12,0:0:0:0:
32,128,52536,1,12,0:0:0:0:
128,256,52836,5,0,0:0:0:0:
128,256,53136,5,0,0:0:0:0:
128,256,53586,1,12,0:0:0:0:
128,256,53736,1,12,0:0:0:0:
128,256,54036,5,0,0:0:0:0:
128,256,54336,5,0,0:0:0:0:
128,256,54636,5,0,0:0:0:0:
128,256,54936,1,0,0:0:0:0:
64,224,55086,1,8,0:0:0:0:
128,256,55386,5,8,0:0:0:0:
64,224,55686,1,8,0:0:0:0:
64,224,56136,1,8,0:0:0:0:
128,128,56436,1,0,0:0:0:0:
128,256,56736,5,0,0:0:0:0:
128,256,57036,1,0,0:0:0:0:
128,256,57336,5,0,0:0:0:0:
64,224,57486,1,8,0:0:0:0:
64,224,57786,1,8,0:0:0:0:
128,256,58236,1,0,0:0:0:0:
128,256,58536,5,0,0:0:0:0:
128,256,58836,1,0,0:0:0:0:
256,288,59136,1,12,0:0:0:0:
256,288,59736,1,12,0:0:0:0:
256,288,60336,1,12,0:0:0:0:
256,288,60936,1,12,0:0:0:0:
128,256,61236,5,0,0:0:0:0:
256,288,61536,1,12,0:0:0:0:
256,288,62136,1,12,0:0:0:0:
128,256,62436,1,0,0:0:0:0:
256,288,62736,1,12,0:0:0:0:
192,256,62886,1,12,0:0:0:0:
256,160,63636,5,8,0:0:0:0:
256,160,63936,1,8,0:0:0:0:
256,160,64236,1,8,0:0:0:0:
256,160,64836,1,0,0:0:0:0:
256,160,65136,1,8,0:0:0:0:
256,160,65436,1,12,0:0:0:0:
254,158,66036,1,8,0:0:0:0:
253,156,66336,1,8,0:0:0:0:
322,162,66636,1,0,0:0:0:0:
322,162,66936,1,8,0:0:0:0:
256,160,67236,2,8,L|352:160,6,60
129,152,68436,5,8,0:0:0:0:
129,152,68736,1,8,0:0:0:0:
129,152,69036,1,8,0:0:0:0:
129,152,69636,1,0,0:0:0:0:
129,152,69936,1,8,0:0:0:0:
64,160,70236,1,12,0:0:0:0:
129,152,70836,1,8,0:0:0:0:
129,152,71136,1,8,0:0:0:0:
129,152,71436,1,0,0:0:0:0:
129,151,71736,1,8,0:0:0:0:
32,192,72036,2,0,L|128:192,6,60
256,160,73236,5,8,0:0:0:0:
256,160,73536,1,8,0:0:0:0:
256,160,73836,1,8,0:0:0:0:
256,160,74136,1,8,0:0:0:0:
256,160,74286,1,0,0:0:0:0:
256,160,74586,1,0,0:0:0:0:
256,160,74736,1,8,0:0:0:0:
256,160,75036,1,12,0:0:0:0:
254,158,75636,1,8,0:0:0:0:
253,156,75936,1,8,0:0:0:0:
322,162,76536,1,8,0:0:0:0:
256,192,76836,1,8,0:0:0:0:
160,288,77436,1,12,0:0:0:0:
160,288,77736,1,12,0:0:0:0:
160,224,78036,1,8,0:0:0:0:
320,288,78336,1,8,0:0:0:0:
320,288,78636,1,8,0:0:0:0:
320,288,78936,1,8,0:0:0:0:
320,288,79086,1,0,0:0:0:0:
192,192,79386,1,0,0:0:0:0:
256,256,79536,1,8,0:0:0:0:
192,224,79836,1,12,0:0:0:0:
320,288,80436,1,8,0:0:0:0:
320,288,80736,1,12,0:0:0:0:
320,288,81036,1,8,0:0:0:0:
320,288,81186,1,8,0:0:0:0:
96,160,81486,1,8,0:0:0:0:
0,224,81786,2,0,L|64:192,3,60
0,224,82836,5,8,0:0:0:0:
0,224,83136,1,8,0:0:0:0:
0,224,83436,1,0,0:0:0:0:
0,224,83736,1,8,0:0:0:0:
64,256,84336,2,0,L|256:192,2,120
0,160,85236,1,8,0:0:0:0:
0,160,85536,1,8,0:0:0:0:
0,160,85836,1,0,0:0:0:0:
96,224,86136,1,8,0:0:0:0:
256,192,86286,12,0,91836,0:0:0:0:
