osu file format v5

[General]
AudioFilename: rename_your_file.mp3
AudioLeadIn: 2007
PreviewTime: 43820
Countdown: 0
SampleSet: Normal
StackLeniency: 0.7
Mode: 0
LetterboxInBreaks: 1
EditorDistanceSpacing: 0.800000011920929

[Metadata]
Title:Super Driver (TV Size)
Artist:Hirano Aya
Creator:Mogsworth
Version:Normal
Source:Suzumiya Haruhi No Yuutsu
Tags:hirano aya haruhi suzumiya melancholy of no yuutsu super driver tv size anime animu

[Difficulty]
HPDrainRate:5
CircleSize:5
OverallDifficulty:5
SliderMultiplier:1.1
SliderTickRate:1

[Events]
//Background and Video events
0,0,"SuzumiyaHaruhiNoYuutsu2.jpg"
1,0,"OP.avi"
//Break Periods
2,41276,42576
//Storyboard Layer 0 (Background)
//Storyboard Layer 1 (Failing)
//Storyboard Layer 2 (Passing)
//Storyboard Layer 3 (Foreground)
//Storyboard Sound Samples
//Background Colour Transformations
3,100,163,162,255

[TimingPoints]
611,300,4,1,0,80,1,0
2411,-200,4,2,0,80,0,0
3011,-100,4,1,0,80,0,0
8676,300,4,1,0,80,1,0
43776,-100,4,1,0,80,0,1
53076,-100,4,1,0,80,0,0
53376,-100,4,1,0,80,0,1
62976,-100,4,1,0,80,0,0

[HitObjects]
128,87,9576,1,0
240,83,9876,1,8
352,81,10176,1,4
215,191,10776,6,0,B|448:191,1,220
438,279,11676,1,0
355,248,11976,1,0
272,277,12276,1,0
200,246,12576,2,0,B|84:246,2,110,4|0|8
244,246,13326,2,8,B|309:247,2,55,0|8|8
29,197,14376,5,0
171,111,14676,1,8
173,276,14976,1,6
173,276,15276,1,2
315,191,15576,5,0
171,111,15876,1,8
28,193,16176,1,6
28,193,16476,1,2
256,192,16776,12,4,18426
384,87,19176,5,0
272,83,19476,1,8
160,81,19776,1,4
297,191,20376,6,0,B|64:191,1,220
74,279,21276,1,0
157,248,21576,1,0
238,280,21876,1,0
312,246,22176,2,0,B|428:246,2,110,4|0|8
268,246,22926,2,8,B|203:247,2,55,0|8|8
483,197,23976,5,0
341,111,24276,1,8
339,276,24576,1,6
339,276,24876,1,2
197,191,25176,5,0
341,111,25476,1,8
484,193,25776,1,6
484,193,26076,1,2
256,192,26376,12,4,28026
152,196,29376,6,0,B|74:196,3,55
130,277,30126,2,0,B|199:277,1,55
185,277,30426,2,0,B|239:331|289:266,1,110,0|8
279,277,30876,2,4,B|331:225|383:288,1,110,4|4
408,196,31476,6,0,B|464:196,2,55
319,196,32076,1,0
230,194,32376,2,0,B|173:194,2,55
256,192,32826,12,4,33876
360,196,34176,6,0,B|438:196,3,55
382,277,34926,2,0,B|313:277,1,55
327,277,35226,2,0,B|273:331|223:266,1,110,0|8
233,277,35676,2,4,B|181:225|129:288,1,110,4|4
136,190,36276,5,0
136,190,36426,1,0
136,190,36576,2,0,B|186:217|262:179,1,110,0|8
241,143,37026,2,0,B|291:116|367:154,1,110,0|0
347,145,37476,1,8
427,109,37776,6,0,B|454:159|416:235,1,110,0|8
380,214,38226,2,0,B|353:264|391:340,1,110,0|0
382,320,38676,1,8
256,192,38976,12,4,41076
258,196,43776,5,0
304,121,44076,1,0
216,118,44376,2,0,B|155:90|181:185|114:145,1,110,0|8
124,186,44826,6,0,B|124:309,3,110,0|0|0|8
124,296,45876,1,0
124,296,46026,1,0
167,298,46176,5,0
240,346,46476,1,0
237,257,46776,2,0,B|304:251|269:298|346:309,1,110,0|8
372,305,47226,2,4,B|380:245|427:280|421:213,1,110,4|4
310,140,47976,5,0
222,141,48276,1,8
256,192,48576,12,8,49476
166,192,49776,6,0,B|221:192,3,55
309,190,50526,1,8
440,193,50826,2,0,B|493:350|252:335,1,275,0|8
256,192,51876,12,4,53076
254,196,53376,5,0
208,121,53676,1,0
296,118,53976,2,0,B|357:90|331:185|398:145,1,110,0|8
388,186,54426,6,0,B|388:309,3,110,0|0|0|8
388,296,55476,1,0
388,296,55626,1,0
345,298,55776,5,0
272,346,56076,1,0
275,257,56376,2,0,B|208:251|243:298|166:309,1,110,0|8
140,305,56826,2,4,B|132:245|85:280|91:213,1,110,4|4
202,140,57576,5,0
290,141,57876,1,8
256,192,58176,12,8,59076
346,192,59376,6,0,B|291:192,3,55
203,190,60126,1,8
78,233,60576,2,0,B|21:354|216:346,1,220,0|8
256,192,61476,12,4,62676
142,191,62976,6,0,B|62:191,2,55,0|0|0
230,191,63576,2,0,B|310:191,2,55,0|0|0
230,235,64026,2,0,B|366:235,1,110,0|8
319,273,64476,2,0,B|188:272,1,110,0|8
120,272,65076,6,0,B|120:341,2,55
122,183,65676,1,0
210,181,65976,2,0,B|278:181,2,55,0|0|8
256,192,66426,12,4,67476
370,191,67776,6,0,B|450:191,2,55,0|0|0
282,191,68376,2,0,B|202:191,2,55,0|0|0
282,235,68826,2,0,B|146:235,1,110,0|8
193,273,69276,2,0,B|324:272,1,110,0|8
392,272,69876,6,0,B|392:341,2,55
390,183,70476,1,0
301,181,70776,2,0,B|233:181,2,55,0|0|8
256,192,71226,12,4,72276
86,192,72576,5,0
130,192,72726,1,0
174,192,72876,1,0
174,279,73176,1,0
218,279,73326,1,0
262,279,73476,1,0
305,281,73626,2,0,B|369:224|288:181,1,110,0|8
303,146,74076,2,0,B|248:87|194:155,1,110,0|8
137,192,74676,5,0
137,236,74826,1,0
137,280,74976,2,0,B|198:306|258:271,2,110
137,236,75726,1,0
137,192,75876,1,0
256,192,76026,12,4,77076
86,192,77376,5,0
130,192,77526,1,0
174,192,77676,1,0
174,279,77976,1,0
218,279,78126,1,0
262,279,78276,1,0
305,281,78426,2,0,B|369:224|288:181,1,110,0|8
303,146,78876,2,0,B|248:87|194:155,1,110,0|8
137,192,79476,5,0
137,236,79626,1,0
137,280,79776,2,0,B|198:306|258:271,2,110
137,280,80526,1,0
256,192,80826,12,4,81876
