osu file format v5

[General]
AudioFilename: rename_your_file.mp3
AudioLeadIn: 2007
PreviewTime: 43820
Countdown: 0
SampleSet: Normal
StackLeniency: 0.7
Mode: 0
LetterboxInBreaks: 1
EditorDistanceSpacing: 0.800000011920929

[Metadata]
Title:Super Driver (TV Size)
Artist:Hirano Aya
Creator:Mogsworth
Version:Easy
Source:Suzumiya Haruhi No Yuutsu
Tags:hirano aya haruhi suzumiya melancholy of no yuutsu super driver tv size anime animu

[Difficulty]
HPDrainRate:4
CircleSize:4
OverallDifficulty:4
SliderMultiplier:0.8
SliderTickRate:2

[Events]
//Background and Video events
0,0,"SuzumiyaHaruhiNoYuutsu2.jpg"
1,0,"OP.avi"
//Break Periods
2,40226,42456
//Storyboard Layer 0 (Background)
//Storyboard Layer 1 (Failing)
//Storyboard Layer 2 (Passing)
//Storyboard Layer 3 (Foreground)
//Storyboard Sound Samples
//Background Colour Transformations
3,100,163,162,255

[TimingPoints]
611,300,4,1,0,80,1,0
2411,-200,4,2,0,80,0,0
3011,-100,4,1,0,80,0,0
8676,300,4,1,0,80,1,0
43776,-100,4,1,0,80,0,1
53076,-100,4,1,0,80,0,0
53376,-100,4,1,0,80,0,1
62976,-100,4,1,0,80,0,0

[HitObjects]
130,192,9576,2,0,B|45:191,2,80,0|8|4
258,192,10776,1,0
386,194,11376,2,0,B|526:159|506:351|283:309,1,320,0|4
168,230,13326,2,8,B|109:231,2,40
256,96,14376,6,0,B|351:96,2,80,0|8|4
259,224,15576,6,0,B|164:224,2,80,0|8|4
256,192,16776,12,4,18426
382,192,19176,6,0,B|467:191,2,80,0|8|4
254,192,20376,1,0
126,194,20976,2,0,B|-14:159|6:351|229:309,1,320,0|4
344,230,22926,2,8,B|403:231,2,40
256,96,23976,6,0,B|161:96,2,80,0|8|4
253,224,25176,6,0,B|348:224,2,80,0|8|4
256,192,26376,12,4,28026
74,141,29376,6,0,B|207:141,1,120,0|8
164,198,30126,2,0,B|375:198,1,200,0|8
428,198,31176,1,8
256,192,31476,12,4,32826
416,297,34176,6,0,B|287:297,1,120,0|8
318,237,34926,2,0,B|113:237,1,200,0|8
119,172,35976,1,8
120,107,36276,1,4
256,192,36576,12,4,40026
108,192,43776,6,0,B|202:192,3,80,0|0|0|8
188,192,44826,2,0,B|249:101|309:59|411:212,1,280
403,259,46176,6,0,B|306:259,3,80,0|0|0|8
323,259,47226,2,4,B|236:260,1,80
169,197,47976,5,0
124,151,48276,1,8
136,88,48576,2,0,B|224:24|380:60,1,240,0|8
407,106,49776,5,0
454,149,50076,1,8
403,188,50376,1,0
456,223,50676,1,8
401,256,50976,2,0,B|314:361|251:293,1,160,0|8
256,192,51876,12,4,53076
404,192,53376,6,0,B|310:192,3,80,0|0|0|8
324,192,54426,2,0,B|263:101|203:59|101:212,1,280
109,259,55776,6,0,B|206:259,3,80,0|0|0|8
189,259,56826,2,4,B|276:260,1,80
343,197,57576,5,0
388,151,57876,1,8
376,88,58176,2,0,B|288:24|132:60,1,240,0|8
105,106,59376,5,0
58,149,59676,1,8
109,188,59976,1,0
56,223,60276,1,8
111,256,60576,2,0,B|191:229|219:294|279:254,1,160,0|8
256,192,61476,12,4,62676
69,194,62976,5,0
69,194,63276,1,0
133,194,63576,5,0
133,194,63876,1,0
197,193,64176,6,0,B|286:192,2,80,4|8|8
256,192,65076,12,4,66426
443,194,67776,5,0
443,194,68076,1,0
379,194,68376,5,0
379,194,68676,1,0
315,193,68976,6,0,B|226:192,2,80,4|8|8
256,192,69876,12,4,71226
433,196,72576,6,0,B|336:197,1,80
292,217,73176,2,0,B|195:218,1,80
213,217,73626,2,0,B|123:214|135:144|184:87|234:121,1,200,0|8
256,192,74676,12,4,76026
79,196,77376,6,0,B|176:197,1,80
220,217,77976,2,0,B|317:218,1,80
299,217,78426,2,0,B|389:214|377:144|328:87|278:121,1,200,0|8
256,192,79476,12,4,81876
