osu file format v5

[General]
AudioFilename: rename_your_file.mp3
AudioLeadIn: 2007
PreviewTime: 43820
Countdown: 1
SampleSet: Normal
StackLeniency: 0.7
Mode: 0
LetterboxInBreaks: 1
EditorDistanceSpacing: 1

[Metadata]
Title:Super Driver (TV Size)
Artist:Hirano Aya
Creator:Mogsworth
Version:Crazy
Source:Suzumiya Haruhi No Yuutsu
Tags:hirano aya haruhi suzumiya melancholy of no yuutsu super driver tv size anime animu

[Difficulty]
HPDrainRate:7
CircleSize:6
OverallDifficulty:7
SliderMultiplier:1.6
SliderTickRate:1

[Events]
//Background and Video events
0,0,"SuzumiyaHaruhiNoYuutsu2.jpg"
1,0,"OP.avi"
//Break Periods
2,5311,8676
2,40976,42876
//Storyboard Layer 0 (Background)
//Storyboard Layer 1 (Failing)
//Storyboard Layer 2 (Passing)
//Storyboard Layer 3 (Foreground)
//Storyboard Sound Samples
//Background Colour Transformations
3,100,163,162,255

[TimingPoints]
611,300,4,1,0,80,1,0
2411,-200,4,2,0,80,0,0
3011,-100,4,1,0,80,0,0
8676,300,4,1,0,80,1,0
43776,-100,4,1,0,80,0,1
52626,-100,4,1,0,80,0,0
53376,-100,4,1,0,80,0,1
62976,-100,4,1,0,80,0,0

[HitObjects]
98,117,611,1,0
178,117,761,1,0
258,117,911,1,0
338,117,1061,1,0
418,117,1211,1,0
422,277,1511,5,0
342,277,1661,1,0
262,277,1811,1,0
182,277,1961,1,0
102,277,2111,1,0
238,192,2411,6,0,B|304:192,2,40,0|0|2
102,278,3011,5,0
182,278,3161,1,0
262,278,3311,1,0
342,278,3461,1,0
422,278,3611,1,0
418,117,3911,5,0
338,117,4061,1,0
258,117,4211,1,0
178,117,4361,1,0
98,117,4511,1,0
182,199,4811,6,0,B|246:172|259:247|352:187,1,160
49,191,9576,6,0,B|86:206|142:189,1,80
201,159,9876,2,0,B|238:144|294:161,1,80
351,192,10176,2,0,B|386:251|407:157|510:208,1,160,0|8
380,311,10776,6,0,B|312:308|368:242|247:232,1,160
255,71,11376,2,0,B|315:25|332:136|435:119,1,160
242,167,11976,2,0,B|182:121|165:232|62:215,2,160
322,171,12876,5,0
481,168,13176,1,8
481,168,13326,5,0
400,168,13476,1,0
322,171,13626,2,0,B|263:144|256:218|152:172,1,160,4|0
167,178,14076,1,8
250,314,14376,6,0,B|296:313|318:259,1,80
256,212,14676,2,0,B|212:213|195:254,1,80
250,314,14976,5,2
457,192,15276,5,2
251,67,15576,5,2
195,124,15726,5,0
160,196,15876,2,0,B|161:240|208:274,1,80
250,314,16176,5,2
457,192,16476,5,2
251,67,16776,6,0,B|292:101|250:160,1,80
263,219,17076,2,0,B|222:253|264:312,1,80
256,192,17376,12,4,18876
463,191,19176,6,0,B|426:206|370:189,1,80
311,159,19476,2,0,B|274:144|218:161,1,80
161,192,19776,2,0,B|126:251|105:157|2:208,1,160,0|8
132,311,20376,6,0,B|200:308|144:242|265:232,1,160
257,71,20976,2,0,B|197:25|180:136|77:119,1,160
270,167,21576,2,0,B|330:121|347:232|450:215,2,160
190,171,22476,5,0
31,168,22776,1,8
31,168,22926,5,0
85,226,23076,1,0
159,252,23226,2,0,B|262:214|282:248|186:299,1,160,4|0
204,290,23676,1,8
334,197,23976,6,0,B|441:197,1,80
414,277,24276,2,0,B|334:277,1,80
262,240,24576,5,2
389,36,24876,5,2
268,36,25026,5,0
187,36,25176,1,0
106,36,25326,1,0
138,108,25476,2,0,B|147:163|197:180,1,80
260,171,25776,5,2
460,35,26076,5,2
457,275,26376,6,0,B|432:231|460:182,1,80
371,190,26676,2,0,B|392:158|367:114,1,80,0|0
256,192,26976,12,4,28776
65,195,29376,5,0
134,235,29526,1,0
203,195,29676,1,0
274,231,29826,1,0
501,155,30126,5,0
429,191,30276,1,0
352,166,30426,2,0,B|306:130|301:202|182:142,1,160,0|0
199,150,30876,2,2,B|177:80|101:84|83:161,1,160
94,309,31476,5,0
168,279,31626,1,0
242,308,31776,2,0,B|304:328|311:244,1,80
307,197,32076,2,0,B|245:217|238:133,1,80
244,85,32376,1,0
320,63,32526,1,0
396,86,32676,1,0
256,192,32826,12,4,33576
447,195,34176,5,0
378,235,34326,1,0
309,195,34476,1,0
238,231,34626,1,0
11,155,34926,5,0
83,191,35076,1,0
160,166,35226,2,0,B|206:130|211:202|330:142,1,160,0|0
313,150,35676,2,2,B|335:80|411:84|429:161,1,160
418,309,36276,5,0
344,279,36426,1,0
268,252,36576,2,0,B|200:249|256:183|135:173,1,160,0|0
131,253,37026,2,0,B|199:250|143:184|264:174,1,160
259,174,37476,1,8
336,33,37776,6,0,B|404:36|348:102|469:112,1,160,0|0
473,32,38226,2,0,B|405:35|461:101|340:111,1,160
345,111,38676,1,8
256,192,38976,12,4,40776
116,274,43776,6,0,B|116:194,1,80
185,152,44076,2,0,B|185:232,1,80
258,200,44376,2,0,B|258:120,1,80
258,120,44676,1,8
329,156,44826,2,0,B|377:158|350:221|436:223|411:154|487:159,3,160,4|8|8|8
463,240,45876,1,0
463,320,46026,1,0
382,321,46176,6,0,B|287:322,1,80
242,267,46476,2,0,B|343:266,1,80
268,206,46776,2,0,B|164:206,1,80
188,206,47076,1,8
107,205,47226,2,4,B|29:191|129:143|221:161|85:97,1,160
360,101,47976,6,0,B|454:163,1,80
497,182,48276,2,0,B|442:266,1,80
380,214,48576,2,0,B|312:182|354:304|239:228,1,160,0|8
250,151,49026,2,0,B|182:119|224:241|109:165,1,160,0|0
114,168,49476,1,8
105,327,49776,6,0,B|161:324|198:278,1,80
248,259,50076,1,0
307,205,50226,2,0,B|366:194|374:251,1,80
306,285,50526,2,0,B|311:329|370:318,1,80,0|0
447,318,50826,2,0,B|519:257|364:252|469:94,1,240,0|8
384,98,51426,1,0
304,98,51576,1,0
223,98,51726,1,8
256,192,51876,12,4,52626
396,274,53376,6,0,B|396:194,1,80
327,152,53676,2,0,B|327:232,1,80
254,200,53976,2,0,B|254:120,1,80
254,120,54276,1,8
183,156,54426,2,0,B|135:158|162:221|76:223|101:154|25:159,3,160,4|8|8|8
49,240,55476,1,0
49,320,55626,1,0
130,321,55776,6,0,B|225:322,1,80
270,267,56076,2,0,B|169:266,1,80
244,206,56376,2,0,B|348:206,1,80
324,206,56676,1,8
405,205,56826,2,4,B|483:191|383:143|291:161|427:97,1,160
152,101,57576,6,0,B|58:163,1,80
15,182,57876,2,0,B|70:266,1,80
132,214,58176,2,0,B|200:182|158:304|273:228,1,160,0|8
262,151,58626,2,0,B|330:119|288:241|403:165,1,160,0|0
398,168,59076,1,8
407,327,59376,6,0,B|351:324|314:278,1,80
264,259,59676,1,0
205,205,59826,2,0,B|146:194|138:251,1,80
206,285,60126,2,0,B|201:329|142:318,1,80
7,236,60576,2,0,B|27:148|152:236|65:95,1,160,0|8
164,130,61026,1,0
244,132,61176,1,0
324,134,61326,1,8
256,192,61476,12,4,62226
82,194,62976,5,0
140,248,63126,1,0
200,195,63276,1,8
430,194,63576,1,0
372,248,63726,1,0
312,195,63876,1,8
253,139,64026,2,0,B|381:92|93:119|281:69,1,160,0|0
254,157,64476,2,0,B|126:204|414:177|226:227,1,160,0|8
97,194,65076,5,0
164,236,65226,1,0
239,263,65376,2,0,B|276:296|338:246,1,80
366,203,65676,2,0,B|403:236|465:186,1,80
446,122,65976,1,0
365,122,66126,1,0
284,120,66276,1,8
203,120,66426,1,4
256,192,66576,12,4,67476
430,194,67776,5,0
372,248,67926,1,0
312,195,68076,1,8
82,194,68376,1,0
140,248,68526,1,0
200,195,68676,1,8
259,139,68826,2,0,B|131:92|419:119|231:69,1,160,0|0
258,157,69276,2,0,B|386:204|98:177|286:227,1,160,0|8
415,194,69876,5,0
348,236,70026,1,0
272,262,70176,2,0,B|235:295|173:245,1,80
146,203,70476,2,0,B|109:236|47:186,1,80
66,122,70776,1,0
146,122,70926,1,0
226,121,71076,1,8
306,121,71226,1,4
256,192,71376,12,4,72276
63,255,72576,5,0
136,285,72726,1,0
213,305,72876,2,0,B|248:335|308:314,1,80,0|8
362,288,73176,1,0
409,223,73326,1,0
444,151,73476,1,0
450,71,73626,2,0,B|408:35|354:86,1,80,0|0
296,72,73926,2,0,B|254:108|200:57,1,80,8|8
141,72,74226,2,8,B|95:46|50:81,1,80,0|8
60,229,74676,5,0
136,253,74826,1,0
215,260,74976,2,0,B|262:276|318:249,1,80
295,178,75276,2,0,B|256:160|208:182,1,80
136,172,75576,1,0
60,146,75726,1,0
16,78,75876,1,8
256,192,76026,12,4,77076
449,255,77376,5,0
376,285,77526,1,0
299,305,77676,2,0,B|264:335|204:314,1,80,0|8
150,288,77976,1,0
103,223,78126,1,0
68,151,78276,1,0
62,71,78426,2,0,B|104:35|158:86,1,80,0|0
217,68,78726,2,0,B|259:104|313:53,1,80,8|8
372,71,79026,2,8,B|418:45|463:80,1,80,0|8
344,192,79476,5,0
264,192,79626,1,0
184,192,79776,2,0,B|152:104|88:296|40:160,1,160
184,288,80376,1,0
264,288,80526,2,0,B|320:232|312:344|432:256,1,160
256,192,80901,12,4,81876
