osu file format v9

[General]
AudioFilename: Hirano Aya - OPEN THE GATE.mp3
AudioLeadIn: 1000
PreviewTime: 84246
Countdown: 0
SampleSet: Soft
StackLeniency: 0.7
Mode: 0
LetterboxInBreaks: 1

[Editor]
DistanceSpacing: 1
BeatDivisor: 4
GridSize: 8

[Metadata]
Title:OPEN THE GATE
Artist:Hirano Aya
Creator:12BARRY21
Version:Insane
Source:Fairy Tail
Tags:Lucy Heartfilia Character Song

[Difficulty]
HPDrainRate:7
CircleSize:4
OverallDifficulty:7
ApproachRate:8
SliderMultiplier:2.4
SliderTickRate:1

[Events]
//Background and Video events
0,0,"BG3.jpg"
//Break Periods
2,115403,127578
2,197902,210078
//Storyboard Layer 0 (Background)
//Storyboard Layer 1 (Fail)
//Storyboard Layer 2 (Pass)
//Storyboard Layer 3 (Foreground)
//Storyboard Sound Samples
//Background Colour Transformations
3,100,0,0,0

[TimingPoints]
828,468.75,4,2,1,70,1,0
1999,-200,4,2,1,70,0,0
17703,-100,4,1,1,90,0,0
34578,-100,4,2,1,80,0,0
83328,-100,4,1,1,80,0,0
85203,-100,4,1,1,100,0,1
115203,-100,4,1,1,80,0,0
130203,-100,4,2,1,75,0,0
163953,-100,4,1,1,75,0,0
165828,-100,4,1,1,100,0,1
195828,-100,4,1,1,100,0,0
210828,-200,4,2,1,70,0,0
225828,-200,4,1,1,80,0,0
227703,-100,4,1,1,100,0,1
242703,-100,4,1,1,80,0,0
255828,-100,4,1,1,40,0,0
256296,-100,4,1,1,60,0,0
256765,-100,4,1,1,80,0,0
257234,-100,4,1,1,100,0,0
257688,-100,4,2,1,20,0,0

[Colours]
Combo1 : 162,255,68
Combo2 : 252,249,114
Combo3 : 143,236,252
Combo4 : 250,148,173
Combo5 : 255,155,106

[HitObjects]
56,112,1999,1,0
120,72,2234,1,0
184,112,2468,1,0
248,72,2703,2,0,B|368:72,1,120,4|0
440,72,3406,1,0
360,192,3874,1,0
304,240,4109,1,2
248,192,4343,2,0,B|168:144|104:264|16:192,1,240
96,320,5749,5,0
168,336,5984,1,2
240,320,6218,1,0
312,336,6453,2,0,B|368:376|424:336,1,120,4|0
424,264,7156,2,0,B|368:224|312:264,1,120
240,248,7859,1,2
168,264,8093,1,0
96,248,8328,5,4
56,144,8679,1,0
120,56,9031,1,0
192,72,9265,1,6
280,136,9617,1,0
368,72,9968,1,0
440,56,10203,2,0,B|496:168|440:288,1,240,4|0
368,272,11374,5,0
304,232,11609,1,2
240,272,11843,1,0
168,288,12078,1,4
72,232,12429,1,0
96,128,12781,2,0,B|96:64,1,60,0|2
200,96,13367,1,0
304,64,13718,1,0
376,80,13953,6,0,B|432:96|424:160,1,90,2|0
424,256,14656,1,0
280,256,15124,2,0,B|272:216|240:208|208:216|200:256,1,120,0|2
256,192,15828,12,0,17234
128,192,17703,5,0
384,192,18171,1,0
256,24,18640,2,0,B|256:144,2,120,0|0|8
176,280,19578,6,0,B|296:280,1,120,4|0
360,208,20046,2,0,B|240:208,1,120,8|0
176,136,20515,2,0,B|296:136,1,120
392,136,20984,1,8
256,272,21453,5,0
168,240,21687,1,0
88,192,21921,1,8
168,144,22156,1,0
256,112,22390,1,0
344,144,22624,1,0
384,168,22742,1,0
424,192,22859,1,8
344,240,23093,1,0
256,272,23328,6,0,B|136:272,1,120
232,200,23796,2,0,B|352:200,1,120,8|0
256,128,24265,2,0,B|128:128,1,120
256,32,24734,1,8
168,248,25203,6,0,B|192:312|168:368,1,120
64,296,25671,2,0,B|40:232|64:176,1,120,8|0
88,88,26140,1,0
192,104,26374,2,0,B|192:40,2,60,0|0|8
312,104,26843,1,0
392,192,27078,6,0,B|384:240|360:248|336:240|328:192,1,120
232,192,27546,2,0,B|224:240|200:248|176:240|168:192,1,120,8|0
72,192,28015,1,0
80,72,28249,1,0
200,40,28484,2,0,B|256:16|320:40,1,120,8|0
312,248,28953,6,0,B|256:272|192:248,1,120,0|0
200,144,29421,2,0,B|256:120|320:144,1,120,8|0
256,320,29890,2,0,B|256:256,2,60
136,296,30359,1,8
56,208,30593,1,0
40,104,30828,6,0,B|40:64|112:48|128:96|128:96|144:48|216:64|216:104,1,240,0|8
256,192,31531,1,0
296,280,31765,2,0,B|296:320|368:336|384:288|384:288|400:336|472:320|472:280,1,240,0|8
471,281,32468,1,0
256,192,32703,12,4,34578
64,192,35046,5,8
64,192,35281,2,0,B|64:128|128:96,1,120
216,56,35749,1,0
312,56,35984,1,8
400,88,36218,1,0
440,112,36335,1,0
464,152,36453,1,0
408,312,36921,6,0,B|488:296|488:224,2,120,8|0|0
272,304,37624,1,0
152,256,37859,1,8
96,144,38093,1,0
80,16,38328,1,0
280,56,38796,6,0,B|160:56,2,120,8|0|0
424,128,39499,1,0
280,192,39734,2,0,B|160:192,2,120,8|0|0
336,256,40671,5,8
184,272,40906,1,0
184,120,41140,1,0
336,104,41374,1,0
256,192,41609,1,8
144,192,41843,6,0,B|80:192,2,60
256,184,42312,1,0
360,104,42546,1,8
464,184,42781,1,0
424,296,43015,1,0
296,296,43249,1,0
360,208,43484,1,8
376,112,43718,6,0,B|440:112,2,60
264,120,44187,1,0
160,200,44421,1,8
56,120,44656,1,0
96,8,44890,1,0
224,8,45124,1,0
160,96,45359,1,8
160,200,45593,5,0
160,248,45710,1,0
160,296,45828,1,0
448,296,46062,2,0,B|328:296,1,120,0|8
328,192,46531,1,0
456,48,46999,2,0,B|456:168,2,120,0|8|0
256,112,47937,5,0
256,272,48171,1,8
296,122,48406,1,0
216,261,48640,1,0
325,152,48874,1,8
186,232,49109,1,8
336,192,49343,1,0
176,192,49578,1,4
336,40,50046,6,0,B|456:40,2,120,8|0|0
256,88,50749,1,0
176,144,50984,2,0,B|56:144,2,120,8|0|0
344,248,51921,5,8
256,344,52156,1,0
168,248,52390,1,0
256,152,52624,2,0,B|256:32,1,120,0|8
376,40,53093,1,0
400,80,53210,1,0
400,128,53328,1,0
408,320,53796,6,0,B|456:320|456:288|456:256|408:256,1,120,8|0
104,224,54265,2,0,B|56:224|56:192|56:160|104:160,1,120
408,128,54734,2,0,B|456:128|456:96|456:64|408:64,2,120,8|0|0
256,328,55671,5,8
256,136,55906,1,0
256,232,56140,1,0
256,40,56374,1,0
144,72,56609,1,8
88,192,56843,5,0
64,232,56960,1,0
88,272,57078,2,0,B|208:328|328:272,1,240,0|8
448,272,57781,1,0
472,160,58015,1,0
392,72,58249,2,0,B|352:40|312:112|280:72,1,120,0|8
120,312,58718,2,0,B|160:344|200:272|232:312,1,120
424,336,59421,6,0,B|464:288|464:288|432:240,1,120,8|0
400,208,59773,1,0
352,192,59890,1,0
256,56,60124,1,0
152,192,60359,1,8
256,328,60593,5,0
304,312,60710,1,0
328,272,60828,1,0
472,192,61062,2,0,B|352:192,1,120,0|8
256,24,61531,2,0,B|256:144,1,120
40,192,61999,2,0,B|160:192,1,120,0|8
256,352,62468,1,0
136,88,63171,6,0,B|256:56|376:88,1,240,8|0
368,336,63874,2,0,B|432:336|456:264,1,120,0|8
144,336,64343,2,0,B|80:336|56:264,1,120
224,56,64812,2,0,B|224:8|256:8|288:8|288:56,1,120,0|8
144,240,65281,2,0,B|256:320|368:240,1,240,0|8
432,168,65984,2,0,B|472:112|432:56,1,120,8|0
384,32,66335,5,0
336,24,66453,1,4
144,32,66921,1,0
48,32,67156,1,0
96,216,67624,2,0,B|96:336,2,120,0|8|0
112,168,68210,1,0
152,136,68328,1,4
320,48,68796,5,0
320,48,69031,1,0
448,192,69499,2,0,B|496:232|496:232|496:288,1,120,0|8
336,312,69968,5,0
296,344,70085,1,0
256,312,70203,1,0
160,312,70437,2,0,B|136:336|136:336|120:288|120:288|96:312,1,120
32,240,70906,1,0
96,80,71374,2,0,B|152:24|200:80,1,120,0|8
296,80,71843,1,0
456,336,72312,6,0,B|336:336,1,120
56,336,72781,2,0,B|176:336,1,120,0|8
200,296,73132,1,8
176,256,73249,1,0
176,160,73484,5,0
192,112,73601,1,0
224,80,73718,1,8
272,72,73835,1,0
320,88,73953,2,0,B|384:88|456:144|456:256,1,240,4|8
360,280,74656,1,0
264,280,74890,1,0
216,280,75007,1,0
168,280,75124,1,0
72,280,75359,1,8
72,184,75593,5,0
168,184,75828,2,0,B|168:120|192:64|248:24|312:24,1,240,0|8
320,128,76531,2,0,B|384:128|424:184,1,120
336,224,76999,2,0,B|272:224|232:280,1,120,0|8
112,280,77468,5,0
88,240,77585,1,0
112,200,77703,1,0
80,104,77937,2,0,B|56:48,1,60,0|8
144,96,78288,2,0,B|144:32,1,60,0|8
256,24,78640,1,2
368,40,78874,2,0,B|368:104,1,60,0|8
432,48,79226,2,0,B|456:104,1,60,0|8
440,312,79578,6,0,B|376:240|296:352|216:264,1,240,0|8
120,264,80281,1,0
144,128,80515,1,0
368,128,80749,1,0
392,264,80984,1,8
256,192,81218,1,0
136,192,81453,6,0,B|64:192|64:112,1,120,0|8
376,192,81921,2,0,B|448:192|448:112,1,120,0|8
200,120,82390,2,0,B|128:120|128:40,1,120,0|8
312,120,82859,2,0,B|384:120|384:40,1,120,0|8
256,32,83328,5,0
256,184,83679,1,0
256,336,84031,1,0
256,336,84265,2,8,B|128:328|104:248|104:152,1,240,8|0
256,72,85203,6,0,B|312:48|376:72,1,120,4|0
320,152,85671,2,0,B|264:176|200:152,1,120,8|0
176,256,86140,2,0,B|232:232|296:256,1,120
384,280,86609,1,8
384,88,87078,5,0
296,144,87312,1,0
216,88,87546,1,8
136,144,87781,1,0
56,88,88015,1,0
56,184,88249,2,0,B|56:264,2,60,0|0|8
144,224,88718,5,0
224,168,88953,1,0
304,224,89187,1,0
272,312,89421,1,8
176,312,89656,1,0
144,224,89890,2,0,B|80:120|152:24|208:24,1,240,0|8
296,16,90593,1,0
376,192,91062,5,0
280,192,91296,1,8
184,192,91531,1,0
120,88,91765,1,0
72,104,91882,1,0
48,144,91999,1,0
48,264,92234,1,8
48,264,92351,1,0
48,264,92468,1,0
160,304,92703,5,0
256,344,92937,1,0
352,304,93171,1,8
256,256,93406,2,0,B|112:208|400:168|256:96,1,240
160,48,94109,1,8
256,8,94343,1,0
352,48,94578,1,0
352,240,95046,1,8
352,336,95281,1,0
256,336,95515,5,0
216,312,95632,1,0
176,336,95749,1,0
80,336,95984,2,0,B|48:288|48:288|80:232,1,120,8|0
112,200,96335,1,0
80,160,96453,1,0
128,80,96687,6,0,B|128:16,1,60,0|2
224,24,97038,2,0,B|224:88,1,60,0|2
272,168,97390,1,0
320,88,97624,2,0,B|320:24,1,60,0|2
416,32,97976,2,0,B|416:96,1,60,0|2
456,176,98328,2,0,B|440:240|248:352|56:240|40:168,1,480
96,96,99499,6,8,B|152:56|208:96,1,120
416,288,99968,2,0,B|360:328|304:288,1,120,0|4
112,280,100671,1,8
112,184,100906,1,0
112,88,101140,1,0
144,56,101257,1,0
176,88,101374,1,0
272,88,101609,2,0,B|272:48|304:24|336:48|336:88,1,120,8|0
432,88,102078,1,0
416,280,102546,1,8
416,280,102781,1,0
312,224,103015,6,0,B|312:160,2,60
256,304,103484,1,8
160,264,103718,1,0
64,304,103953,2,0,B|16:248|120:184|48:72,1,240,0|8
144,40,104656,2,0,B|200:88|264:-16|376:56,1,240
336,144,105359,1,8
256,192,105593,1,0
160,192,105828,6,0,B|120:240,1,60,4|8
216,272,106179,2,0,B|256:320,1,60,0|8
256,192,106531,1,0
352,192,106765,2,0,B|392:144,1,60,4|8
296,112,107117,2,0,B|256:64,1,60,0|8
160,120,107468,1,0
256,120,107703,6,0,B|256:360,2,240,4|8|0
160,120,108874,2,0,B|40:120,2,120,0|8|0
256,80,109578,5,0
304,88,109695,1,2
384,144,109929,1,0
392,192,110046,1,2
352,280,110281,1,0
256,304,110515,1,0
208,296,110632,1,2
128,240,110867,1,0
120,192,110984,1,2
160,104,111218,1,0
256,96,111453,6,0,B|312:56|368:96,1,120
256,288,111921,2,0,B|200:328|144:288,1,120,8|0
288,56,112390,2,0,B|344:16|400:56,1,120
224,328,112859,2,0,B|168:368|112:328,1,120,8|0
256,192,113328,12,4,115203
256,192,128328,12,4,130203
256,48,130671,5,8
256,48,130906,1,0
144,80,131140,2,0,B|88:104|80:176,1,120
80,296,131609,1,8
200,312,131843,1,0
240,296,131960,1,0
264,256,132078,1,0
456,64,132546,5,8
336,64,132781,1,0
216,64,133015,2,0,B|216:184,2,120,0|0|8
96,96,133718,1,0
48,200,133953,1,0
208,336,134421,6,0,B|328:336,1,120,8|0
424,264,134890,2,0,B|304:264,1,120
208,192,135359,2,0,B|328:192,1,120,8|0
392,88,135828,2,0,B|504:120|504:56|504:-8|392:24,1,240,0|8
272,32,136531,1,0
160,80,136765,1,0
80,168,136999,1,0
64,288,137234,1,8
184,288,137468,6,0,B|184:352,2,60,0|0|0
312,288,137937,1,0
368,184,138171,1,8
312,80,138406,1,0
184,80,138640,1,0
128,184,138874,1,0
248,184,139109,1,8
312,80,139343,5,0
296,40,139460,1,0
256,24,139578,2,0,B|136:24|64:152,1,240,0|8
64,272,140281,2,0,B|64:336,2,60
152,192,140749,1,0
240,272,140984,1,8
336,272,141218,5,0
384,288,141335,1,0
432,272,141453,2,0,B|432:32,1,240,0|8
320,64,142156,2,0,B|320:304,1,240
200,336,142859,2,0,B|200:216,1,120,8|0
200,104,143328,1,0
440,104,143796,1,8
440,104,144031,1,0
256,336,144499,5,0
128,272,144734,1,8
128,128,144968,1,0
256,64,145203,1,0
384,128,145437,1,0
384,272,145671,1,8
256,152,145906,2,0,B|256:184|256:184|264:192|264:192|248:192|248:192|256:200|256:200|256:224|256:224|264:232|264:232|248:232|248:232|256:240|256:240|256:272|256:272|264:280|264:280|248:280|248:280|256:288|256:288|256:328,2,240
208,152,146960,5,0
168,152,147078,2,0,B|168:48|104:64|40:48|40:152,1,240,4|0
72,248,147781,2,2,B|40:360|104:360|168:360|136:248,1,240
232,320,148484,1,8
264,232,148718,1,0
304,216,148835,1,0
344,232,148953,6,0,B|344:336|408:320|472:336|472:232,1,240,4|0
440,136,149656,2,2,B|472:24|408:24|344:24|376:136,1,240
280,136,150359,1,8
184,136,150593,1,0
152,104,150710,1,0
120,136,150828,1,2
40,192,151062,2,0,B|40:312,2,120,0|2|0
192,312,151999,2,0,B|312:312,2,120,0|8|2
384,312,152937,6,0,B|416:280|472:336|504:288,2,120
384,216,153640,1,0
368,168,153757,1,0
328,136,153874,1,8
232,112,154109,1,8
184,120,154226,1,0
144,144,154343,1,0
112,184,154460,1,0
96,232,154578,6,0,B|112:328|112:328|232:328,2,180
96,112,155515,2,0,B|144:72|208:72,1,120,8|0
416,112,155984,2,0,B|368:72|304:72,1,120,8|0
256,184,156453,2,0,B|448:208|192:288|336:336|376:344,1,240
440,248,157156,1,0
488,136,157390,1,8
512,96,157507,1,0
488,56,157624,1,0
384,120,157859,1,8
280,56,158093,6,0,B|280:120,2,60,0|0|2
160,56,158562,2,0,B|96:56,1,60,0|8
104,176,158913,2,0,B|168:176,1,60,0|8
288,176,159265,1,8
408,176,159499,2,0,B|472:176,1,60,0|8
464,296,159851,2,0,B|400:296,1,60,0|8
288,296,160203,2,0,B|256:360|112:360|80:296,1,240,0|8
56,176,160906,1,0
112,72,161140,2,0,B|232:72,3,120,0|0|8|0
344,112,162078,6,0,B|344:48|416:24,1,120,0|8
168,272,162546,2,0,B|168:336|96:360,1,120,0|8
336,280,163015,2,0,B|400:280|424:352,1,120,0|8
176,104,163484,2,0,B|112:104|88:32,1,120,0|8
40,192,163953,5,0
224,192,164304,1,0
400,192,164656,1,0
400,192,164890,2,0,B|488:296|488:296|352:296,1,240,8|0
160,192,165828,5,4
192,80,166062,1,0
320,80,166296,1,8
352,192,166531,1,0
320,312,166765,1,0
192,312,166999,1,0
256,192,167234,1,8
16,192,167703,6,0,B|40:136|104:112,1,120
224,112,168171,2,0,B|344:112,1,120,8|0
464,112,168640,2,0,B|464:232,1,120
464,280,168992,1,0
464,328,169109,1,8
344,344,169343,1,0
224,344,169578,6,0,B|104:344,1,120
104,224,170046,2,0,B|224:224,1,120,8|0
344,224,170515,1,0
464,40,170984,2,0,B|344:40,1,120,8|0
48,40,171453,2,0,B|168:40,1,120
256,336,171921,2,0,B|256:216,1,120,8|0
256,96,172390,1,0
296,56,172507,1,0
416,136,172742,5,0
408,192,172859,2,0,B|456:248|408:304,1,120,8|0
296,328,173328,2,0,B|184:352|56:328,1,240,0|8
56,208,174031,1,0
232,40,174499,6,0,B|352:40,2,120,0|8|0
232,160,175203,2,0,B|472:160,1,240,0|8
464,280,175906,1,0
344,280,176140,1,0
296,280,176257,1,0
248,280,176374,1,0
128,280,176609,1,8
72,176,176843,6,0,B|72:240,2,60,0|0|0
176,120,177312,2,0,B|125:69,1,60,0|2
336,120,177663,2,0,B|386:69,1,60,0|2
256,192,178015,1,0
336,264,178249,2,0,B|386:314,1,60,0|2
176,264,178601,2,0,B|125:314,1,60,0|2
256,328,178953,5,0
360,288,179187,1,0
408,192,179421,1,8
360,96,179656,1,0
256,56,179890,1,0
152,96,180124,2,0,B|88:96,2,60,8|0|8
112,192,180593,1,0
112,312,180828,6,0,B|232:312,1,120,4|0
232,192,181296,2,0,B|232:72,1,120,8|0
352,72,181765,2,0,B|408:184|352:304,1,240,0|8
232,304,182468,1,0
112,304,182703,1,0
64,192,182937,1,0
112,80,183171,1,8
232,80,183406,1,0
352,80,183640,5,0
408,88,183757,1,0
448,128,183874,1,0
448,248,184109,2,0,B|488:296|408:336|464:360,2,120,8|0|0
208,248,185046,1,8
208,248,185281,1,0
336,40,185749,2,0,B|272:40|232:96,2,120,0|8|0
352,192,186453,6,0,B|392:144,1,60,4|8
296,112,186804,2,0,B|256:64,1,60,0|8
256,192,187156,1,0
160,192,187390,2,0,B|120:240,1,60,4|8
216,272,187742,2,0,B|256:320,1,60,0|8
352,264,188093,1,0
256,264,188328,2,0,B|256:24,2,240,4|2|0
352,264,189499,6,0,B|472:264,2,120,0|2|0
256,304,190203,1,0
208,296,190320,1,2
128,240,190554,1,0
120,192,190671,1,2
160,104,190906,1,0
256,80,191140,1,0
304,88,191257,1,2
384,144,191492,1,0
392,192,191609,1,2
352,280,191843,1,0
168,344,192078,6,0,B|104:344|80:272,1,120
344,344,192546,2,0,B|408:344|432:272,1,120,8|0
200,224,193015,2,0,B|136:224|112:152,1,120
312,224,193484,2,0,B|376:224|400:152,1,120,8|0
256,192,193953,12,0,195359
40,192,195828,5,0
472,192,196296,1,8
256,344,196765,1,0
256,184,196999,1,0
344,72,197234,2,0,B|336:16|280:8|256:40|256:40|232:8|176:16|168:72,1,240,8|4
216,192,210828,6,0,B|200:152|200:96|256:56|312:96|312:152|296:192,1,240
296,248,211999,1,8
256,288,212234,1,8
216,248,212468,1,0
176,288,212703,2,0,B|112:288|88:216,1,120,4|2
88,160,213406,2,0,B|128:120|64:88|96:48,1,120
152,32,214109,1,2
208,48,214343,2,0,B|200:168|312:216|424:168|408:48,1,360
472,48,215984,6,0,B|472:112,2,60,2|0|0
352,48,216921,1,2
296,48,217156,1,0
176,48,217624,2,0,B|112:48,1,60,0|2
56,48,218093,2,0,B|40:104|56:168,1,120
184,280,219499,5,0
240,264,219734,1,2
280,224,219968,1,0
296,168,220203,2,0,B|360:168|384:96,1,120,0|2
344,56,220906,2,0,B|288:40|224:56,1,120
168,72,221609,5,2
120,104,221843,1,0
88,152,222078,2,0,B|64:208|88:272,1,120,0|2
128,312,222781,2,0,B|184:336|248:312,1,120
304,312,223484,1,2
360,312,223718,6,0,B|392:312,2,30,0|0|6
392,232,224187,2,0,B|424:232,1,30
392,152,224538,2,0,B|360:152,1,30
392,72,224890,1,0
344,40,225124,1,0
296,72,225359,1,0
248,40,225593,1,0
256,192,225828,12,8,227234
80,192,227703,6,0,B|136:152|192:192,1,120,4|0
432,192,228171,2,0,B|376:232|320:192,1,120,8|0
256,88,228640,2,0,B|176:72|328:40|256:16,2,120,0|0|8
152,256,229578,5,0
192,88,229812,1,0
360,128,230046,1,8
320,296,230281,1,0
336,192,230515,2,0,B|400:192,2,60
184,192,230984,2,0,B|120:192,2,60,8|0|0
104,104,231453,5,0
256,32,231921,1,8
256,32,232156,1,0
72,192,232624,1,0
152,280,232859,1,8
232,192,233093,1,0
312,280,233328,6,0,B|376:280,1,60,4|8
456,192,233679,2,0,B|456:128,1,60,0|2
344,168,234031,1,0
200,104,234265,2,0,B|136:104,1,60,4|8
56,192,234617,2,0,B|56:256,1,60,0|2
168,216,234968,1,0
264,288,235203,6,0,B|368:208|400:368|496:272,2,240,4|8|0
144,288,236374,2,0,B|112:248|56:320|16:264,2,120,0|8|0
256,72,237078,5,0
296,96,237195,1,8
384,192,237429,1,0
360,232,237546,1,2
256,192,237781,1,0
256,312,238015,1,0
216,288,238132,1,8
128,192,238367,1,0
152,152,238484,1,2
256,192,238718,1,0
256,72,238953,6,0,B|320:72|360:128,1,120
256,184,239421,2,0,B|192:184|152:240,1,120,8|0
256,296,239890,1,0
264,320,240007,1,0
280,336,240124,1,0
304,344,240242,1,0
328,336,240359,1,8
352,344,240476,1,0
376,336,240593,1,0
392,320,240710,1,0
400,296,240828,1,0
256,192,240886,12,8,242234
32,184,242703,6,0,B|64:224|104:160|152:200,1,120,4|0
264,192,243171,2,0,B|296:232|336:168|384:200,1,120,8|0
488,144,243640,2,0,B|448:176|512:216|464:256,2,120,0|0|8
256,72,244578,6,0,B|312:48|376:72,1,120
256,312,245046,2,0,B|200:336|136:312,1,120,8|0
120,192,245515,1,0
256,192,245749,1,0
304,192,245867,1,0
352,192,245984,2,0,B|472:192,1,120,8|0
328,72,246453,5,0
184,72,246687,1,0
120,192,246921,1,8
184,312,247156,1,0
328,312,247390,1,0
392,192,247624,1,0
256,192,247859,1,8
64,48,248328,6,0,B|192:48,1,120,4|0
128,152,248796,2,0,B|248:152,1,120,12|0
360,112,249265,1,0
368,136,249382,1,0
376,160,249499,1,0
384,184,249617,1,0
392,208,249734,1,8
384,232,249851,1,0
376,256,249968,1,0
368,280,250085,1,0
360,304,250203,5,0
128,152,250671,2,0,B|72:184|72:184|72:240,1,120,8|0
192,264,251140,1,0
312,240,251374,1,0
360,128,251609,1,8
256,56,251843,6,0,B|328:56,2,60,0|0|8
192,160,252312,2,0,B|144:160|128:160,1,60,0|2
80,264,252663,2,0,B|144:264,1,60,0|2
256,232,253015,1,8
320,160,253249,2,0,B|368:160|384:160,1,60,0|2
432,264,253601,2,0,B|368:264,1,60,0|2
440,56,253953,6,0,B|456:112|440:176,1,120
336,120,254421,2,0,B|352:176|336:240,1,120,8|0
72,328,254890,2,0,B|56:272|72:208,1,120
176,264,255359,2,0,B|160:208|176:144,1,120,8|0
256,272,255828,5,0
256,248,255945,1,0
256,224,256062,1,0
256,200,256179,1,0
256,176,256296,1,8
256,152,256413,1,0
256,128,256531,1,0
256,104,256648,1,0
256,80,256765,2,0,B|256:40,16,30,0|0|0|0|0|0|0|0|0|0|0|0|0|0|0|0|4
