osu file format v9

[General]
AudioFilename: Hirano Aya - Mezamenai Wish....mp3
AudioLeadIn: 0
PreviewTime: 60310
Countdown: 0
SampleSet: Soft
StackLeniency: 0.7
Mode: 0
LetterboxInBreaks: 1

[Editor]
DistanceSpacing: 0.8
BeatDivisor: 4
GridSize: 8

[Metadata]
Title:Mezamenai Wish... (Full Ver.)
Artist:Hirano Aya
Creator:-oSpiriT_Runo-
Version:Insane
Source:Akane-Iro ni Somaru Saka
Tags:minato nagase character theme song

[Difficulty]
HPDrainRate:8
CircleSize:5
OverallDifficulty:6
ApproachRate:8
SliderMultiplier:1.4
SliderTickRate:1

[Events]
//Background and Video events
0,0,"dd70e8a5e2364325fef06a026f042edf.jpg"
//Break Periods
//Storyboard Layer 0 (Background)
//Storyboard Layer 1 (Fail)
//Storyboard Layer 2 (Pass)
//Storyboard Layer 3 (Foreground)
//Storyboard Sound Samples
//Background Colour Transformations
3,100,163,162,255

[TimingPoints]
6685,750,4,2,0,100,1,0
60685,-100,4,2,0,100,0,1
63685,-50,4,2,0,100,0,1
84685,-100,4,2,0,100,0,0
138685,-50,4,2,0,100,0,1
162685,-100,4,2,0,100,0,0
175435,-50,4,2,0,100,0,0
176560,-50,4,2,0,100,0,1
199435,-100,4,2,0,100,0,0

[Colours]
Combo1 : 26,181,150
Combo2 : 130,67,11

[HitObjects]
184,136,6685,1,0
256,136,7060,1,0
328,136,7435,1,0
400,136,7810,1,0
368,200,8185,1,0
328,256,8560,1,0
280,304,8935,1,0
208,304,9310,1,0
176,304,9497,1,0
144,304,9685,6,0,B|144:216,1,70
208,48,10435,2,0,B|208:136,1,70
208,118,10997,1,0
208,118,11185,2,0,B|208:192|336:192,1,140
309,191,12122,1,0
309,191,12310,1,0
376,192,12685,5,0
440,192,13060,1,0
408,248,13435,1,0
368,304,13810,1,0
328,248,14185,1,0
264,248,14560,1,0
224,304,14935,1,0
192,304,15122,1,0
160,304,15310,1,0
128,304,15497,1,0
128,304,15685,6,0,B|128:208,1,70
256,48,16435,2,0,B|256:128,1,70
384,304,17185,2,0,B|384:224,1,70
384,168,17935,5,0
384,136,18122,1,0
384,104,18310,1,0
384,72,18497,1,0
256,192,18685,12,0,20185
168,192,20560,5,0
200,192,20747,1,0
232,192,20935,1,0
264,192,21122,1,0
296,192,21310,1,0
328,192,21497,1,0
328,192,21685,6,0,B|328:136|264:136,1,70
224,240,22435,2,0,B|184:240|184:304,1,70
184,352,23185,1,0
256,352,23560,5,0
328,352,23935,1,0
400,352,24310,1,0
384,320,24497,1,0
384,288,24685,2,0,B|384:224|448:224,1,105
414,229,25435,2,0,B|360:232|360:176,1,70
361,194,25997,1,0
361,194,26185,1,0
360,128,26560,5,0
360,64,26935,5,0
328,64,27122,1,0
304,96,27310,1,0
304,128,27497,1,0
304,160,27685,1,0
304,232,28060,5,0
304,304,28435,1,0
232,304,28810,2,0,B|232:224|128:224,1,140
136,224,29935,1,0
136,152,30310,5,0
136,152,30497,1,0
136,152,30685,2,0,B|232:152,1,70
206,152,31435,1,0
280,152,31810,1,0
352,152,32185,1,0
384,216,32560,5,0
384,288,32935,1,0
336,344,33310,1,0
304,344,33497,1,0
272,344,33685,2,0,B|208:280,1,70
272,40,34435,2,0,B|216:96,1,70
224,152,35185,1,0
224,224,35560,5,0
256,224,35747,1,0
256,256,35935,1,0
256,288,36122,1,0
288,288,36310,1,0
320,288,36497,1,0
352,288,36685,2,0,B|408:288|408:240,1,70
408,136,37435,2,0,B|368:136|368:88,1,70
296,88,38185,1,0
224,88,38560,1,0
152,88,38935,5,0
104,136,39310,1,0
104,168,39497,1,0
104,200,39685,2,0,B|200:200,1,70
240,200,40435,1,0
312,200,40810,2,0,B|400:200|400:304,1,140
399,287,41935,1,0
328,288,42310,1,0
256,288,42685,6,0,B|192:288|192:232,1,70
256,96,43435,2,0,B|312:96|312:160,1,70
256,192,44185,12,0,44935
208,192,45122,5,0
240,192,45310,1,0
272,192,45497,1,0
304,192,45685,1,0
272,120,46060,5,0
200,40,46435,1,0
128,120,46810,2,0,B|128:224|224:224,1,140
272,224,47935,5,0
304,224,48122,1,0
336,224,48310,1,0
368,224,48497,1,0
400,224,48685,1,0
400,160,49060,6,0,B|368:128|368:96,1,70
368,32,49810,1,0
296,32,50185,5,0
232,144,50560,1,0
160,32,50935,1,0
112,88,51310,5,0
112,120,51497,1,0
112,152,51685,1,0
112,224,52060,5,0
160,280,52435,1,0
232,280,52810,2,0,B|320:280|320:192,1,140
320,128,53935,1,0
320,56,54310,5,0
352,56,54497,1,0
384,56,54685,2,0,B|384:96|432:96,1,70
432,192,55435,2,0,B|384:192|384:232,1,70
384,296,56185,1,0
312,296,56560,5,0
280,296,56747,1,0
248,296,56935,1,0
256,192,57310,12,0,59185
216,104,59560,5,0
240,136,59747,1,0
264,168,59935,1,0
240,200,60122,1,0
240,232,60310,1,0
264,264,60497,1,0
288,296,60685,1,0
352,192,61060,5,0
256,96,61435,1,0
160,192,61810,1,0
256,288,62185,1,0
352,192,62560,1,0
256,96,62935,1,0
160,192,63310,1,0
192,192,63497,1,0
224,192,63685,2,0,B|224:88|376:88,1,140
224,264,64435,2,0,B|304:264|304:168,1,140
384,168,65185,5,0
384,240,65560,1,0
336,296,65935,1,0
304,296,66122,1,0
272,296,66310,1,0
240,296,66497,1,0
208,296,66685,1,0
136,296,67060,6,0,B|136:192|248:192,1,140
304,200,67810,2,0,B|448:200|448:80|304:56,1,280
240,56,68935,1,0
168,56,69310,1,0
144,88,69497,1,0
144,120,69685,1,0
144,192,70060,5,0
144,264,70435,2,0,B|224:184|328:184,1,140
336,192,71185,2,0,B|432:192|432:64,1,140
360,104,71935,5,0
328,104,72122,1,0
296,104,72310,1,0
264,104,72497,1,0
232,104,72685,1,0
160,104,73060,5,0
160,192,73435,1,0
160,280,73810,1,0
256,192,74185,1,0
352,192,74560,1,0
304,112,74935,1,0
256,192,75310,1,0
280,224,75497,1,0
304,256,75685,2,0,B|392:256|392:352,1,140
320,344,76435,2,0,B|168:344,1,140
176,272,77185,2,0,B|176:200|272:152,1,140
320,160,77935,5,0
352,160,78122,2,0,B|432:160,1,70
422,160,78497,2,0,B|424:248,1,70
424,296,79060,5,0
352,296,79435,1,0
304,240,79810,1,0
232,240,80185,1,0
232,168,80560,1,0
200,168,80747,1,0
168,168,80935,1,0
96,168,81310,6,0,B|96:72|224:72,1,140
416,168,82060,2,0,B|328:168|328:272,1,140
256,256,82810,1,0
184,256,83185,2,0,B|184:152|280:152,1,140
257,153,83747,1,0
288,152,83935,5,0
320,152,84122,1,0
320,184,84310,1,0
352,184,84497,1,0
384,184,84685,1,0
384,256,85060,5,0
336,312,85435,1,0
288,256,85810,1,0
240,312,86185,1,0
192,256,86560,1,0
120,256,86935,1,0
120,184,87310,1,0
120,152,87497,1,0
120,120,87685,6,0,B|200:120,1,70
256,120,88435,2,0,B|336:120,1,70
400,120,89185,1,0
352,176,89560,1,0
352,248,89935,1,0
352,280,90122,1,0
352,312,90310,1,0
352,344,90497,1,0
320,344,90685,1,0
248,344,91060,5,0
176,344,91435,1,0
104,344,91810,1,0
144,280,92185,2,0,B|216:208,1,70
240,176,92935,1,0
288,176,93185,1,0
328,176,93435,1,0
368,176,93685,1,0
440,176,94060,6,0,B|440:104,1,70
368,104,94810,2,0,B|280:104|216:152,1,140
176,184,95935,1,0
176,256,96310,1,0
176,288,96497,1,0
256,192,96685,12,0,98185
208,112,98560,5,0
240,112,98747,1,0
240,144,98935,1,0
240,216,99310,1,0
240,288,99685,2,0,B|312:288,1,70
312,216,100435,2,0,B|400:216,1,70
382,216,100997,1,0
382,216,101185,1,0
384,144,101560,5,0
336,88,101935,1,0
264,88,102310,1,0
232,88,102497,1,0
200,88,102685,2,0,B|160:88|160:144,1,70
160,135,103247,1,0
160,135,103435,2,0,B|160:216,1,70
160,205,103997,1,0
160,205,104185,2,0,B|192:240|248:240,1,70
296,240,104935,1,0
368,240,105310,5,0
400,240,105497,1,0
432,240,105685,1,0
432,168,106060,1,0
384,112,106435,1,0
312,112,106810,2,0,B|208:112|208:192,1,140
208,248,107935,1,0
160,304,108310,5,0
112,248,108685,1,0
112,176,109060,1,0
160,120,109435,1,0
208,176,109810,1,0
280,176,110185,1,0
352,176,110560,5,0
352,248,110935,1,0
424,248,111310,1,0
424,216,111497,1,0
424,184,111685,1,0
424,112,112060,5,0
376,56,112435,1,0
304,56,112810,1,0
272,56,112997,1,0
240,56,113185,1,0
192,112,113560,5,0
192,184,113935,1,0
192,256,114310,2,0,B|232:256|232:304,1,70
304,304,115060,1,0
376,304,115435,1,0
376,232,115810,1,0
336,160,116185,1,0
256,112,116560,1,0
336,64,116935,1,0
264,64,117310,5,0
232,64,117497,1,0
200,64,117685,1,0
152,120,118060,1,0
152,192,118435,1,0
152,264,118810,2,0,B|248:264|248:192|296:192,1,140
336,200,119935,1,0
408,200,120310,1,0
432,232,120497,1,0
432,264,120685,1,0
392,320,121060,5,0
320,320,121435,1,0
248,320,121810,2,0,B|168:320|168:208,1,140
168,152,122935,5,0
168,120,123122,1,0
200,120,123310,1,0
232,120,123497,1,0
232,88,123685,1,0
304,88,124060,6,0,B|392:88,1,70
376,160,124810,2,0,B|304:232|224:232,1,140
192,232,125935,1,0
136,184,126310,5,0
136,152,126497,1,0
168,152,126685,1,0
216,72,127060,1,0
272,152,127435,1,0
328,72,127810,1,0
400,72,128185,2,0,B|400:176,1,70
392,208,128935,5,0
376,240,129122,1,0
376,272,129310,1,0
376,304,129497,1,0
392,336,129685,1,0
320,336,130060,5,0
248,336,130435,1,0
192,288,130810,2,0,B|128:224|128:144,1,140
128,96,131935,1,0
160,96,132122,1,0
192,96,132310,1,0
224,96,132497,1,0
256,96,132685,1,0
328,96,133060,6,0,B|360:128|360:160,1,70
256,256,133810,1,0
256,136,134185,1,0
168,192,134560,1,0
344,192,134935,1,0
256,192,135310,12,0,137185
224,72,137560,5,0
200,104,137747,1,0
200,136,137935,1,0
184,168,138122,1,0
184,200,138310,1,0
216,200,138497,1,0
248,200,138685,1,0
320,200,139060,6,0,B|432:200|432:112,1,140
248,48,139810,2,0,B|168:48|168:152,1,140
256,312,140560,2,0,B|408:312,1,140
392,240,141310,1,0
392,208,141497,1,0
392,176,141685,2,0,B|392:32,1,140
256,312,142435,2,0,B|256:168,1,140
112,40,143185,2,0,B|112:192,1,140
112,248,143935,5,0
144,248,144122,1,0
176,248,144310,2,0,B|248:248,1,70
246,248,144685,1,0
320,248,145060,5,0
392,248,145435,1,0
464,248,145810,2,0,B|368:152|368:56|264:56,1,280
208,56,146935,1,0
136,56,147310,1,0
80,104,147685,5,0
80,176,148060,1,0
80,248,148435,1,0
128,304,148810,1,0
200,304,149185,1,0
232,304,149372,5,0
264,304,149560,1,0
296,304,149747,1,0
320,272,149935,1,0
344,240,150122,1,0
344,208,150310,1,0
320,176,150497,1,0
288,176,150685,1,0
216,176,151060,5,0
144,176,151435,2,0,B|64:176|64:64,1,140
368,176,152185,2,0,B|448:176|448:80,1,140
256,320,152935,2,0,B|256:168,1,140
160,48,153685,6,0,B|160:136|88:208,1,140
352,48,154435,2,0,B|352:120|408:176,1,140
408,344,155185,2,0,B|408:272|336:200,1,140
112,344,155935,2,0,B|112:272|168:216,1,140
165,218,156497,1,0
165,218,156685,1,0
256,80,157060,5,0
352,216,157435,1,0
448,80,157810,1,0
448,216,158185,1,0
400,312,158560,1,0
352,216,158935,1,0
296,312,159310,1,0
256,192,159685,12,0,160810
256,192,161185,12,0,161935
200,192,162122,5,0
232,192,162310,1,0
264,192,162497,1,0
296,192,162685,1,0
352,88,163060,5,0
376,120,163247,1,0
400,152,163435,1,0
424,184,163622,1,0
424,216,163810,1,0
400,248,163997,1,0
400,280,164185,1,0
400,312,164372,1,0
368,312,164560,1,0
344,280,164747,1,0
344,280,164935,5,0
312,280,165122,1,0
280,280,165310,1,0
256,248,165497,1,0
224,248,165685,1,0
176,120,166060,6,0,B|280:120,1,70
384,192,166810,2,0,B|304:192,1,70
176,272,167560,2,0,B|264:272,1,70
246,272,168122,1,0
246,272,168310,1,0
246,272,168497,1,0
246,272,168685,1,0
320,272,169060,5,0
344,240,169247,1,0
376,240,169435,1,0
376,208,169622,1,0
376,176,169810,1,0
352,144,169997,1,0
352,112,170185,1,0
320,112,170372,1,0
288,112,170560,1,0
256,112,170747,1,0
224,112,170935,5,0
192,112,171122,1,0
160,112,171310,2,0,B|120:112,1,35
125,112,171685,1,0
96,144,171872,5,0
96,176,172060,1,0
96,208,172247,1,0
120,240,172435,1,0
152,240,172622,1,0
152,272,172810,1,0
176,304,172997,1,0
256,192,173185,12,0,174685
200,320,175435,6,0,B|200:176,1,140
312,56,176185,2,0,B|312:208,1,140
312,264,176935,1,0
384,264,177310,1,0
384,192,177685,1,0
336,136,178060,1,0
264,136,178435,2,0,B|104:136,1,140
264,248,179185,2,0,B|416:248,1,140
408,136,179935,2,0,B|304:32,1,140
240,40,180685,5,0
208,40,180872,1,0
176,40,181060,1,0
176,72,181247,1,0
144,72,181435,1,0
144,144,181810,5,0
176,240,182185,1,0
288,200,182560,1,0
256,104,182935,1,0
360,72,183310,1,0
400,168,183685,1,0
376,272,184060,1,0
304,272,184435,6,0,B|152:272,1,140
256,112,185185,2,0,B|400:112,1,140
376,272,185935,2,0,B|272:168,1,140
208,176,186685,5,0
176,176,186872,1,0
152,208,187060,1,0
152,240,187247,1,0
120,240,187435,1,0
120,312,187810,6,0,B|288:312,1,140
408,192,188560,2,0,B|256:192,1,140
120,64,189310,2,0,B|272:64,1,140
256,192,190060,1,0
256,192,190435,12,0,191560
256,192,191935,12,0,192685
256,192,193060,5,0
256,88,193435,1,0
344,192,193810,1,0
256,280,194185,1,0
168,192,194560,1,0
256,88,194935,1,0
344,192,195310,1,0
256,280,195685,1,0
168,192,196060,1,0
256,88,196435,6,0,B|416:88,1,140
256,280,197185,2,0,B|112:280,1,140
168,192,197935,1,0
344,192,198310,1,0
256,104,198685,5,0
256,136,198872,1,0
256,168,199060,2,0,B|256:240,1,70
256,238,199435,1,0
