osu file format v9

[General]
AudioFilename: Hirano Aya - Mezamenai Wish....mp3
AudioLeadIn: 0
PreviewTime: 60310
Countdown: 0
SampleSet: Soft
StackLeniency: 0.7
Mode: 0
LetterboxInBreaks: 1

[Editor]
DistanceSpacing: 0.8
BeatDivisor: 4
GridSize: 8

[Metadata]
Title:Mezamenai Wish... (Full Ver.)
Artist:Hirano Aya
Creator:-oSpiriT_Runo-
Version:Hard
Source:Akane-Iro ni Somaru Saka
Tags:minato nagase character theme song

[Difficulty]
HPDrainRate:6
CircleSize:5
OverallDifficulty:6
ApproachRate:7
SliderMultiplier:1.4
SliderTickRate:1

[Events]
//Background and Video events
0,0,"dd70e8a5e2364325fef06a026f042edf.jpg"
//Break Periods
2,84884,95785
//Storyboard Layer 0 (Background)
//Storyboard Layer 1 (Fail)
//Storyboard Layer 2 (Pass)
//Storyboard Layer 3 (Foreground)
//Storyboard Sound Samples
//Background Colour Transformations
3,100,163,162,255

[TimingPoints]
6685,750,4,2,0,100,1,0
60685,-100,4,2,0,100,0,1
63685,-50,4,2,0,100,0,1
84685,-100,4,2,0,100,0,0
138685,-50,4,2,0,100,0,1
162685,-100,4,2,0,100,0,0
175435,-50,4,2,0,100,0,0
176560,-50,4,2,0,100,0,1
199435,-100,4,2,0,100,0,0

[Colours]
Combo1 : 26,181,150
Combo2 : 130,67,11

[HitObjects]
152,96,6685,5,0
216,96,7060,1,0
280,96,7435,1,2
344,96,7810,1,0
408,96,8185,1,0
408,160,8560,2,0,B|336:232,1,70
320,256,9310,1,0
256,256,9685,5,2
216,208,10060,1,2
216,144,10435,1,2
216,80,10810,1,2
152,80,11185,2,0,B|152:184|80:184,1,140,0|2
184,56,12685,6,0,B|336:56,1,140,2|2
184,328,14185,2,0,B|328:328,1,140,2|2
80,152,15685,5,2
144,152,16060,1,0
208,152,16435,1,0
208,216,16810,2,0,B|432:216,1,210,2|2
416,280,18310,1,2
256,192,18685,12,0,20185
160,48,20560,6,0,B|224:112,1,70,2|0
208,160,21310,1,0
208,224,21685,2,0,B|376:224,1,140,0|2
348,224,22810,1,0
416,224,23185,1,0
416,160,23560,5,0
368,120,23935,1,2
304,120,24310,1,0
240,120,24685,2,0,B|88:120,1,140,0|2
104,248,26185,2,0,B|272:248,1,140,0|2
304,248,27310,1,0
344,248,27497,1,0
384,248,27685,1,2
384,176,28060,6,0,B|384:80,1,70
384,40,28810,2,0,B|144:40,1,210,0|2
176,104,30310,5,0
176,168,30685,1,0
176,232,31060,1,0
216,280,31435,1,0
280,280,31810,2,0,B|344:216,1,70
328,168,32560,5,0
288,120,32935,1,0
224,120,33310,1,0
184,168,33685,2,0,B|184:328,1,140,2|2
328,168,35185,1,0
392,168,35560,6,0,B|392:256,1,70
256,168,36310,1,0
96,48,36685,6,0,B|96:128,1,70,2|0
176,336,37435,2,0,B|176:232,1,70,2|0
256,48,38185,2,0,B|256:144,1,70,2|0
256,184,38935,1,2
256,248,39310,1,0
296,248,39497,1,0
336,248,39685,1,2
400,248,40060,6,0,B|456:248|456:184,1,70
448,144,40810,1,2
416,88,41185,1,0
384,144,41560,1,0
352,88,41935,1,2
288,88,42310,1,2
248,88,42497,1,0
208,88,42685,1,0
144,88,43060,5,0
80,88,43435,1,2
80,152,43810,2,0,B|80:280|216:280,1,210,0|2
272,280,45310,1,2
336,280,45685,6,0,B|336:200|264:128,1,140,2|0
176,280,46810,2,0,B|176:200|232:144,1,140,2|0
288,152,47935,1,2
352,152,48310,1,0
352,216,48685,6,0,B|352:296,1,70,2|0
160,216,49435,2,0,B|160:112,1,70,2|0
256,40,50185,1,0
256,104,50560,1,0
256,168,50935,5,2
256,208,51122,1,0
256,248,51310,1,0
256,288,51497,2,0,B|320:288,1,35,0|2
352,288,52060,5,0
416,288,52435,1,2
416,288,52810,2,0,B|288:288|288:152,1,210,2|2
288,96,54310,5,0
288,96,54497,1,0
288,96,54685,1,2
224,96,55060,1,0
160,96,55435,2,0,B|160:184,1,70,0|2
160,224,56185,1,2
160,288,56560,2,0,B|216:288|216:352,1,70
256,192,57310,12,0,59185
184,192,59560,5,0
224,192,59747,1,0
264,192,59935,1,2
304,192,60122,1,0
344,192,60310,1,0
304,96,60685,5,6
272,40,61060,1,2
240,96,61435,1,2
208,40,61810,1,2
176,96,62185,1,2
144,152,62560,1,0
176,208,62935,1,2
240,208,63310,1,0
304,208,63685,2,0,B|392:208|392:336,3,140,2|2|2|2
208,152,65185,2,0,B|128:152|128:48,3,140,2|2|2|2
128,57,66497,1,2
168,56,66685,5,2
232,56,67060,1,2
296,56,67435,1,2
360,56,67810,2,0,B|360:200|128:200,1,280,2|2
96,200,68935,1,2
96,264,69310,5,2
128,320,69685,1,2
160,264,70060,1,2
192,320,70435,1,2
224,264,70810,1,2
288,264,71185,2,0,B|432:264|432:40,1,280,2|2
431,61,72122,1,0
392,64,72310,1,2
352,64,72497,1,0
312,64,72685,1,0
200,64,73060,6,0,B|24:64,1,140,2|2
312,320,73810,2,0,B|472:320,1,140,2|2
256,192,74560,2,0,B|256:32,1,140,2|2
256,192,75310,1,0
120,192,75685,2,0,B|264:192|264:72|400:72,1,280,2|2
368,192,76810,1,2
368,312,77185,2,0,B|216:312|216:160|72:200,1,280,2|2
122,193,78310,1,2
192,192,78685,5,2
256,192,79060,1,2
320,192,79435,1,2
384,192,79810,1,0
256,48,80560,6,0,B|256:208,1,140,0|2
256,256,81310,1,0
432,160,81685,6,0,B|288:160|288:264,1,140
80,160,82435,2,0,B|224:160|224:272,1,140
256,192,83185,12,2,83935
256,136,84122,6,0,B|256:208,1,70,0|2
256,206,84497,2,0,B|256:280,1,70,0|6
256,192,96685,12,0,98185
176,128,98560,5,0
240,128,98935,1,0
304,128,99310,1,0
368,128,99685,2,0,B|368:192|312:192,1,70
272,192,100435,2,0,B|184:192,1,70
136,192,101185,1,0
104,248,101560,5,0
104,312,101935,1,0
160,280,102310,5,0
224,280,102685,6,0,B|320:280,1,70
224,192,103435,2,0,B|304:192,1,70
224,104,104185,2,0,B|296:104,1,70
360,104,104935,1,0
360,168,105310,5,0
360,208,105497,1,0
360,248,105685,1,0
288,248,106060,1,0
248,200,106435,1,0
208,152,106810,2,0,B|144:88,3,70
96,104,108310,1,0
136,56,108685,5,0
200,56,109060,1,0
264,56,109435,1,0
304,104,109810,1,0
368,104,110185,1,0
432,104,110560,5,0
400,160,110935,1,0
400,224,111310,1,0
400,288,111685,2,0,B|288:176|288:16,1,280
224,40,113560,5,0
160,40,113935,1,0
96,40,114310,1,0
96,104,114685,2,0,B|96:272|192:272,2,210
152,104,117310,1,0
192,104,117497,1,0
232,104,117685,1,0
296,104,118060,5,0
360,104,118435,1,0
424,104,118810,2,0,B|424:200|336:200,1,140
280,200,119935,1,0
216,200,120310,1,0
176,200,120497,1,0
136,200,120685,1,0
168,128,121060,5,0
208,48,121435,1,0
288,80,121810,1,0
248,160,122185,1,0
248,240,122560,1,0
248,320,122935,5,0
288,320,123122,1,0
328,320,123310,1,0
328,280,123497,1,0
328,240,123685,1,0
328,144,124060,5,0
328,80,124435,1,0
264,80,124810,2,0,B|112:80|112:192,1,210
112,248,126310,5,0
136,288,126497,1,0
160,328,126685,1,0
224,328,127060,1,0
288,328,127435,1,0
352,328,127810,1,0
416,328,128185,2,0,B|416:264|368:264,1,70
352,216,128935,5,0
312,216,129122,1,0
272,216,129310,1,0
232,216,129497,1,0
192,216,129685,1,0
192,144,130060,5,0
160,88,130435,1,0
128,144,130810,2,0,B|128:264|288:264,1,210
269,263,132122,1,0
269,263,132310,1,0
269,263,132497,1,0
269,263,132685,1,0
336,264,133060,5,0
384,224,133435,1,0
424,176,133810,1,0
424,112,134185,1,0
360,112,134560,1,0
296,112,134935,1,0
256,192,135310,12,0,137185
328,192,137560,5,0
288,192,137747,1,0
248,192,137935,1,0
208,192,138122,1,0
168,192,138310,1,0
168,56,138685,6,0,B|168:208,1,140
344,328,139435,2,0,B|344:176,1,140
256,192,140185,1,0
256,128,140560,2,0,B|256:48,1,70
256,58,140935,1,0
192,128,141310,1,0
320,128,141685,2,0,B|400:128|400:232,1,140
128,128,142435,2,0,B|48:128|48:224,1,140
48,220,142997,1,0
48,220,143185,6,0,B|200:216,1,140
248,216,143935,1,0
288,216,144122,1,0
328,216,144310,1,0
368,216,144497,1,0
408,216,144685,1,0
408,144,145060,6,0,B|304:40,1,140
304,200,145810,2,0,B|192:88,1,140
96,104,146560,2,0,B|96:256,1,140
96,312,147310,1,0
160,312,147685,2,0,B|312:312,1,140
256,72,148435,2,0,B|400:72,1,140
256,192,149185,12,0,149935
192,192,150122,5,0
232,192,150310,1,0
272,192,150497,1,0
312,192,150685,1,0
376,192,151060,6,0,B|440:128|440:32,1,140
376,64,151810,1,0
312,64,152185,1,0
248,64,152560,1,0
184,64,152935,1,0
120,64,153310,2,0,B|120:240,1,140
208,320,154060,2,0,B|208:168,1,140
304,64,154810,2,0,B|304:208,1,140
400,320,155560,2,0,B|400:168,1,140
400,180,156122,1,0
400,144,156310,1,0
400,104,156497,1,0
400,64,156685,1,0
336,64,157060,5,0
272,64,157435,1,0
208,64,157810,1,0
160,112,158185,1,0
112,160,158560,2,0,B|48:224|48:312,1,140
48,344,159310,1,0
120,344,159685,6,0,B|288:344,1,140
384,56,160435,2,0,B|200:56,1,140
256,192,161185,12,0,161935
200,200,162122,5,0
200,200,162310,2,0,B|288:200|288:104,1,140
192,48,163060,5,0
192,128,163435,1,0
192,208,163810,1,0
192,288,164185,1,0
256,320,164560,1,0
336,320,164935,2,0,B|400:320,1,35
371,320,165310,1,0
408,320,165497,1,0
448,320,165685,1,0
448,216,166060,5,0
448,176,166247,1,0
448,136,166435,1,0
256,216,166810,6,0,B|256:168,1,35
256,181,167185,1,0
256,144,167372,1,0
256,104,167560,1,0
224,72,167747,1,0
184,72,167935,5,0
184,112,168122,1,0
144,112,168310,1,0
144,152,168497,2,0,B|144:192,1,35
320,184,169060,5,0
360,184,169247,1,0
400,184,169435,1,0
440,184,169622,1,0
416,152,169810,1,0
376,152,169997,1,0
336,152,170185,1,0
296,152,170372,1,0
256,152,170560,1,0
216,152,170747,1,0
184,184,170935,6,0,B|152:216,1,35
159,208,171310,2,0,B|160:248,1,35
159,243,171685,1,0
160,320,172060,1,0
200,320,172247,5,0
240,320,172435,1,0
240,280,172622,2,0,B|288:280,1,35
275,280,172997,1,0
256,192,173185,12,0,174685
256,192,175060,5,0
184,112,175435,5,0
328,272,175810,1,0
328,112,176185,1,0
184,272,176560,1,0
184,192,176935,6,0,B|336:192,1,140
384,192,177685,1,0
448,192,178060,1,0
448,192,178247,1,0
448,192,178435,2,0,B|336:80,1,140
248,96,179185,2,0,B|104:96,1,140
48,96,179935,1,0
48,160,180310,1,0
48,224,180685,2,0,B|136:224,1,70
118,224,181060,2,0,B|200:224,1,70
188,224,181435,5,0
256,224,181810,1,0
320,224,182185,1,0
384,224,182560,2,0,B|384:152|256:152,1,140
280,88,183310,1,0
240,88,183497,1,0
200,88,183685,1,0
136,88,184060,6,0,B|136:160|272:160,1,140
384,288,184810,2,0,B|296:288|296:192,1,140
232,200,185560,1,0
168,200,185935,1,0
104,200,186310,1,0
136,144,186685,6,0,B|192:88,1,70
185,94,187060,2,0,B|240:40,1,70
234,45,187435,5,0
264,104,187810,1,0
296,160,188185,1,0
328,216,188560,1,0
328,280,188935,1,0
264,280,189310,2,0,B|184:280,1,70
194,280,189685,1,0
128,280,190060,1,0
128,216,190435,2,0,B|128:64,1,140
128,76,190997,1,0
128,76,191185,2,0,B|240:72|240:144,1,140
239,134,191747,1,0
239,134,191935,2,0,B|240:224|352:224,1,140
327,222,192497,1,0
368,224,192685,5,0
408,224,192872,1,0
440,192,193060,1,0
440,152,193247,1,0
440,112,193435,1,0
440,48,193810,6,0,B|312:48|312:152,1,140
256,104,194560,1,0
192,104,194935,2,0,B|112:104|112:208,1,140
112,264,195685,2,0,B|272:264,1,140
252,264,196247,1,0
252,264,196435,1,0
320,264,196810,6,0,B|400:264,1,70
390,264,197185,1,0
392,192,197560,1,0
320,192,197935,5,0
256,104,198310,1,0
192,192,198685,1,0
232,192,198872,1,0
272,192,199060,1,0
312,192,199247,1,0
352,192,199435,1,0
