osu file format v5

[General]
AudioFilename: Lost My Music.mp3
AudioLeadIn: 0
PreviewTime: 22224
Countdown: 0
SampleSet: Normal
StackLeniency: 0.2
Mode: 0
LetterboxInBreaks: 1
EditorBookmarks: 2705,12305,21905,31505,41105,50705,60305,69905,79505,89105,98705,108305,117605

[Metadata]
Title:Lost My Music
Artist:Hirano Aya
Creator:DJPop
Version:Normal
Source:Suzumiya Haruhi no Yuuutsu
Tags:lost my music hirano aya suzumiya haruhi no yuuutsu

[Difficulty]
HPDrainRate:5
CircleSize:5
OverallDifficulty:4
SliderMultiplier:0.8
SliderTickRate:2

[Events]
//Background and Video events
0,0,"Lost My Music.png"
//Break Periods
//Storyboard Layer 0 (Background)
//Storyboard Layer 1 (Failing)
//Storyboard Layer 2 (Passing)
//Storyboard Layer 3 (Foreground)
//Storyboard Sound Samples
//Background Colour Transformations
3,100,255,192,0

[TimingPoints]
300,300,4,1,0,100,1

[Colours]
Combo1 : 255,255,0
Combo2 : 0,255,0
Combo3 : 0,0,255
Combo4 : 255,0,0

[HitObjects]
256,192,2700,5,4
256,192,3000,1,8
384,192,3600,1,8
256,192,4200,1,8
128,192,4800,1,8
256,192,5400,5,8
384,192,6000,1,8
384,192,6300,1,6
448,256,6750,1,6
256,192,7500,5,4
256,192,7800,1,8
128,192,8400,1,8
256,192,9000,1,8
384,192,9600,1,8
256,192,10200,5,8
128,192,10800,1,8
256,192,11400,1,10
256,192,11700,1,10
256,64,12300,5,4
256,64,12600,1,8
384,64,13200,1,8
384,192,13800,1,8
384,320,14400,1,8
256,320,15000,5,8
128,320,15600,1,8
128,192,16200,1,8
128,64,16800,1,8
256,64,17400,5,8
256,192,18000,1,8
128,192,18600,1,8
256,192,19200,1,8
256,320,19800,5,8
256,192,20400,1,8
384,192,21000,1,8
384,192,21300,1,10
256,192,21900,5,4
128,192,22500,1,0
128,64,23100,1,0
0,64,23700,1,0
0,192,24300,1,0
128,320,25200,5,0
128,320,25500,1,0
256,320,26100,1,0
384,320,26700,1,0
512,192,27600,5,0
512,192,27900,1,0
512,64,28500,1,0
384,64,29100,1,0
384,64,29400,6,0,B|128:64|96:64|30:64|32:128|32:160|32:320,1,560,0|4
160,320,32100,5,0
160,192,32700,1,0
288,192,33300,1,0
288,320,33900,6,0,B|384:320|416:320|500:342|480:256|480:224|480:160,1,320
480,32,35700,1,0
352,32,36300,1,0
224,160,37200,5,0
224,160,37500,1,0
224,288,38100,1,0
96,288,38700,6,0,B|96:192|96:128|64:105|32:129|32:192|32:288,2,320,0|0|4
224,288,41700,5,0
224,160,42300,1,0
352,160,42900,1,0
352,32,43500,1,0
480,160,44400,5,0
480,160,44700,1,0
480,288,45300,1,0
352,288,45900,1,0
224,160,46800,5,0
224,160,47100,1,0
224,32,47700,1,0
96,32,48300,1,0
96,32,48600,6,0,B|96:160|96:224|85:300|160:288|224:288|448:288,1,560,0|4
448,160,51300,5,0
320,160,51900,1,0
192,160,52500,1,0
64,160,53100,6,0,C|64:128|84:52|160:32|288:32,1,320
288,160,54900,1,0
288,288,55500,1,0
416,160,56400,5,0
416,160,56700,1,0
416,288,57300,1,0
288,288,57900,6,2,C|256:256|223:323|160:286|128:352|96:320,1,320,2|2
96,192,59700,1,2
96,64,60300,5,4
224,192,61200,1,8
224,192,61500,1,8
224,320,62100,1,8
352,320,62700,5,0
480,192,63600,1,8
480,192,63900,1,8
480,64,64500,1,8
352,64,65100,5,0
352,192,65700,1,8
224,192,66300,1,0
224,64,66900,1,8
96,64,67500,5,2
96,64,67800,2,2,C|48:64|44:112|84:112|80:160|32:160,1,240,10|10
32,288,69300,1,10
160,288,69900,5,4
288,160,70800,1,8
288,160,71100,1,8
160,160,71700,1,8
32,160,72300,5,0
160,32,73200,1,8
160,32,73500,1,8
288,32,74100,1,8
416,32,74700,5,0
416,160,75300,1,8
416,288,75900,1,0
288,288,76500,1,8
288,160,77100,5,2
288,161,77400,2,2,C|288:114|240:109|240:150|192:146|192:98,1,240,10|10
64,96,78900,1,10
64,224,79500,5,4
192,352,80400,1,8
192,352,80700,1,8
192,224,81300,1,8
320,224,81900,5,0
448,352,82800,1,8
448,352,83100,1,8
448,224,83700,1,8
448,96,84300,5,0
320,96,84900,1,8
320,224,85500,1,0
320,352,86100,1,8
192,352,86700,5,2
192,352,87000,2,2,C|160:344|128:320|107:284|64:256|40:224|32:192,1,240,10|10
32,64,88500,1,10
160,64,89100,5,4
288,192,90000,1,8
288,192,90300,1,8
288,64,90900,1,8
416,64,91500,5,0
288,192,92400,1,8
288,192,92700,1,8
288,320,93300,1,8
416,320,93900,5,0
416,192,94500,1,8
416,64,95100,1,0
288,64,95700,1,8
160,64,96300,5,2
160,64,96600,2,2,C|128:72|96:96|75:134|32:160|8:192|0:224,1,240,10|10
0,352,98100,1,10
128,352,98700,5,4
256,352,99300,1,0
384,352,99900,2,2,C|384:232,1,120
512,224,101100,5,0
512,96,101700,1,0
384,96,102300,2,2,C|264:96,1,120
256,224,103500,5,4
128,224,104100,1,0
0,224,104700,2,2,C|0:104,1,120
128,96,105900,5,0
256,96,106500,1,2
320,32,106950,2,2,C|384:32|352:64|412:64|384:96|448:96,1,280
448,160,108300,5,4
448,288,108900,1,0
320,288,109500,1,2
256,224,109950,2,2,C|136:224,1,120
96,224,110700,5,0
96,352,111300,1,0
224,352,111900,1,2
160,288,112350,2,2,C|160:168,1,120
160,128,113100,5,4
288,128,113700,1,0
288,256,114300,1,2
352,192,114750,2,2,C|472:192,1,120
480,224,115500,5,8
480,352,116100,1,10
416,288,116550,1,10
256,192,116700,12,4,117600
