osu file format v12

[General]
AudioFilename: Hare Hare Yukai.mp3
AudioLeadIn: 0
PreviewTime: 29905
Countdown: 1
SampleSet: None
StackLeniency: 0.7
Mode: 0
LetterboxInBreaks: 1
WidescreenStoryboard: 1

[Editor]
DistanceSpacing: 0.8
BeatDivisor: 2
GridSize: 8

[Metadata]
Title:Hare Hare Yukai
TitleUnicode:Hare Hare Yukai
Artist:Hirano Aya
ArtistUnicode:Hirano Aya
Creator:hanyuu_nanodesu
Version:Nanodesu!
Source:Suzumiya Haruhi no Yuutsu
Tags:Hirano Aya Hare Yukai Suzumiya Haruhi No Yuutsu the Melancholy of
BeatmapID:319022
BeatmapSetID:125319

[Difficulty]
HPDrainRate:6
CircleSize:4
OverallDifficulty:7
ApproachRate:10
SliderMultiplier:2.2
SliderTickRate:1

[Events]
//Background and Video events
0,0,"Hare Hare Yukai BG.jpg",0,0
Video,0,"Hare Hare Yukai.wmv"
//Break Periods
//Storyboard Layer 0 (Background)
//Storyboard Layer 1 (Fail)
//Storyboard Layer 2 (Pass)
//Storyboard Layer 3 (Foreground)
//Storyboard Sound Samples
//Background Colour Transformations
3,100,163,162,255

[TimingPoints]
7580,348.837209302326,4,1,0,100,1,0
18742,-133.333333333333,4,1,0,100,0,0
23975,-100,4,1,0,100,0,0
29905,-100,4,1,0,100,0,1
41155,-100,4,1,0,100,0,0
41242,-100,4,1,0,100,0,1
60254,-100,4,1,0,100,0,0
63568,-100,4,1,0,100,0,1
63655,-100,4,1,0,100,0,0

[Colours]
Combo1 : 255,150,0
Combo2 : 5,240,5
Combo3 : 5,5,240
Combo4 : 240,5,5

[HitObjects]
424,72,603,1,0,0:0:0:0:
384,64,690,1,0,0:0:0:0:
352,72,777,1,0,0:0:0:0:
328,104,864,1,0,0:0:0:0:
328,144,952,1,0,0:0:0:0:
320,184,1039,5,0,0:0:0:0:
312,216,1126,1,0,0:0:0:0:
288,240,1213,1,0,0:0:0:0:
256,256,1300,1,0,0:0:0:0:
224,248,1388,1,0,0:0:0:0:
200,224,1475,5,0,0:0:0:0:
192,192,1562,1,0,0:0:0:0:
200,160,1649,1,0,0:0:0:0:
200,120,1736,1,0,0:0:0:0:
200,88,1824,2,0,B|176:32|176:32|112:32,1,110
0,40,2173,5,0,0:0:0:0:
48,160,2347,2,0,B|72:192|72:192|104:208|104:208|128:240,1,110
192,336,2696,1,0,0:0:0:0:
192,224,2870,2,0,L|192:112,1,110
312,32,3219,6,0,L|312:168,1,110
464,144,3568,1,0,0:0:0:0:
312,144,3742,2,0,L|192:144,1,110
200,288,4091,1,0,0:0:0:0:
344,296,4266,2,0,B|408:296|408:296|440:256,1,110
464,144,4614,2,0,L|352:144,1,110
352,24,4963,1,0,0:0:0:0:
240,144,5138,5,0,0:0:0:0:
240,288,5312,2,0,B|144:288|144:288|72:168,1,220
32,64,5835,1,0,0:0:0:0:
176,64,6010,1,0,0:0:0:0:
328,192,6359,6,0,L|200:192,1,110
216,320,6707,1,0,0:0:0:0:
328,320,7056,5,0,0:0:0:0:
216,192,7231,1,0,0:0:0:0:
328,192,7405,1,0,0:0:0:0:
216,320,7579,1,0,0:0:0:0:
80,320,7754,2,0,L|80:192,1,110
80,104,8103,1,0,0:0:0:0:
80,208,8277,6,0,L|208:208,1,110
296,104,8626,2,0,B|352:104|352:104|400:136,2,110
160,104,9149,1,0,0:0:0:0:
224,216,9324,2,0,B|256:264|256:264|344:264,1,110
440,256,9673,1,0,0:0:0:0:
440,112,9847,1,0,0:0:0:0:
440,256,10021,2,0,L|304:256,2,110
440,112,10545,1,0,0:0:0:0:
304,112,10719,6,0,L|192:112,1,110
312,240,11068,2,0,L|432:240,1,110
424,352,11417,1,0,0:0:0:0:
424,240,11591,2,0,L|424:112,2,110
296,240,12114,1,0,0:0:0:0:
176,240,12289,6,0,L|40:240,1,110
184,112,12638,2,0,B|240:112|240:112|296:72,1,110
376,8,12986,1,0,0:0:0:0:
376,128,13161,2,0,L|376:248,1,110
240,240,13510,5,0,0:0:0:0:
208,240,13597,1,0,0:0:0:0:
176,240,13684,2,0,B|176:160|176:160|144:128,1,110
48,72,14033,1,0,0:0:0:0:
40,192,14207,2,0,L|40:312,2,110
48,72,14731,6,0,L|176:72,1,110
160,184,15080,2,0,L|280:184,1,110
272,312,15428,1,0,0:0:0:0:
272,184,15603,2,0,B|270:100|270:100|288:80,2,110
376,184,16126,2,0,L|488:184,1,110
488,312,16475,6,0,L|360:312,1,110
376,184,16824,2,0,L|504:184,1,110
448,296,17173,1,0,0:0:0:0:
408,296,17260,1,0,0:0:0:0:
376,296,17347,2,0,L|376:168,1,110
376,56,17696,5,0,0:0:0:0:
248,56,17870,2,0,B|168:56|168:56|112:88|112:88|32:88,1,220
32,224,18393,1,0,0:0:0:0:
168,224,18568,1,0,0:0:0:0:
168,336,18742,6,0,B|224:336|224:336|272:304|272:304|344:304,1,165.000006294251
448,304,19266,1,0,0:0:0:0:
448,200,19440,2,0,L|448:112,1,82.5000031471254
320,112,19789,1,0,0:0:0:0:
320,240,19963,2,0,L|232:240,1,82.5000031471254
240,112,20312,6,0,L|136:112,1,82.5000031471254
152,240,20661,2,0,L|152:328,1,82.5000031471254
272,328,21010,1,0,0:0:0:0:
264,224,21184,2,8,L|376:224,1,82.5000031471254,8|0,0:0|0:0,0:0:0:0:
480,224,21533,1,0,0:0:0:0:
480,104,21707,6,0,L|480:8,1,82.5000031471254
368,16,22056,1,0,0:0:0:0:
216,16,22231,1,0,0:0:0:0:
216,136,22405,2,0,L|112:136,1,82.5000031471254
128,256,22754,2,0,B|184:256|184:256|232:280|232:280|312:280,1,165.000006294251
408,272,23277,2,0,L|408:160,1,82.5000031471254
400,72,23626,2,0,B|352:72|352:72|320:56|320:56|288:72|288:72|216:72,1,165.000006294251
96,72,24149,5,0,0:0:0:0:
112,192,24324,2,0,B|128:240|128:240|216:240,1,110
312,240,24673,1,0,0:0:0:0:
400,128,24847,1,0,0:0:0:0:
400,128,25196,5,0,0:0:0:0:
312,240,25370,1,0,0:0:0:0:
160,296,25545,1,0,0:0:0:0:
160,296,25893,6,0,B|160:208|160:208|200:152,1,110
272,112,26242,1,0,0:0:0:0:
384,24,26417,1,0,0:0:0:0:
400,128,26591,2,0,L|528:128,1,110
400,248,26940,2,0,L|272:248,1,110
160,248,27289,5,0,0:0:0:0:
32,248,27463,1,0,0:0:0:0:
112,120,27638,1,0,0:0:0:0:
240,120,27812,1,0,0:0:0:0:
360,120,27986,2,0,L|488:120,1,110
472,248,28335,5,0,0:0:0:0:
368,248,28510,2,0,B|320:248|320:248|272:200,1,110
176,128,28859,1,0,0:0:0:0:
312,128,29033,1,0,0:0:0:0:
440,128,29207,1,0,0:0:0:0:
448,248,29905,5,0,0:0:0:0:
448,248,30080,2,0,L|328:248,1,110
312,128,30428,2,0,L|192:128,1,110
192,248,30777,1,0,0:0:0:0:
312,248,30952,1,0,0:0:0:0:
312,128,31126,1,0,0:0:0:0:
432,128,31300,1,0,0:0:0:0:
432,32,31475,2,0,L|192:32,1,220
208,176,31998,5,0,0:0:0:0:
80,56,32173,2,0,L|80:176,2,110
216,56,32696,1,0,0:0:0:0:
344,56,32870,1,0,0:0:0:0:
352,184,33045,6,0,L|480:184,1,110
352,312,33393,2,0,L|240:312,1,110
232,192,33742,1,0,0:0:0:0:
88,112,33917,5,0,0:0:0:0:
232,192,34091,1,0,0:0:0:0:
80,272,34266,1,0,0:0:0:0:
224,368,34440,1,0,0:0:0:0:
152,368,34614,2,0,L|152:136,1,220
272,136,35138,5,0,0:0:0:0:
304,136,35225,1,0,0:0:0:0:
336,136,35312,2,0,B|336:216|336:216|368:264,2,110
456,136,35835,1,0,0:0:0:0:
456,248,36010,2,0,B|456:304|456:304|400:352,1,110
224,248,36359,5,0,0:0:0:0:
192,248,36446,1,0,0:0:0:0:
168,248,36533,2,0,L|40:248,2,110
168,120,37056,1,0,0:0:0:0:
272,120,37231,2,0,L|400:120,1,110
384,8,37580,2,0,L|384:128,1,110
392,256,37928,5,0,0:0:0:0:
360,256,38016,1,0,0:0:0:0:
328,256,38103,2,0,B|248:256|248:256|216:224,1,110
136,144,38452,1,0,0:0:0:0:
264,144,38626,6,0,L|376:144,1,110
264,272,38975,2,0,L|144:272,1,110
40,272,39324,1,0,0:0:0:0:
72,160,39498,1,0,0:0:0:0:
168,80,39673,1,0,0:0:0:0:
312,80,39847,2,0,L|440:80,1,110
472,192,40196,5,0,0:0:0:0:
472,192,40545,2,0,B|352:192|352:192|272:240|272:240|136:240,1,330
144,136,41242,6,0,L|280:136,1,110
472,288,41591,2,0,L|336:288,1,110
216,288,41940,1,0,0:0:0:0:
344,176,42114,1,0,0:0:0:0:
232,64,42289,1,0,0:0:0:0:
120,184,42463,1,0,0:0:0:0:
360,288,42638,6,0,L|480:288,1,110
232,128,42986,2,0,L|104:128,1,110
120,264,43335,2,0,B|192:264|192:264|240:304,2,110
112,128,43859,6,0,L|232:128,1,110
232,256,44207,2,0,L|368:256,1,110
352,136,44556,2,0,L|488:136,1,110
224,128,44905,2,0,L|96:128,1,110
232,256,45254,2,0,L|360:256,1,110
448,256,45603,5,0,0:0:0:0:
448,120,45777,2,0,B|312:120|312:120|232:192,1,220
160,296,46300,1,0,0:0:0:0:
272,296,46475,2,0,L|384:296,1,110
392,160,46824,5,0,0:0:0:0:
352,160,46911,1,0,0:0:0:0:
320,160,46998,2,0,L|200:160,1,110
96,56,47347,1,0,0:0:0:0:
96,176,47521,1,0,0:0:0:0:
96,288,47696,1,0,0:0:0:0:
96,288,48045,6,0,L|96:56,1,220,2|0,0:0|0:0,0:0:0:0:
208,64,48568,1,0,0:0:0:0:
256,168,48742,1,0,0:0:0:0:
336,64,48917,2,0,L|392:176,1,110
336,24,49440,5,0,0:0:0:0:
208,24,49614,1,0,0:0:0:0:
376,128,49789,1,0,0:0:0:0:
168,128,49963,1,0,0:0:0:0:
416,248,50138,1,0,0:0:0:0:
128,240,50312,1,0,0:0:0:0:
456,368,50486,1,0,0:0:0:0:
80,360,50661,1,0,0:0:0:0:
280,360,50835,2,0,L|280:56,1,220
280,24,51359,1,0,0:0:0:0:
280,136,51533,6,0,L|280:368,1,220
392,352,52056,1,0,0:0:0:0:
168,352,52231,1,0,0:0:0:0:
280,280,52405,2,0,L|280:160,2,110
168,232,52928,5,0,0:0:0:0:
232,152,53103,1,0,0:0:0:0:
344,152,53277,1,0,0:0:0:0:
400,240,53452,1,0,0:0:0:0:
280,280,53626,2,0,L|280:144,1,110
280,56,53975,5,0,0:0:0:0:
232,152,54149,2,0,L|352:152,1,110
168,232,54498,1,0,0:0:0:0:
240,312,54673,1,0,0:0:0:0:
336,312,54847,1,0,0:0:0:0:
400,224,55021,1,0,0:0:0:0:
336,152,55196,6,0,L|216:152,1,110
232,256,55545,2,0,L|344:256,1,110
272,152,55893,1,0,0:0:0:0:
336,64,56068,2,0,L|208:64,1,110
40,344,56417,1,2,0:0:0:0:
232,344,56766,5,0,0:0:0:0:
344,344,56940,1,0,0:0:0:0:
464,344,57114,1,0,0:0:0:0:
464,256,57289,2,0,L|224:256,1,220
152,336,57986,5,0,0:0:0:0:
96,240,58161,1,0,0:0:0:0:
152,336,58335,1,0,0:0:0:0:
384,336,58684,5,0,0:0:0:0:
424,232,58859,1,0,0:0:0:0:
384,336,59033,1,0,0:0:0:0:
152,336,59382,5,0,0:0:0:0:
384,336,59556,1,0,0:0:0:0:
96,240,59731,1,0,0:0:0:0:
424,232,59905,1,0,0:0:0:0:
264,336,60254,6,0,L|264:88,1,220
160,112,60777,1,0,0:0:0:0:
352,112,60952,1,0,0:0:0:0:
152,216,61126,2,0,L|376:216,1,220
160,112,61824,5,0,0:0:0:0:
352,112,61998,1,0,0:0:0:0:
256,280,62173,1,0,0:0:0:0:
384,304,62521,5,0,0:0:0:0:
128,304,62696,1,0,0:0:0:0:
256,48,62870,1,0,0:0:0:0:
256,192,63219,5,0,0:0:0:0:
256,192,63568,1,4,0:0:0:0:
