osu file format v12

[General]
AudioFilename: Hare Hare Yukai.mp3
AudioLeadIn: 0
PreviewTime: 29905
Countdown: 1
SampleSet: None
StackLeniency: 0.7
Mode: 0
LetterboxInBreaks: 1
WidescreenStoryboard: 0

[Editor]
DistanceSpacing: 0.8
BeatDivisor: 2
GridSize: 8

[Metadata]
Title:Hare Hare Yukai
TitleUnicode:Hare Hare Yukai
Artist:Hirano Aya
ArtistUnicode:Hirano Aya
Creator:hanyuu_nanodesu
Version:Insane
Source:Suzumiya Haruhi no Yuutsu
Tags:Hirano Aya Hare Yukai Suzumiya Haruhi No Yuutsu the Melancholy of
BeatmapID:319021
BeatmapSetID:125319

[Difficulty]
HPDrainRate:6
CircleSize:4
OverallDifficulty:7
ApproachRate:9
SliderMultiplier:1.8
SliderTickRate:1

[Events]
//Background and Video events
0,0,"Hare Hare Yukai BG.jpg",0,0
Video,0,"Hare Hare Yukai.wmv"
//Break Periods
//Storyboard Layer 0 (Background)
//Storyboard Layer 1 (Fail)
//Storyboard Layer 2 (Pass)
//Storyboard Layer 3 (Foreground)
//Storyboard Sound Samples
//Background Colour Transformations
3,100,163,162,255

[TimingPoints]
7580,348.837209302326,4,1,0,100,1,0
18742,-133.333333333333,4,1,0,100,0,0
23975,-100,4,1,0,100,0,0
29905,-100,4,1,0,100,0,1
41155,-100,4,1,0,100,0,0
41242,-100,4,1,0,100,0,1
60254,-100,4,1,0,100,0,0
63568,-100,4,1,0,100,0,1
63655,-100,4,1,0,100,0,0

[Colours]
Combo1 : 255,150,0
Combo2 : 5,240,5
Combo3 : 5,5,240
Combo4 : 240,5,5

[HitObjects]
400,80,603,1,0,0:0:0:0:
392,88,690,1,0,0:0:0:0:
384,96,777,1,0,0:0:0:0:
384,104,864,1,0,0:0:0:0:
384,112,952,1,0,0:0:0:0:
376,120,1039,5,0,0:0:0:0:
368,128,1126,1,0,0:0:0:0:
360,136,1213,1,0,0:0:0:0:
352,136,1300,1,0,0:0:0:0:
344,136,1388,5,0,0:0:0:0:
336,136,1475,1,0,0:0:0:0:
320,128,1562,1,0,0:0:0:0:
304,128,1649,1,0,0:0:0:0:
288,128,1736,1,0,0:0:0:0:
272,128,1824,6,0,B|192:128|192:128|112:200,2,180
360,136,2696,1,0,0:0:0:0:
360,224,2870,2,0,B|360:264|360:264|408:304,1,90
464,328,3219,1,0,0:0:0:0:
464,232,3393,2,0,L|464:40,2,180
464,328,4266,5,0,0:0:0:0:
376,328,4440,2,0,B|312:328|312:328|280:296,1,90
248,248,4789,1,0,0:0:0:0:
248,152,4963,2,0,B|248:88|248:88|224:64,2,90
248,248,5486,1,0,0:0:0:0:
336,256,5661,6,0,L|432:256,1,90
504,256,6010,1,0,0:0:0:0:
504,160,6359,2,0,L|408:160,1,90
328,160,6707,1,0,0:0:0:0:
224,160,7056,5,0,0:0:0:0:
112,136,7231,1,0,0:0:0:0:
64,40,7405,1,0,0:0:0:0:
168,40,7579,2,0,L|304:40,1,90
360,40,7928,5,0,0:0:0:0:
456,40,8103,1,0,0:0:0:0:
448,144,8277,2,0,L|344:144,1,90
256,144,8626,1,0,0:0:0:0:
296,232,8800,6,0,B|320:272|320:272|376:272,2,90
256,144,9324,1,0,0:0:0:0:
160,144,9498,2,0,B|80:144|80:144|0:224,1,180
112,216,10021,2,0,B|152:216|152:216|197:241|197:241|240:216|240:216|288:216,1,180
368,216,10545,5,0,0:0:0:0:
456,216,10719,2,0,B|480:216|480:216|512:280,1,90
512,352,11068,1,0,0:0:0:0:
424,352,11242,2,0,L|328:352,2,90
512,352,11766,1,0,0:0:0:0:
424,352,11940,2,0,B|376:352|376:352|339:328|339:328|296:352|296:352|232:352,1,180
168,352,12463,5,0,0:0:0:0:
168,256,12638,2,0,L|168:160,2,90
168,352,13161,1,0,0:0:0:0:
88,344,13335,2,0,B|24:344|24:344|-8:312,1,90
0,216,13684,5,0,0:0:0:0:
88,216,13859,2,0,B|136:216|136:216|176:176,1,90
208,104,14207,1,0,0:0:0:0:
248,184,14382,2,0,B|272:216|272:216|352:216,1,90
416,208,14731,1,0,0:0:0:0:
416,112,14905,6,0,L|416:16,2,90
416,208,15428,1,0,0:0:0:0:
320,208,15603,2,0,L|136:208,2,180
416,208,16475,1,0,0:0:0:0:
416,120,16649,2,0,B|416:72|416:72|352:72,1,90
288,72,16998,1,0,0:0:0:0:
200,72,17173,6,0,L|104:72,1,90
32,104,17521,2,0,B|0:120|0:120|0:176,1,90
0,264,17870,1,0,0:0:0:0:
96,264,18045,1,0,0:0:0:0:
200,264,18219,2,0,B|256:264|256:264|304:240|304:240|376:240,1,180
448,240,18742,6,0,B|448:160|448:160|408:120,2,135.000005149842
448,344,19614,1,0,0:0:0:0:
352,344,19789,2,0,L|248:344,1,67.5000025749208
232,272,20138,2,0,L|152:272,1,67.5000025749208
80,272,20486,2,0,B|80:224|80:224|128:152,1,135.000005149842
192,104,21010,5,0,0:0:0:0:
240,184,21184,2,8,B|272:216|272:216|400:216,1,135.000005149842,8|0,0:0|0:0,0:0:0:0:
448,208,21707,1,0,0:0:0:0:
448,120,21882,2,0,L|448:48,2,67.5000025749208
448,208,22405,1,0,0:0:0:0:
448,304,22580,6,0,L|368:304,1,67.5000025749208
344,224,22928,2,0,L|272:224,1,67.5000025749208
176,224,23277,1,0,0:0:0:0:
224,144,23452,2,0,B|272:104|272:104|376:104,1,135.000005149842
432,104,23975,5,0,0:0:0:0:
496,192,24149,1,0,0:0:0:0:
496,304,24324,1,0,0:0:0:0:
400,304,24498,2,0,B|309:303|309:303|288:304,1,90
208,304,24847,1,0,0:0:0:0:
208,304,25196,6,0,B|184:272|184:272|184:184,1,90
184,136,25545,1,0,0:0:0:0:
184,136,25893,2,0,B|232:136|232:136|288:88,1,90
328,48,26242,1,0,0:0:0:0:
424,104,26417,5,0,0:0:0:0:
328,160,26591,1,0,0:0:0:0:
432,208,26766,1,0,0:0:0:0:
376,288,26940,2,0,B|352:320|352:320|256:320,1,90
224,248,27289,6,0,L|120:248,1,90
72,192,27638,1,0,0:0:0:0:
112,88,27812,1,0,0:0:0:0:
208,48,27986,1,0,0:0:0:0:
312,96,28161,1,0,0:0:0:0:
352,192,28335,5,0,0:0:0:0:
352,192,28510,2,0,L|464:192,1,90
512,192,28859,1,0,0:0:0:0:
512,288,29033,2,0,B|472:288|472:288|424:320,1,90
336,320,29905,6,0,L|232:320,1,90
176,248,30254,2,0,L|64:248,1,90
88,152,30603,1,0,0:0:0:0:
192,152,30777,1,0,0:0:0:0:
192,40,30952,1,0,0:0:0:0:
304,40,31126,1,0,0:0:0:0:
312,144,31300,6,0,B|368:144|368:144|440:192,1,90
456,224,31649,1,0,0:0:0:0:
392,304,31824,2,0,B|360:328|360:328|288:328,1,90
192,320,32173,2,0,L|96:320,2,90
320,328,32696,6,0,B|376:328|376:328|416:272,1,90
456,224,33045,2,0,B|472:184|472:184|472:112,1,90
464,48,33393,1,0,0:0:0:0:
368,48,33568,2,0,L|264:48,1,90
176,48,33917,1,0,0:0:0:0:
208,136,34091,6,0,B|232:168|232:168|304:168,1,90
368,168,34440,1,0,0:0:0:0:
472,176,34614,2,0,B|440:256|440:256|344:256,1,180
264,256,35138,5,0,0:0:0:0:
160,256,35312,2,0,L|64:256,2,90
264,256,35835,1,0,0:0:0:0:
256,152,36010,2,0,L|368:152,1,90
368,56,36359,2,0,L|472:56,1,90
456,152,36707,5,0,0:0:0:0:
456,248,36882,1,0,0:0:0:0:
456,344,37056,1,0,0:0:0:0:
352,344,37231,2,0,B|288:344|288:344|264:328,1,90
208,264,37580,1,0,0:0:0:0:
304,256,37754,6,0,B|304:192|304:192|272:152,1,90
224,104,38103,1,0,0:0:0:0:
216,200,38277,2,0,L|104:200,1,90
48,200,38626,1,0,0:0:0:0:
80,288,38800,2,0,B|104:328|104:328|192:328,1,90
232,320,39149,1,0,0:0:0:0:
328,320,39324,2,0,L|328:216,1,90
320,120,39673,5,0,0:0:0:0:
408,120,39847,2,0,B|456:120|456:120|504:72,1,90
512,24,40196,1,0,0:0:0:0:
512,24,40545,2,0,L|240:24,1,270
104,32,41242,6,0,B|152:104|152:104|248:104,1,180
328,96,41766,1,0,0:0:0:0:
432,96,41940,2,0,L|528:96,2,90
328,96,42463,1,0,0:0:0:0:
296,184,42638,2,0,B|264:224|264:224|192:224,1,90
136,224,42986,1,0,0:0:0:0:
32,224,43161,5,0,0:0:0:0:
72,304,43335,2,0,B|112:344|112:344|168:344,2,90
32,224,43859,2,0,L|88:128,1,90
160,160,44207,2,0,L|248:96,1,90
312,64,44556,5,0,0:0:0:0:
432,120,44731,1,0,0:0:0:0:
328,184,44905,1,0,0:0:0:0:
424,248,45080,1,0,0:0:0:0:
344,312,45254,2,0,B|296:344|296:344|224:344,1,90
168,344,45603,6,0,L|72:344,1,90
88,248,45952,1,0,0:0:0:0:
88,144,46126,1,0,0:0:0:0:
168,72,46300,1,0,0:0:0:0:
280,56,46475,1,0,0:0:0:0:
232,144,46649,6,0,B|208:184|208:184|208:256,1,90
208,312,46998,1,0,0:0:0:0:
304,312,47173,2,0,L|400:312,2,90
208,312,47696,1,0,0:0:0:0:
208,216,47870,1,0,0:0:0:0:
304,216,48045,6,0,B|384:216|384:216|472:136,1,180,2|0,0:0|0:0,0:0:0:0:
512,80,48568,1,0,0:0:0:0:
416,80,48742,2,0,L|304:80,2,90
512,80,49266,1,0,0:0:0:0:
456,160,49440,6,0,B|424:192|424:192|424:256,1,90
424,336,49789,1,0,0:0:0:0:
336,288,49963,1,0,0:0:0:0:
248,232,50138,2,0,L|160:168,1,90
152,272,50486,2,0,L|48:240,1,90
0,216,50835,1,0,0:0:0:0:
0,120,51010,6,0,B|0:72|0:72|40:32,1,90
112,0,51359,1,0,0:0:0:0:
144,88,51533,2,0,B|176:136|176:136|312:136,1,180
376,136,52056,1,0,0:0:0:0:
376,224,52231,6,0,L|264:224,2,90
480,224,52754,1,0,0:0:0:0:
424,304,52928,2,0,B|392:336|392:336|312:336,1,90
256,336,53277,5,0,0:0:0:0:
136,336,53452,1,0,0:0:0:0:
80,256,53626,2,0,B|120:256|120:256|224:256,1,90
256,248,53975,1,0,0:0:0:0:
360,248,54149,6,0,L|360:136,2,90
360,336,54673,1,0,0:0:0:0:
256,336,54847,2,0,B|192:336|192:336|144:296,1,90
104,248,55196,1,0,0:0:0:0:
200,248,55370,2,0,L|304:248,1,90
392,240,55719,1,0,0:0:0:0:
392,144,55893,2,0,B|392:88|392:88|360:56,1,90
296,24,56242,1,0,0:0:0:0:
216,120,56417,5,2,0:0:0:0:
72,144,56766,6,0,L|72:264,2,90
64,40,57289,1,0,0:0:0:0:
176,40,57463,2,0,L|288:40,1,90
272,136,57986,5,0,0:0:0:0:
416,136,58161,1,0,0:0:0:0:
272,136,58335,1,0,0:0:0:0:
336,240,58684,5,0,0:0:0:0:
208,240,58859,1,0,0:0:0:0:
336,240,59033,1,0,0:0:0:0:
272,136,59382,5,0,0:0:0:0:
416,136,59556,1,0,0:0:0:0:
336,240,59731,1,0,0:0:0:0:
208,240,59905,1,0,0:0:0:0:
80,256,60254,6,0,B|136:336|136:336|240:336,1,180
312,328,60777,1,0,0:0:0:0:
424,328,60952,2,0,L|424:136,1,180
424,40,61475,1,0,0:0:0:0:
304,40,61824,5,0,0:0:0:0:
144,40,61998,1,0,0:0:0:0:
224,184,62173,1,0,0:0:0:0:
352,256,62521,5,0,0:0:0:0:
224,88,62696,1,0,0:0:0:0:
120,256,62870,1,0,0:0:0:0:
224,184,63219,5,0,0:0:0:0:
224,184,63568,1,4,0:0:0:0:
