osu file format v12

[General]
AudioFilename: Hare Hare Yukai.mp3
AudioLeadIn: 0
PreviewTime: 29905
Countdown: 1
SampleSet: None
StackLeniency: 0.7
Mode: 0
LetterboxInBreaks: 1
WidescreenStoryboard: 1

[Editor]
Bookmarks: 1824,1998
DistanceSpacing: 0.8
BeatDivisor: 2
GridSize: 8

[Metadata]
Title:Hare Hare Yukai
TitleUnicode:Hare Hare Yukai
Artist:Hirano Aya
ArtistUnicode:Hirano Aya
Creator:hanyuu_nanodesu
Version:Easy
Source:Suzumiya Haruhi no Yuutsu
Tags:Hirano Aya Hare Yukai Suzumiya Haruhi No Yuutsu the Melancholy of
BeatmapID:319019
BeatmapSetID:125319

[Difficulty]
HPDrainRate:2
CircleSize:3
OverallDifficulty:1
ApproachRate:3
SliderMultiplier:0.9
SliderTickRate:1

[Events]
//Background and Video events
0,0,"Hare Hare Yukai BG.jpg",0,0
Video,0,"Hare Hare Yukai.wmv"
//Break Periods
//Storyboard Layer 0 (Background)
//Storyboard Layer 1 (Fail)
//Storyboard Layer 2 (Pass)
//Storyboard Layer 3 (Foreground)
//Storyboard Sound Samples
//Background Colour Transformations
3,100,163,162,255

[TimingPoints]
7580,348.837209302326,4,1,0,100,1,0
18742,-133.333333333333,4,1,0,100,0,0
23975,-100,4,1,0,100,0,0
29905,-100,4,1,0,100,0,1
41155,-100,4,1,0,100,0,0
41242,-100,4,1,0,100,0,1
60254,-100,4,1,0,100,0,0
63568,-100,4,1,0,100,0,1
63655,-100,4,1,0,100,0,0

[Colours]
Combo1 : 255,150,0
Combo2 : 5,240,5
Combo3 : 5,5,240
Combo4 : 240,5,5

[HitObjects]
432,72,1824,2,0,B|360:128|360:128|256:128,1,180
168,128,2870,2,0,B|216:208|216:208|280:208,1,135
376,216,3742,2,0,B|328:288|328:288|216:288,1,180
144,288,4789,2,0,L|144:120,1,135
144,56,5661,5,0,0:0:0:0:
248,56,6010,2,0,L|360:56,1,90
432,56,6707,1,0,0:0:0:0:
432,160,7056,2,0,L|296:160,1,135
304,256,7928,6,0,L|424:256,2,90
200,256,8975,1,0,0:0:0:0:
200,152,9324,2,0,B|304:152|304:152|376:112,1,180
464,48,10370,1,0,0:0:0:0:
464,152,10719,6,0,B|464:256|464:256|368:304,1,180
304,328,11766,1,0,0:0:0:0:
200,328,12114,2,0,L|8:328,1,180
16,240,13161,1,0,0:0:0:0:
128,240,13510,6,0,B|248:240|248:240|344:184,1,225
416,128,14731,1,0,0:0:0:0:
416,40,15080,2,0,L|256:40,2,135
416,128,16475,1,0,0:0:0:0:
416,232,17173,2,0,B|360:232|360:232|312:200|312:200|272:232|272:232|176:232,1,225
104,232,18393,1,0,0:0:0:0:
104,328,18742,6,0,B|248:328|248:328|320:280,1,202.500007724762
360,224,20138,1,0,0:0:0:0:
256,224,20486,2,0,L|176:224,1,67.5000025749208
88,224,21184,1,8,0:0:0:0:
80,120,21533,2,0,L|304:120,2,202.500007724762
88,224,23975,6,0,L|264:224,1,135
312,224,24847,1,0,0:0:0:0:
432,224,25196,2,0,B|432:104|432:104|432:104,1,90
312,120,25893,1,0,0:0:0:0:
312,224,26242,2,0,L|152:224,1,135
256,192,27114,12,0,29207,0:0:0:0:
288,88,29905,6,0,L|480:88,1,180
464,184,30952,2,0,L|296:184,1,135
224,184,31824,1,0,0:0:0:0:
64,184,32696,6,0,B|64:72|64:72|128:32,1,180
144,112,33742,2,0,L|296:112,1,135
368,112,34614,1,0,0:0:0:0:
368,224,35138,6,0,L|240:224,2,90
464,224,36184,1,0,0:0:0:0:
464,120,36533,2,0,L|464:-8,2,90
464,224,37580,1,0,0:0:0:0:
352,224,37928,2,0,B|248:224|248:224|176:264|176:264|88:264,1,270
96,144,39498,1,0,0:0:0:0:
208,144,39847,6,0,L|336:144,2,90
208,248,41242,6,0,B|296:248|296:248|344:216|344:216|424:216,1,225
512,216,42463,1,0,0:0:0:0:
512,120,42812,2,0,L|320:120,1,180
232,120,43859,6,0,L|112:120,1,90
144,208,44556,2,0,L|256:208,1,90
328,208,45254,1,0,0:0:0:0:
440,224,45603,2,0,B|400:288|400:288|280:288,1,180
200,288,46649,5,0,0:0:0:0:
200,192,46998,2,0,L|200:80,2,90
200,288,48045,2,0,B|304:288|304:288|456:168,1,270,2|0,0:0|0:0,0:0:0:0:
384,88,49440,6,0,L|280:88,2,90
496,88,50486,1,0,0:0:0:0:
496,192,50835,2,0,L|304:192,1,180
208,192,51882,5,0,0:0:0:0:
208,288,52231,2,0,L|408:288,2,180
112,280,53975,2,0,B|112:184|112:184|200:136,1,180
280,112,55021,5,0,0:0:0:0:
280,208,55370,2,0,L|392:208,1,90
368,112,56068,2,0,L|264:112,1,90,0|2,0:0|0:0,0:0:0:0:
176,112,56766,6,0,L|88:112,2,67.5
272,112,57638,1,0,0:0:0:0:
264,216,57986,6,0,L|336:216,1,45
368,296,58684,6,0,L|432:296,1,45
424,200,59382,6,0,B|424:144|424:144|344:96,1,135
272,88,60254,2,0,L|96:88,1,135
136,192,61475,1,0,0:0:0:0:
208,264,61824,6,0,L|192:320,2,45
312,256,62521,6,0,L|352:304,2,45
256,192,63219,5,0,0:0:0:0:
256,192,63568,1,4,0:0:0:0:
