osu file format v5

[General]
AudioFilename: Hare Hare Yukai.mp3
AudioLeadIn: 0
PreviewTime: -1
Countdown: 0
SampleSet: Normal
StackLeniency: 0.2
Mode: 0
LetterboxInBreaks: 1

[Editor]
Bookmarks: 8003
DistanceSpacing: 0.800000011920929
BeatDivisor: 4
GridSize: 8

[Metadata]
Title:Hare Hare Yukai (TV Edit)
Artist:Hirano Aya
Creator:Ace of Trades
Version:Normal
Source:From the Melancholy of Suzumiya Haruhi
Tags:Melancholy Suzumiya Haruhi Hirano Aya Hare Yukai

[Difficulty]
HPDrainRate:2
CircleSize:4
OverallDifficulty:2
SliderMultiplier:1
SliderTickRate:1

[Events]
//Background and Video events
Video,0,"Hare Hare Yukai Dance.avi"
0,0,"the_melancholy_of_haruhi__306_1280.jpg"
//Break Periods
//Storyboard Layer 0 (Background)
//Storyboard Layer 1 (Fail)
//Storyboard Layer 2 (Pass)
//Storyboard Layer 3 (Foreground)
Sprite,Foreground,Centre,"1.png",320,240 M,0,6617,6966,320,434 F,0,6617,6966,0,1 M,0,6966,7315,320,434,318,268 F,0,6966,7315,1,0 S,0,6966,7315,1,0.1
Sprite,Foreground,Centre,"2.png",320,435 M,0,6269,6617,320,435 F,0,6269,6617,0,1 M,0,6617,6966,320,435,317,269 F,0,6617,6966,1,0 S,0,6617,6966,1,0.1
Sprite,Foreground,Centre,"3.png",319,275 M,0,5920,6269,318,438 F,0,5920,6269,0,1 M,0,6269,6617,318,438,320,266 F,0,6269,6617,1,0 S,0,6269,6617,1,0.1
Sprite,Foreground,Centre,"go.png",320,240 M,0,7268,,320,240 R,0,7268,7442,3.0976,1.040415 S,0,7268,7530,0.1,0.4456 R,0,7442,7530,1.040415,0 F,0,7268,7617,0,1 S,0,7530,7617,0.4456 R,0,7530,7704,0 S,0,7617,7704,0.4456 F,0,7617,7966,1,0 S,0,7704,7966,0.4456,0.7656 R,0,7704,7966,0,-3.2
//Storyboard Sound Samples
//Background Colour Transformations
3,100,163,162,255

[TimingPoints]
2083,348.837209302326,4,1,0,70,1,0
28420,-100,4,1,0,70,0,1
29989,-100,4,1,0,70,0,0
40629,-100,4,1,0,100,0,1
41152,-100,4,1,0,70,0,1
46385,-100,4,1,0,70,0,0
63303,-100,4,1,0,90,0,1

[HitObjects]
120,120,8013,6,0,B|168:168,1,50
160,192,8362,2,2,B|112:240,1,50,2|8
296,120,9408,6,0,B|248:168,1,50
256,192,9757,2,2,B|304:240,1,50,2|8
352,280,10280,5,0
312,280,10455,2,0,B|264:280|224:232,1,100,8|0
200,264,10978,1,0
136,312,11327,1,4
64,280,11676,5,0
104,280,11850,2,0,B|152:280|192:232,1,100,2|0
216,264,12373,1,0
264,328,12722,2,0,B|320:320|360:280,1,100,0|12
304,176,13594,6,0,B|344:232,1,50,2|0
360,184,13943,2,0,B|400:240,1,50,2|0
320,272,14466,5,0
240,288,14815,1,0
128,232,15338,1,0
24,296,15862,1,4
64,296,16036,5,0
120,344,16385,1,0
160,328,16559,2,0,B|208:296|208:224,1,100,0|8
208,160,17257,5,0
240,184,17431,1,2
312,160,17780,1,0
344,184,17954,1,2
408,224,18303,5,0
408,304,18652,1,0
368,304,18827,2,4,B|312:296|272:232,2,100,4|12|4
328,144,20222,2,0,B|296:240|232:264|160:232,2,200
240,224,22141,5,0
240,184,22315,1,2
168,88,22838,5,0
240,56,23187,1,2
312,88,23536,1,12
488,128,24408,5,0
424,176,24757,2,0,B|392:192|360:176,1,50,8|4
264,224,25455,2,0,B|296:240|328:224,1,50,2|4
424,280,26152,2,0,B|392:296|360:280,1,50,8|4
256,264,26850,5,0
216,192,27199,2,0,B|216:240|216:240|240:272|280:264|288:216|296:152|296:40,1,300,0|4
256,40,28420,5,0
176,40,28769,1,0
216,112,29117,2,0,B|216:168,1,50,0|4
304,136,29989,5,0
304,136,30164,1,8
224,136,30513,1,0
224,136,30687,1,4
152,136,31036,5,0
152,136,31210,2,0,B|160:184|216:216,1,100,2|0
288,216,31908,1,4
328,136,32780,5,0
328,136,32955,1,8
256,136,33303,1,0
256,136,33478,1,4
184,136,33827,5,0
184,136,34001,2,0,B|168:176|216:240,1,100,4|0
280,192,34699,1,4
192,112,35222,5,0
240,48,35571,2,0,B|296:40|336:88,1,100
336,120,36094,1,4
336,240,36617,5,0
288,176,36966,2,0,B|232:168|192:216,1,100
192,248,37489,1,4
112,160,38013,5,0
40,128,38362,1,8
72,56,38710,1,2
72,56,38885,1,0
144,88,39234,5,0
184,152,39582,1,4
264,152,39931,1,8
184,232,40280,1,10
264,232,40629,1,14
248,112,41152,5,0
248,112,41327,1,8
344,112,41676,1,0
344,112,41850,1,2
440,112,42199,5,0
440,112,42373,2,0,B|424:168|376:192,1,100
312,224,43071,1,4
176,72,43943,5,0
128,136,44292,1,0
192,184,44641,2,0,B|160:232|104:216,1,100
64,200,45164,1,0
64,120,45513,1,10
64,40,45862,1,4
152,120,46385,5,0
200,56,46734,2,0,B|272:40|296:88,1,100
304,120,47257,1,4
352,232,47780,5,0
304,168,48129,1,2
256,232,48478,1,0
256,232,48652,2,0,B|216:280|264:344,1,100,4|0
136,288,49524,5,0
136,208,49873,1,0
184,144,50222,2,0,B|224:184,1,50
256,176,50571,2,0,B|296:136,1,50,2|8
320,112,50920,6,0,B|376:120|408:168,1,100,0|2
408,200,51443,1,8
336,296,51966,5,0
256,272,52315,2,0,B|216:232|208:176,1,100,0|8
168,176,52838,2,0,B|120:208|104:256,1,100,0|4
120,288,53362,5,0
200,264,53710,2,0,B|240:224|248:168,1,100,0|8
288,168,54234,2,0,B|336:200|352:248,1,100,0|4
328,280,54757,5,0
248,256,55106,2,0,B|208:216|200:160,1,100,0|8
160,160,55629,2,0,B|112:192|96:240,2,100
192,144,56501,1,4
112,128,56850,6,0,B|136:80|184:48,1,100
216,48,57373,2,0,B|248:48|288:64,1,50
296,80,57722,1,8
248,144,58071,5,0
248,144,58245,1,0
368,144,58769,1,0
368,144,58943,1,0
256,32,59641,5,0
176,32,59990,1,2
112,80,60338,6,0,B|88:120|96:128|96:128|88:136|88:136|96:144|96:144|88:152|88:152|96:160|96:160|88:168|88:168|96:176|96:176,1,100
112,200,60862,2,0,B|152:224|160:216|160:216|168:224|168:224|176:216|176:216|184:224|184:224|192:216|192:216|200:224|200:224|208:216|208:216,1,100
256,168,61559,1,0
328,192,61908,5,8
296,120,62257,1,4
216,120,62606,1,2
184,192,62955,1,4
256,168,63303,1,10
256,88,63652,1,12
