osu file format v5

[General]
AudioFilename: Hare Hare Yukai.mp3
AudioLeadIn: 0
PreviewTime: -1
Countdown: 0
SampleSet: Soft
StackLeniency: 0.2
Mode: 0
LetterboxInBreaks: 1

[Editor]
Bookmarks: 8003
DistanceSpacing: 0.800000011920929
BeatDivisor: 4
GridSize: 8

[Metadata]
Title:Hare Hare Yukai (TV Edit)
Artist:Hirano Aya
Creator:Ace of Trades
Version:Insane
Source:From the Melancholy of Suzumiya Haruhi
Tags:Melancholy Suzumiya Haruhi Hirano Aya Hare Yukai

[Difficulty]
HPDrainRate:6
CircleSize:6
OverallDifficulty:7
SliderMultiplier:1.6
SliderTickRate:2

[Events]
//Background and Video events
Video,0,"Hare Hare Yukai Dance.avi"
0,0,"the_melancholy_of_haruhi__306_1280.jpg"
//Break Periods
//Storyboard Layer 0 (Background)
//Storyboard Layer 1 (Fail)
//Storyboard Layer 2 (Pass)
//Storyboard Layer 3 (Foreground)
Sprite,Foreground,Centre,"1.png",320,240 M,0,1036,1385,320,421 F,0,1036,1385,0,1 M,0,1385,1734,320,421,320,268 F,0,1385,1734,1,0 S,0,1385,1734,1,0.1
Sprite,Foreground,Centre,"2.png",320,240 M,0,687,1036,318,420 F,0,687,1036,0,1 M,0,1036,1385,318,420,320,265 F,0,1036,1385,1,0 S,0,1036,1385,0.9959998,0.1
Sprite,Foreground,Centre,"3.png",322,392 F,0,338,,0 M,0,338,687,321,430 F,0,338,687,0,1 F,0,687,,1 M,0,687,1036,321,430,316,270 F,0,687,1036,1,0 S,0,687,1036,1.0088,0.1
Sprite,Foreground,Centre,"go.png",320,240 F,0,1512,1687,0,1 S,0,1512,1687,0.7695999,0.3343999 M,0,1687,,320,240 F,0,1687,2035,1,0 S,0,1687,2035,0.3343999,0.6671999 R,0,1687,2035,0,3.072001
//Storyboard Sound Samples
//Background Colour Transformations
3,100,163,162,255

[TimingPoints]
2083,348.837209302326,4,1,0,70,1,0
8710,-100,4,2,0,70,0,0
9408,-100,4,1,0,70,0,0
19176,-100,4,1,0,50,0,0
19524,-100,4,1,0,70,0,0
20571,-100,4,2,0,70,0,0
21617,-100,4,1,0,70,0,0
28420,-100,4,1,0,70,0,1
29989,-100,4,1,0,70,0,0
40629,-100,4,1,0,100,0,1
41152,-100,4,1,0,70,0,1
46385,-100,4,1,0,70,0,0
58420,-100,4,2,0,70,0,0
58769,-100,4,1,0,70,0,0
59117,-100,4,2,0,70,0,0
59466,-100,4,1,0,70,0,0
63303,-100,4,1,0,70,0,1

[HitObjects]
368,112,2082,2,0,B|360:152|304:152,1,80,0|8
232,112,2431,1,0
232,176,2606,2,0,B|240:216|296:216,1,80,2|0
368,176,2955,1,4
232,312,3478,6,0,B|280:296|296:264,1,80,0|8
296,200,3827,1,0
360,200,4001,2,0,B|360:248|416:248,1,80,2|0
472,248,4350,1,4
472,56,4873,6,0,B|392:104|296:136,1,160,0|8
328,192,5396,2,0,B|248:144|152:112,1,160,2|8
256,16,6094,5,0
360,88,6443,1,8
232,96,6792,1,2
120,32,7141,1,0
56,48,7315,1,8
16,96,7489,1,2
16,160,7664,1,4
144,128,8013,5,0
144,192,8187,1,0
208,128,8362,1,2
208,192,8536,1,8
208,64,8885,5,2
256,104,9059,1,8
304,64,9234,1,4
304,128,9408,5,0
304,192,9582,1,0
368,128,9757,1,2
368,192,9931,1,8
368,320,10280,5,0
304,320,10455,2,8,B|264:304|248:264,1,80,8|0
224,208,10803,1,0
200,264,10978,2,8,B|184:304|144:320,1,80,2|0
80,320,11327,1,4
80,192,11676,5,0
144,192,11851,2,8,B|184:176|200:136,1,80,8|0
224,80,12199,1,0
248,136,12374,2,8,B|264:176|304:192,1,80,2|0
368,192,12723,1,4
408,240,12896,1,2
368,288,13071,1,4
200,192,13594,5,10
240,240,13769,1,0
280,192,13943,1,2
320,240,14117,1,8
440,280,14466,2,0,B|360:312,1,80
304,320,14815,2,0,B|216:320,1,80,0|8
160,320,15164,1,0
136,256,15338,5,0
40,256,15600,1,8
88,336,15862,1,4
88,272,16036,2,2,B|88:176,1,80,2|0
88,128,16385,1,0
152,128,16559,2,0,B|152:232|256:232,1,160,2|8
224,120,17257,5,0
224,184,17431,1,2
288,184,17606,1,0
288,120,17780,1,0
344,152,17955,1,2
344,280,18303,5,0
408,280,18478,1,0
408,344,18652,1,0
344,344,18827,2,4,B|280:280,1,80,4|8
240,336,19176,2,4,B|176:272,1,80,6|8
176,216,19524,5,0
176,152,19699,1,0
232,184,19873,1,8
288,152,20048,1,0
288,216,20222,1,0
416,192,20571,5,0
416,192,20658,1,0
416,192,20745,1,0
368,144,20920,1,2
368,144,21007,1,2
368,144,21094,1,2
320,104,21269,1,4
320,232,21617,6,0,B|264:232|264:160,1,80,0|8
264,120,21966,1,4
200,128,22141,1,0
232,72,22315,1,0
296,72,22489,1,2
328,128,22664,1,8
328,192,22838,2,0,B|376:192|416:152,1,80,0|8
368,216,23187,2,0,B|416:216|456:176,1,80,2|0
408,240,23536,2,0,B|456:240|496:200,1,80,0|4
488,88,24059,5,0
432,56,24234,1,8
432,120,24408,1,2
432,184,24582,1,0
392,232,24757,1,8
352,184,24931,1,4
312,136,25106,1,0
264,176,25280,5,0
264,240,25455,1,8
328,240,25629,1,4
368,288,25803,1,0
328,336,25978,1,0
272,368,26152,1,8
232,312,26327,1,4
168,312,26501,1,0
104,312,26676,5,0
104,248,26850,1,8
152,200,27024,1,2
216,200,27199,2,0,B|216:328|216:328|256:352|288:296|304:168|304:16,1,480,0|4
240,24,28420,5,0
304,136,28769,1,0
176,136,29117,1,0
240,136,29292,2,0,B|176:200,1,80,12|4
240,136,29641,2,0,B|304:200,1,80,14|8
336,144,29989,5,0
336,208,30164,2,0,B|296:240|256:208,1,80,0|8
256,144,30513,1,0
256,208,30688,2,0,B|216:240|176:208,1,80,0|2
184,144,31036,1,0
184,208,31210,2,0,B|152:248|184:288,1,80,0|4
216,328,31559,5,0
280,328,31734,1,8
320,280,31908,2,0,B|352:240|320:200,1,80,0|8
264,232,32257,1,8
216,184,32431,1,2
264,136,32606,1,8
312,184,32780,5,0
360,136,32955,1,0
400,184,33129,1,2
360,232,33303,1,8
400,280,33478,2,0,B|400:336|336:336,1,80
288,336,33827,5,0
224,336,34001,2,0,B|168:328|168:264,1,80
168,224,34350,1,0
136,168,34524,1,8
200,168,34699,1,4
8,168,35222,5,0
48,112,35396,1,0
104,80,35571,2,0,B|144:64|184:80,1,80,8|0
240,112,35920,1,0
272,168,36094,1,4
464,168,36617,5,0
424,112,36791,1,0
368,80,36966,2,0,B|328:64|288:80,1,80,8|0
232,112,37315,1,0
200,168,37489,1,4
96,104,38013,5,0
96,40,38187,1,2
152,72,38362,2,0,B|192:48|232:72,1,80
288,72,38710,1,0
352,72,38885,2,0,B|288:136,1,80,0|8
232,128,39234,2,0,B|168:64,1,80,0|8
192,128,39582,5,4
320,128,39931,1,8
192,256,40280,1,10
320,256,40629,2,0,B|304:240|304:240|296:240|296:240|296:232|296:232|296:224|296:224|288:224|288:224|280:224|280:224|280:216|280:216|280:208|280:208|272:208|272:208|264:208|264:208|264:200|264:200|264:192|264:192|256:192|256:192|248:192|248:192|248:184|248:184|248:176|248:176|240:176|240:176|232:176|232:176|232:168|232:168,1,160,14|0
176,136,41152,5,0
176,200,41327,2,0,B|216:232|256:200,1,80,0|8
256,136,41676,1,0
256,200,41851,2,0,B|296:232|336:200,1,80,0|2
328,136,42199,1,0
328,200,42373,2,0,B|360:240|328:280,1,80,0|4
288,320,42722,5,0
224,320,42897,1,8
184,272,43071,2,0,B|152:232|184:192,1,80,0|8
240,224,43420,1,8
288,176,43594,1,2
240,128,43769,1,8
240,64,43943,5,0
176,64,44117,1,0
208,120,44292,1,8
144,120,44466,1,0
176,176,44641,1,2
112,176,44815,1,0
48,176,44989,1,0
48,240,45164,6,0,B|48:296|104:296,1,80,0|8
104,232,45513,2,0,B|152:232|152:296,1,80,2|0
152,344,45862,2,0,B|192:360|232:344,1,80,4|4
128,264,46385,5,0
168,208,46559,1,0
224,176,46734,2,0,B|264:160|304:176,1,80,8|0
360,208,47083,1,0
392,264,47257,1,4
264,328,47780,6,0,B|224:344|184:328,1,80,0|8
144,280,48129,2,0,B|128:240|144:200,1,80,2|0
184,152,48478,2,0,B|224:136|264:152,1,80,8|4
312,184,48827,1,8
312,184,49001,1,2
232,280,49350,5,0
232,280,49437,1,0
232,280,49524,2,0,B|144:280,1,80,0|8
96,248,49873,2,0,B|184:248,1,80,2|0
176,184,50222,1,0
224,232,50396,1,8
288,232,50571,1,2
336,184,50745,1,4
336,120,50920,5,0
400,120,51094,1,0
440,168,51269,1,2
440,232,51443,1,8
400,272,51617,1,2
344,296,51792,1,12
280,320,51966,5,2
280,256,52141,1,0
224,288,52315,2,0,B|168:288|168:232,1,80
168,176,52664,1,8
104,176,52838,2,0,B|48:176|48:232,1,80
48,288,53187,1,4
104,320,53362,5,0
104,256,53537,1,0
160,288,53711,2,0,B|216:288|216:232,1,80
216,176,54060,1,8
280,176,54234,2,0,B|336:176|336:232,1,80
336,288,54583,1,4
280,320,54757,5,0
280,256,54932,1,0
224,288,55106,2,0,B|168:288|168:232,1,80
168,176,55455,1,8
104,176,55629,2,0,B|48:176|48:232,1,80
256,192,55978,12,12,56501
80,128,56850,6,0,B|80:80|128:48,1,80,0|8
168,32,57199,1,0
232,32,57373,2,0,B|280:48|304:88,1,80,2|8
320,136,57722,1,8
192,136,58071,5,0
192,200,58245,1,0
256,136,58420,1,2
256,200,58594,1,4
320,136,58769,5,0
320,200,58943,1,0
256,136,59118,1,2
256,200,59292,1,4
256,264,59466,5,0
208,304,59641,1,0
184,240,59815,1,2
136,280,59989,1,4
40,192,60338,6,0,B|72:32,1,160,0|8
135,35,60862,2,0,B|167:195,1,160,0|2
256,72,61559,1,4
320,184,61908,5,0
320,248,62082,1,0
272,288,62257,1,2
192,184,62606,5,0
192,248,62780,1,0
240,288,62955,1,2
256,160,63303,1,10
344,72,63652,1,12
