osu file format v5

[General]
AudioFilename: Hare Hare Yukai.mp3
AudioLeadIn: 0
PreviewTime: -1
Countdown: 0
SampleSet: Normal
StackLeniency: 0.2
Mode: 0
LetterboxInBreaks: 1

[Editor]
Bookmarks: 8003
DistanceSpacing: 0.800000011920929
BeatDivisor: 4
GridSize: 8

[Metadata]
Title:Hare Hare Yukai (TV Edit)
Artist:Hirano Aya
Creator:Ace of Trades
Version:Hard
Source:From the Melancholy of Suzumiya Haruhi
Tags:Melancholy Suzumiya Haruhi Hirano Aya Hare Yukai

[Difficulty]
HPDrainRate:5
CircleSize:5
OverallDifficulty:5
SliderMultiplier:1.2
SliderTickRate:2

[Events]
//Background and Video events
Video,0,"Hare Hare Yukai Dance.avi"
0,0,"the_melancholy_of_haruhi__306_1280.jpg"
//Break Periods
//Storyboard Layer 0 (Background)
//Storyboard Layer 1 (Fail)
//Storyboard Layer 2 (Pass)
//Storyboard Layer 3 (Foreground)
Sprite,Foreground,Centre,"1.png",320,322 M,0,1036,1385,320,421 F,0,1036,1385,0,1 M,0,1385,1734,320,421,320,268 F,0,1385,1734,1,0 S,0,1385,1734,1,0.1
Sprite,Foreground,Centre,"2.png",318,355 M,0,687,1036,318,420 F,0,687,1036,0,1 M,0,1036,1385,318,420,320,265 F,0,1036,1385,1,0 S,0,1036,1385,0.9959998,0.1
Sprite,Foreground,Centre,"3.png",320,416 F,0,338,,0 M,0,338,687,321,430 F,0,338,687,0,1 F,0,687,,1 M,0,687,1036,321,430,316,270 F,0,687,1036,1,0 S,0,687,1036,1.0088,0.1
Sprite,Foreground,Centre,"go.png",320,240 F,0,1512,1687,0,1 S,0,1512,1687,0.7695999,0.3343999 M,0,1687,,320,240 F,0,1687,2035,1,0 S,0,1687,2035,0.3343999,0.6671999 R,0,1687,2035,0,3.072001
//Storyboard Sound Samples
//Background Colour Transformations
3,100,163,162,255

[TimingPoints]
2083,348.837209302326,4,1,0,70,1,0
28420,-100,4,1,0,70,0,1
29641,-100,4,1,0,70,0,0
40629,-100,4,1,0,100,0,1
41152,-100,4,1,0,70,0,1
46385,-100,4,1,0,70,0,0
63303,-100,4,1,0,90,0,1

[HitObjects]
360,112,2082,1,0
264,112,2431,1,0
232,152,2606,1,0
232,248,2955,1,2
376,248,3478,5,0
376,152,3827,1,0
424,152,4001,1,0
424,248,4350,1,2
352,120,4873,6,0,B|296:160|232:120,1,120,0|8
240,72,5396,2,0,B|296:112|360:72,1,120,2|4
264,32,6094,5,0
328,96,6443,1,8
232,72,6792,1,12
144,32,7141,5,0
96,40,7315,1,8
56,64,7489,1,0
32,104,7664,1,4
128,120,8013,5,0
176,120,8187,1,0
128,168,8362,1,2
176,168,8536,1,8
256,112,8885,6,0,B|256:184,1,60
336,120,9408,5,0
384,120,9583,1,0
336,168,9757,1,2
384,168,9931,1,8
384,264,10280,5,0
352,304,10455,2,0,B|320:320|288:304,1,60,8|0
264,264,10803,1,0
216,264,10978,1,0
136,312,11327,1,4
232,320,11676,5,0
280,320,11850,2,0,B|312:320|336:288,1,60,2|0
336,248,12199,1,0
384,248,12373,1,0
448,312,12722,5,4
408,336,12896,1,8
360,328,13071,1,12
304,192,13594,5,10
264,160,13769,1,0
304,136,13943,1,2
264,104,14117,1,8
168,104,14466,6,0,B|168:168,1,60
168,208,14815,2,0,B|168:280,1,60,0|8
168,312,15164,1,0
216,312,15338,5,0
272,264,15600,1,8
288,336,15862,1,4
336,336,16036,5,0
392,264,16385,1,0
440,264,16559,2,0,B|488:232|488:152,1,120,0|8
392,160,17257,5,0
352,184,17431,1,2
312,160,17606,1,0
272,136,17780,1,0
232,160,17955,1,2
272,248,18303,5,0
312,280,18478,1,0
272,312,18652,1,0
224,312,18827,2,4,B|168:304|128:240,1,120,8|4
192,176,19524,5,0
232,208,19699,1,8
328,192,20048,1,0
360,224,20222,2,0,B|328:320|264:344|168:320,2,240,2|4|0
336,80,22141,5,0
288,80,22315,1,0
288,128,22489,1,2
240,128,22664,1,8
192,128,22838,5,0
256,56,23187,1,2
320,128,23536,1,12
464,104,24059,5,0
432,64,24234,1,0
400,104,24408,1,0
368,144,24582,1,0
336,184,24757,1,8
304,152,24931,1,4
208,168,25280,5,0
232,208,25455,1,8
272,184,25629,1,4
352,240,25978,5,0
328,280,26152,1,8
288,256,26327,1,4
192,232,26676,5,0
144,232,26850,1,8
160,184,27024,1,2
208,184,27199,2,0,B|208:248|208:248|232:288|272:264|288:208|296:144|296:16,1,360,0|4
248,24,28420,5,0
256,120,28769,1,0
168,80,29117,1,0
192,120,29292,2,4,B|192:88|232:128|232:216,1,120,4|12
296,136,29989,5,0
296,184,30164,1,8
208,136,30513,1,0
208,184,30687,1,2
128,136,31036,1,0
128,184,31210,2,0,B|128:216|160:256,1,60,4|0
184,272,31559,5,0
232,272,31734,1,8
272,248,31908,1,4
200,184,32257,1,8
240,208,32431,1,2
280,184,32606,1,8
304,144,32780,5,0
328,104,32955,1,8
352,144,33129,1,0
376,184,33303,1,2
352,224,33478,1,4
352,320,33827,5,0
304,320,34001,2,0,B|264:304|256:272,1,60
224,312,34350,1,0
200,272,34524,1,8
176,232,34699,1,4
160,88,35222,5,0
192,56,35396,1,8
240,40,35571,2,0,B|272:40|312:64,1,60,2|0
328,96,35920,1,0
344,144,36094,1,4
344,288,36617,5,0
312,248,36792,1,8
264,232,36966,2,0,B|232:232|192:256,1,60,2|0
176,288,37315,1,0
168,336,37489,1,4
208,200,38013,5,0
256,200,38187,1,2
304,200,38362,1,8
280,104,38710,1,0
232,104,38885,1,4
256,8,39234,5,0
208,88,39582,1,4
304,88,39931,1,8
208,184,40280,1,10
304,184,40629,1,14
192,88,41152,5,0
216,128,41327,1,8
304,88,41676,1,0
328,128,41850,1,2
416,88,42199,1,0
432,128,42373,2,0,B|432:168|400:200,1,60,4|0
376,216,42722,5,0
336,240,42896,1,8
296,216,43071,1,4
200,216,43420,1,8
160,240,43594,1,2
120,216,43769,1,8
120,168,43943,5,0
160,136,44117,1,8
200,168,44292,1,0
240,136,44466,1,2
280,168,44641,2,0,B|304:184|344:168,1,60
368,136,44989,1,4
384,88,45164,6,0,B|376:48|344:24,1,60,0|0
336,80,45513,2,0,B|304:88|272:56,1,60,8|0
280,16,45862,2,0,B|248:16|216:32,1,60,6|0
176,112,46385,5,0
208,72,46559,1,8
256,56,46734,2,0,B|288:56|328:80,1,60,2|0
344,112,47082,1,0
352,160,47257,1,4
352,304,47780,6,0,B|312:304|288:272,1,60
296,232,48129,2,0,B|272:208|240:200,1,60,2|0
192,200,48478,1,0
152,232,48652,2,0,B|128:256|144:304,1,60,4|0
160,328,49001,1,0
56,224,49524,5,0
56,128,49873,1,0
136,184,50222,1,0
168,216,50396,1,8
216,216,50571,1,2
248,184,50745,1,4
264,136,50920,6,0,B|304:128|336:152,1,60,0|2
360,168,51269,1,0
384,208,51443,1,8
360,352,51966,5,0
312,336,52141,1,0
272,304,52315,2,0,B|248:280|240:240,1,60,0|0
216,208,52664,1,8
168,224,52838,2,0,B|136:248|128:288,1,60,0|0
128,320,53187,1,4
160,352,53362,5,0
208,336,53536,1,0
248,304,53710,2,0,B|272:280|280:240,1,60,0|0
304,208,54059,1,8
352,224,54234,2,0,B|384:248|392:288,1,60,0|0
392,320,54582,1,4
432,296,54757,5,0
424,248,54931,1,0
408,200,55106,2,0,B|384:168|336:152,1,60,0|0
312,152,55455,1,8
264,152,55629,2,0,B|224:168|192:192,1,60,0|0
176,208,55978,2,0,B|144:272|80:256|48:136,1,180,0|4
144,128,56850,6,0,B|160:96|200:80,1,60
232,72,57199,1,0
280,72,57373,2,0,B|312:80|344:112,1,60
360,136,57722,1,8
312,216,58071,5,0
344,248,58245,1,8
200,216,58769,1,0
168,248,58943,1,2
280,160,59466,5,0
280,112,59641,1,0
232,112,59815,1,2
232,160,59989,1,4
168,88,60338,6,0,B|120:136|128:224,1,120
136,240,60862,2,0,B|176:304|248:312,1,120
312,264,61559,1,0
232,216,61908,5,0
208,176,62082,1,0
232,136,62257,1,2
280,216,62606,5,0
304,176,62780,1,0
280,136,62955,1,2
208,72,63303,1,10
304,72,63652,1,12
