osu file format v5

[General]
AudioFilename: Hare Hare Yukai.mp3
AudioLeadIn: 0
PreviewTime: -1
Countdown: 0
SampleSet: Normal
StackLeniency: 0.2
Mode: 0
LetterboxInBreaks: 1

[Editor]
Bookmarks: 8003
DistanceSpacing: 0.800000011920929
BeatDivisor: 4
GridSize: 8

[Metadata]
Title:Hare Hare Yukai (TV Edit)
Artist:Hirano Aya
Creator:Ace of Trades
Version:Easy
Source:From the Melancholy of Suzumiya Haruhi
Tags:Melancholy Suzumiya Haruhi Hirano Aya Hare Yukai

[Difficulty]
HPDrainRate:1
CircleSize:3
OverallDifficulty:1
SliderMultiplier:1
SliderTickRate:1

[Events]
//Background and Video events
Video,0,"Hare Hare Yukai Dance.avi"
0,0,"the_melancholy_of_haruhi__306_1280.jpg"
//Break Periods
2,19375,22379
2,56177,56565
//Storyboard Layer 0 (Background)
//Storyboard Layer 1 (Fail)
//Storyboard Layer 2 (Pass)
//Storyboard Layer 3 (Foreground)
Sprite,Foreground,Centre,"1.png",320,434 M,0,6617,6966,320,434 F,0,6617,6966,0,1 M,0,6966,7315,320,434,318,268 F,0,6966,7315,1,0 S,0,6966,7315,1,0.1
Sprite,Foreground,Centre,"2.png",317,322 M,0,6269,6617,320,435 F,0,6269,6617,0,1 M,0,6617,6966,320,435,317,269 F,0,6617,6966,1,0 S,0,6617,6966,1,0.1
Sprite,Foreground,Centre,"3.png",319,309 M,0,5920,6269,318,438 F,0,5920,6269,0,1 M,0,6269,6617,318,438,320,266 F,0,6269,6617,1,0 S,0,6269,6617,1,0.1
Sprite,Foreground,Centre,"go.png",320,240 M,0,7268,,320,240 R,0,7268,7442,3.0976,1.040415 S,0,7268,7530,0.1,0.4456 R,0,7442,7530,1.040415,0 F,0,7268,7617,0,1 S,0,7530,7617,0.4456 R,0,7530,7704,0 S,0,7617,7704,0.4456 F,0,7617,7966,1,0 S,0,7704,7966,0.4456,0.7656 R,0,7704,7966,0,-3.2
//Storyboard Sound Samples
//Background Colour Transformations
3,100,163,162,255

[TimingPoints]
2083,348.837209302326,4,1,0,70,1,0
28420,-100,4,1,0,70,0,1
29989,-100,4,1,0,70,0,0
40629,-100,4,1,0,70,0,1
41152,-100,4,1,0,70,0,1
46385,-100,4,1,0,70,0,0
63652,-100,4,1,0,100,0,1

[HitObjects]
176,112,8013,1,0
120,168,8362,1,2
352,120,9408,5,0
288,168,9757,1,2
400,280,10455,6,0,B|352:280|312:232,1,100,8|0
208,296,11327,1,4
88,280,11850,2,0,B|136:280|176:232,1,100,8|0
280,296,12722,2,4,B|320:336|384:304,1,100,4|8
328,176,13594,5,8
256,216,13943,1,2
328,304,14466,5,0
256,344,14815,1,0
256,224,15338,1,0
96,224,16036,1,0
176,312,16559,2,0,B|224:280|224:208,1,100,0|8
224,104,17431,5,0
344,104,17955,1,2
344,224,18478,1,0
344,304,18827,2,4,B|288:296|248:232,1,100
256,40,24408,5,0
336,128,24931,1,4
184,192,25629,1,4
312,288,26327,1,4
192,288,26850,5,0
216,216,27199,2,0,B|216:264|216:264|240:296|280:288|288:240|296:176|296:64,1,300,0|4
264,56,28420,5,0
184,56,28769,1,0
224,168,29292,1,4
368,160,29989,5,0
208,160,30687,1,0
88,160,31210,2,0,B|96:216|152:240,1,100
224,240,31908,1,4
408,160,32780,5,0
248,160,33478,1,0
128,168,34001,2,0,B|152:224|208:224,1,100
208,144,34699,1,4
312,96,35222,5,0
248,40,35571,1,0
136,96,36094,1,4
136,216,36617,5,0
200,168,36966,1,0
312,216,37489,1,4
384,120,38013,5,0
336,56,38362,1,0
232,112,38885,1,0
168,56,39234,1,0
152,136,39583,2,4,B|64:224,1,100,0|8
88,288,40280,2,4,B|176:200,1,100,0|6
88,120,41152,5,0
248,120,41850,1,0
368,120,42373,2,0,B|360:176|312:208,1,100
240,208,43071,1,4
312,24,43943,5,0
240,56,44292,1,0
304,104,44641,2,0,B|256:176|160:160,1,150
120,96,45513,1,8
168,32,45862,1,4
208,144,46385,5,0
264,88,46734,2,0,B|320:72|368:112,1,100
376,144,47257,1,4
392,264,47780,5,0
328,208,48129,2,0,B|272:200|232:248,1,100
224,280,48652,2,0,B|216:344|144:360,1,100
88,264,49524,6,0,B|88:152,1,100
168,160,50222,2,0,B|168:264,1,100
232,216,50920,1,2
352,216,51443,1,8
352,336,51966,5,0
272,336,52315,1,0
232,224,52838,2,0,B|184:256|168:304,1,100,0|4
152,336,53362,5,0
232,336,53711,1,0
272,224,54234,2,0,B|320:256|336:304,1,100,2|4
344,336,54757,5,0
264,336,55106,1,0
224,224,55629,2,0,B|176:256|160:304,1,100,8|4
176,232,58245,5,8
336,232,58943,1,4
256,88,59641,5,2
256,168,59989,1,2
320,208,60338,2,0,B|256:280|192:208,1,150
192,48,61559,1,0
192,208,62257,5,4
344,256,62955,1,6
304,96,63652,1,12
