osu file format v9

[General]
AudioFilename: hare.ogg
AudioLeadIn: 3000
PreviewTime: 29742
Countdown: 0
SampleSet: Soft
StackLeniency: 0.6
Mode: 0
LetterboxInBreaks: 1

[Editor]
Bookmarks: 17096,20672,48056,59044
DistanceSpacing: 0.9
BeatDivisor: 4
GridSize: 4

[Metadata]
Title:Hare Hare Yukai
Artist:Hirano Aya
Creator:MusicBoX
Version:Human
Source:Suzumiya Haruhi no Yuuutsu
Tags:the melancholy of suzumiya

[Difficulty]
HPDrainRate:0
CircleSize:3
OverallDifficulty:0
ApproachRate:0
SliderMultiplier:0.900000005960464
SliderTickRate:1

[Events]
//Background and Video events
0,0,"suzumiya-haruhi-no-yuutsu-haruhi-suzumiya-sword-mistress-wallpaper.jpg"
Video,0,"Hare Hare Yukai.avi"
//Break Periods
2,18779,22360
//Storyboard Layer 0 (Background)
//Storyboard Layer 1 (Fail)
//Storyboard Layer 2 (Pass)
//Storyboard Layer 3 (Foreground)
//Storyboard Sound Samples
//Background Colour Transformations
3,100,0,0,0

[TimingPoints]
440,348.837209302326,4,2,0,80,1,0
29742,-100,4,1,0,60,0,1
60091,-100,4,1,0,50,0,0
61312,-100,4,2,0,80,0,0
61399,-100,4,1,0,50,0,0
63405,-100,4,1,0,60,0,1
63492,-100,4,1,0,60,0,0

[Colours]
Combo1 : 186,117,255
Combo2 : 117,255,152
Combo3 : 117,117,255
Combo4 : 255,117,117
Combo5 : 255,186,117

[HitObjects]
256,192,7416,1,0
256,192,7765,1,8
412,148,8463,1,8
464,84,8812,1,0
384,72,9160,1,8
224,52,9858,1,8
144,64,10207,6,0,B|56:112|64:224,1,180.000001192093,2|0
108,280,11253,1,8
188,296,11602,2,2,B|276:248|268:136,2,180.000001192093,0|2|4
120,156,13695,5,10
256,68,14393,1,2
392,156,15091,2,8,B|468:224,1,90.0000005960464,8|2
392,260,15788,2,0,B|468:328,2,90.0000005960464,0|0|8
256,192,17184,12,4,18579
136,256,24160,6,6,B|339:52,1,270.000001788139,6|2
384,120,25555,2,6,B|180:323,1,270.000001788139
256,192,26951,12,4,29044
172,84,29742,6,0,B|256:28|340:84,1,180.000001192093,4|0
292,152,30788,2,2,B|208:208|124:152,1,180.000001192093
56,108,31835,1,0
96,264,32533,5,8
256,296,33230,1,8
416,264,33928,2,12,B|492:324,2,90.0000005960464
460,108,35323,6,0,B|406:193|306:176,1,180.000001192093
284,100,36369,2,0,B|185:119|165:218,1,180.000001192093
164,300,37416,2,0,B|65:280|45:181,2,180.000001192093
284,308,39335,5,4
356,228,39683,1,8
444,292,40032,1,4
488,192,40381,2,4,B|496:116|424:80,1,135.00000089407,14|0
272,128,41602,5,8
120,72,42300,2,0,B|28:128,1,90.0000005960464,0|8
92,184,42998,2,0,B|148:276,1,90.0000005960464,8|8
76,312,43695,5,4
148,344,44044,1,8
212,296,44393,1,0
284,336,44742,1,8
332,272,45091,1,0
396,316,45440,1,8
448,256,45788,2,0,B|472:156|396:88,1,180.000001192093,0|4
332,48,46835,1,0
256,20,47184,6,0,B|232:120|308:188,1,180.000001192093,0|4
324,264,48230,2,0,B|224:288|156:212,1,180.000001192093
100,160,49277,1,4
100,160,49626,1,8
100,160,49974,1,0
100,160,50323,1,8
156,100,50672,2,8,B|228:156,1,90.0000005960464
292,204,51370,2,8,B|220:260,1,90.0000005960464
256,332,52067,6,6,B|348:320|460:280|460:136|400:64,1,360.000002384186
348,132,53812,1,8
240,252,54509,1,8
256,332,54858,2,6,B|164:320|52:280|52:136|112:64,1,360.000002384186
256,84,57300,6,0,B|324:144,1,90.0000005960464,8|4
256,84,57998,2,0,B|188:144,1,90.0000005960464,8|4
256,192,58695,1,8
232,268,59044,2,0,B|240:308|280:308|288:268,2,90.0000005960464,0|0|8
256,192,60091,12,4,63405
