osu file format v3

[General]
AudioFilename: hare.ogg
AudioLeadIn: 0
AudioHash: 602aefe15ea4daab8c05541173ab52d8
PreviewTime: 29373
SampleSet: Normal CustomSamples: 0
EditorBookmarks: 7396,18559,29722,40885,51699

[Metadata]
Title:Hare Hare Yukai
Artist:Hirano Aya
Creator:Kharl
Version:Hard

[Difficulty]
HPDrainRate:4
CircleSize:6
OverallDifficulty:6
SliderMultiplier: 1.2
SliderTickRate: 2

[Events]
1,0,"Hare Hare Yukai.avi"
3,0,0,0,0

[TimingPoints]
410,348.837209302326

[HitObjects]
152,192,7735,2,0,B|152:192|344:192,1,180
432,192,8607,1,0,
432,192,8782,1,0,
432,288,9130,2,0,B|432:288|248:288,1,180
160,288,10003,1,0,
112,264,10177,6,2,B|112:264|112:161|200:104,1,180
280,72,11049,1,0,
368,96,11398,1,0,
368,96,11572,2,2,B|368:96|462:151|432:264,2,180
344,144,12793,1,4,
216,104,13316,5,0,
112,160,13665,1,0,
144,200,13840,1,0,
248,224,14189,2,0,B|248:224|376:224,1,120
328,160,14799,1,0,
256,160,15061,2,0,B|256:160|152:160,1,90
80,160,15584,1,0,
80,208,15758,2,2,B|80:208|208:208,1,120
248,208,16282,2,2,B|248:208|240:256|192:272|72:272,1,180
56,240,16979,5,4,
24,200,17154,1,0,
40,152,17328,1,0,
72,112,17503,1,0,
120,88,17677,2,2,B|120:88|248:88,1,120
280,120,18200,1,0,
304,168,18375,1,4,
352,184,18549,6,2,B|352:184|352:56,1,120
248,64,19421,1,0,
152,64,19770,1,0,
104,64,19944,2,2,B|104:64|104:192,1,120
224,184,20816,5,0,
328,184,21165,1,0,
328,232,21340,2,0,B|328:232|200:232,1,120
160,232,21863,1,0,
160,232,22037,1,0,
80,184,22386,1,0,
160,144,22561,2,2,B|160:144|173:70|264:64,2,120
264,144,23607,1,0,
312,144,23782,1,0,
312,248,24130,5,4,
264,248,24305,1,0,
216,248,24479,1,0,
168,248,24654,1,2,
80,192,25003,1,0,
128,192,25177,1,0,
176,192,25351,2,2,B|176:192|360:192,1,180
336,144,26049,2,2,B|336:144|320:80|240:56|192:144,1,180
232,168,26747,1,0,
256,192,26921,12,0,27619
328,128,28142,1,6,
256,56,28491,1,6,
184,128,28840,1,2,
232,128,29014,1,6,
120,192,29712,5,0,
120,192,29886,1,0,
216,192,30235,1,0,
216,192,30409,1,0,
320,192,30758,1,0,
320,192,30933,2,2,B|320:192|368:216|400:288,1,120
344,296,31456,1,0,
296,312,31630,2,2,B|296:312|240:304|184:256|168:192,1,180
104,120,32503,5,4,
96,168,32677,2,2,B|96:168|96:224|128:272|152:288,1,120
184,296,33200,2,2,B|184:296|248:312|312:280,1,120
336,248,33723,1,0,
256,192,34072,2,6,B|256:192|256:120,2,60
192,304,34944,5,0,
144,280,35119,1,0,
112,240,35293,2,2,B|112:240|88:168|112:112,1,120
136,80,35816,1,0,
288,56,36340,5,0,
336,80,36515,1,0,
368,120,36689,2,2,B|368:120|392:192|368:248,1,120
344,280,37212,1,0,
216,296,37735,5,0,
168,280,37909,1,0,
120,256,38084,2,0,B|120:256|24:176,1,120
48,128,38607,2,0,B|48:128|152:216,1,120
200,136,39305,5,6,
312,136,39654,5,6,
200,240,40003,5,6,
312,240,40352,5,6,
256,136,40875,5,0,
296,168,41049,2,2,B|296:168|400:248,1,120
392,184,41572,2,2,B|392:184|296:280,1,120
272,232,42096,1,0,
208,160,42444,1,0,
168,192,42618,1,0,
136,232,42793,2,2,B|136:232|160:280|224:312,1,120
256,272,43316,1,0,
296,192,43665,6,0,B|296:192|328:168|336:136,4,60
192,192,44712,2,2,B|192:192|160:168|144:136,1,60
240,192,45235,1,0,
240,192,45584,1,4,
240,296,46107,6,2,B|240:296|112:296,1,120
120,200,46805,1,0,
120,152,46979,1,0,
192,40,47503,2,2,B|192:40|320:40,1,120
296,144,48200,1,0,
328,192,48375,1,0,
256,256,48723,1,0,
120,184,49247,6,4,B|120:184|200:80,2,120
200,240,50293,1,0,
248,264,50468,1,0,
296,264,50642,1,0,
384,184,50991,2,2,B|384:184|382:229|360:264,1,60
456,256,51689,5,0,
480,216,51864,1,0,
432,208,52038,2,0,B|432:208|376:320,1,120
336,272,52561,1,2,
248,320,52910,1,2,
200,320,53084,5,0,
168,280,53258,1,0,
136,240,53433,2,0,B|136:240|64:136,1,120
112,112,53956,2,2,B|112:112|184:216,1,120
216,248,54479,5,0,
264,272,54654,1,0,
312,256,54828,2,0,B|312:256|360:203|312:128,1,120
272,128,55351,2,2,B|272:128|199:128|184:216,2,120
320,144,56223,1,4,
384,216,56572,5,0,
440,136,56921,2,0,B|440:136|440:72,1,60
392,152,57444,1,0,
336,224,57793,1,6,
336,224,57968,1,6,
200,224,58491,5,6,
200,224,58666,1,6,
320,176,59189,5,2,
368,160,59363,1,2,
384,208,59538,1,6,
336,224,59712,1,6,
240,264,60061,6,0,B|240:264|56:264,2,180
280,224,61282,1,2,
216,144,61630,5,0,
200,96,61805,1,0,
168,136,61979,1,6,
192,240,62328,1,0,
144,264,62503,1,0,
192,288,62677,1,6,
264,216,63026,1,2,
336,136,63375,1,6,
