osu file format v4

[General]
AudioFilename: 01_-_god_knows....mp3
AudioLeadIn: 0
AudioHash: 36a9763a53611651b945a09e7f4ec5dd
PreviewTime: 52863
SampleSet: Normal

[Metadata]
Title:God knows...
Artist:Hirano Aya
Creator:Asho
Version:Bold

[Difficulty]
HPDrainRate:3
CircleSize:6
OverallDifficulty:3
SliderMultiplier: 1.1
SliderTickRate: 1

[Events]
2,37839,50200
2,80040,93000
2,159940,173400
3,0,163,162,255

[TimingPoints]
40,400,4,1,1

[HitObjects]
152,160,14440,6,0,B|152:160|258:90|368:168,1,220
256,176,16640,5,0,
260,180,16840,1,0,
360,224,17640,2,0,B|360:224|254:294|144:216,1,220
56,160,20840,6,0,B|56:160|90:53|248:32,1,220
264,152,23040,5,0,
267,157,23240,1,0,
380,87,23640,1,0,
448,184,24040,2,4,B|448:184|414:291|256:320,1,220
152,160,27240,6,2,B|152:160|258:90|368:168,1,220
256,176,29440,5,0,
260,180,29640,1,0,
360,224,30440,2,2,B|360:224|254:294|144:216,1,220
56,160,33640,6,0,B|56:160|90:53|248:32,1,220
264,152,35840,5,0,
267,157,36040,1,0,
380,87,36440,1,2,
448,184,36840,2,4,B|448:184|414:291|256:320,1,220
48,56,51640,5,0,
158,123,52040,1,0,
346,72,52640,1,0,
408,224,53240,2,2,B|408:224|397:332|296:328,1,165
208,328,54240,6,2,B|208:328|92:323|104:208,2,165
256,296,55840,5,0,
256,192,56640,1,0,
128,120,57040,1,2,
132,124,57240,1,2,
248,64,58240,1,0,
360,64,59240,2,2,B|360:64|473:64|472:184,1,165
448,264,60640,5,0,
451,269,60840,1,0,
326,272,61240,1,0,
176,280,61640,2,2,B|176:280|48:256|32:104,1,220
96,48,63440,1,0,
226,48,63840,1,0,
464,56,64440,5,0,
354,123,64840,1,0,
166,72,65440,1,0,
104,224,66040,2,2,B|104:224|115:332|216:328,1,165
304,328,67040,6,2,B|304:328|420:323|408:208,2,165
256,296,68640,5,0,
256,192,69440,1,0,
376,120,69840,1,2,
380,124,70040,1,2,
264,64,71040,1,0,
152,64,72040,2,2,B|152:64|39:64|40:184,1,165
56,336,73440,5,2,
60,340,73640,1,2,
121,228,74040,1,0,
200,168,74440,2,4,B|200:168|255:201|320:160,4,110
80,24,77240,5,2,
80,153,77640,1,2,
80,282,78040,1,2,
144,336,78440,2,2,B|144:336|280:364|349:312|376:288,1,220
401,230,79840,1,6,
360,160,94440,6,0,B|360:160|254:90|144:168,1,220
256,176,96640,5,0,
260,180,96840,1,0,
152,224,97640,2,0,B|152:224|258:294|368:216,1,220
456,160,100840,6,0,B|456:160|422:53|264:32,1,220
248,152,103040,5,0,
252,154,103240,1,0,
132,87,103640,1,0,
64,184,104040,2,4,B|64:184|98:291|256:320,1,220
360,160,107240,6,2,B|360:160|254:90|144:168,1,220
256,176,109440,5,0,
260,180,109640,1,0,
152,224,110440,2,2,B|152:224|258:294|368:216,1,220
456,160,113640,6,0,B|456:160|422:53|264:32,1,220
248,152,115840,5,0,
253,156,116040,1,0,
132,87,116440,1,2,
64,184,116840,2,4,B|64:184|98:291|256:320,1,220
40,56,120040,5,0,
208,56,120840,1,0,
328,56,121440,2,0,B|328:56|320:61|322:50|419:52|463:60|450:132|445:214,1,220
440,240,122440,5,0,
336,240,122840,1,0,
245,240,123240,1,0,
68,193,124040,1,2,
104,120,124440,2,6,B|104:120|106:25|240:40,1,165
344,56,126240,5,0,
348,60,126440,1,0,
453,110,126840,1,4,
354,172,127240,1,4,
352,296,127840,5,2,
356,300,128040,1,2,
258,235,128440,1,4,
158,296,128840,1,4,
256,192,129140,12,4,131240
48,56,131640,5,0,
158,123,132040,1,0,
346,72,132640,1,0,
408,224,133240,2,2,B|408:224|397:332|296:328,1,165
208,328,134240,6,2,B|208:328|92:323|104:208,2,165
256,296,135840,5,0,
256,192,136640,1,0,
128,120,137040,1,2,
132,124,137240,1,2,
248,64,138240,1,0,
360,64,139240,2,2,B|360:64|473:64|472:184,1,165
448,264,140640,5,0,
451,269,140840,1,0,
326,272,141240,1,0,
176,280,141640,2,2,B|176:280|48:256|32:104,1,220
96,48,143440,1,0,
226,48,143840,1,0,
464,56,144440,5,0,
354,123,144840,1,0,
166,72,145440,1,0,
104,224,146040,2,2,B|104:224|115:332|216:328,1,165
304,328,147040,6,2,B|304:328|420:323|408:208,2,165
256,296,148640,5,0,
256,192,149440,1,0,
376,120,149840,1,2,
380,124,150040,1,2,
264,64,151040,1,0,
152,64,152040,2,2,B|152:64|39:64|40:184,1,165
56,336,153440,5,2,
60,340,153640,1,2,
121,228,154040,1,0,
200,168,154440,2,4,B|200:168|255:201|320:160,4,110
80,24,157240,5,2,
80,153,157640,1,2,
80,282,158040,1,2,
144,336,158440,2,2,B|144:336|280:364|349:312|376:288,1,220
401,230,159740,1,6,
32,56,174840,5,0,
123,56,175240,1,4,
398,56,176440,1,0,
488,56,176840,1,4,
304,320,177440,6,2,B|304:320|423:333|416:208,2,165
208,320,179040,2,2,B|208:320|89:333|96:208,2,165
248,272,180640,6,0,B|248:272|152:245|155:192|160:144,1,165
176,104,181440,2,0,B|176:104|265:85|296:192,1,165
296,240,182240,1,2,
395,217,182640,1,0,
421,116,183040,1,0,
328,64,183440,2,6,B|328:64|107:33|72:216,1,330
128,312,185440,5,0,
132,316,185640,1,0,
209,320,186040,2,2,B|209:320|286:328|272:248,3,110
60,136,188240,1,0,
98,171,188440,1,0,
112,120,188640,1,4,
256,192,189240,5,0,
354,123,189640,1,0,
166,72,190240,1,0,
104,224,190840,2,2,B|104:224|115:332|216:328,1,165
304,328,191840,6,2,B|304:328|420:323|408:208,2,165
256,296,193440,5,0,
256,192,194240,1,0,
376,120,194640,1,2,
380,124,194840,1,2,
264,64,195840,1,0,
152,64,196840,2,2,B|152:64|39:64|40:184,1,165
56,336,198240,5,2,
60,340,198440,1,2,
121,228,198840,1,0,
200,168,199240,2,4,B|200:168|255:201|320:160,4,110
256,192,202040,12,4,206040
