osu file format v9

[General]
AudioFilename: God knows.mp3
AudioLeadIn: 1500
PreviewTime: 215264
Countdown: 0
SampleSet: Soft
StackLeniency: 0.5
Mode: 0
LetterboxInBreaks: 1

[Editor]
Bookmarks: 2256,15056,27856,40656,53456,66256,79056,95056,107851,120651,133451,146251,159051,171851,187851,200651,216651,229451,245451,258251,269451
DistanceSpacing: 0.9
BeatDivisor: 4
GridSize: 8

[Metadata]
Title:God Knows...
Artist:Hirano Aya
Creator:impossiblexu
Version:Normal
Source:Suzumiya Haruhi no Yuuutsu
Tags:

[Difficulty]
HPDrainRate:4
CircleSize:4
OverallDifficulty:3
ApproachRate:3
SliderMultiplier:1.1
SliderTickRate:1

[Events]
//Background and Video events
0,0,"BG.jpg"
//Break Periods
2,95296,106456
2,188096,199256
//Storyboard Layer 0 (Background)
//Storyboard Layer 1 (Fail)
//Storyboard Layer 2 (Pass)
//Storyboard Layer 3 (Foreground)
//Storyboard Sound Samples
//Background Colour Transformations
3,100,163,162,255

[TimingPoints]
696,400,4,2,1,70,1,0
2996,-100,4,2,0,70,0,0
3796,-100,4,2,1,70,0,0
4596,-100,4,2,0,70,0,0
5396,-100,4,2,1,70,0,0
6196,-100,4,2,0,70,0,0
6796,-100,4,2,1,70,0,0
7596,-100,4,2,0,70,0,0
8596,-100,4,2,1,70,0,0
9400,-100,4,2,0,70,0,0
10200,-100,4,2,1,70,0,0
11000,-100,4,2,0,70,0,0
14996,-100,4,2,1,70,0,0
15796,-100,4,2,0,70,0,0
16596,-100,4,2,1,70,0,0
17196,-100,4,2,0,70,0,0
18196,-100,4,2,1,70,0,0
18796,-100,4,2,0,70,0,0
19796,-100,4,2,1,70,0,0
20396,-100,4,2,0,70,0,0
21396,-100,4,2,1,70,0,0
22196,-100,4,2,0,70,0,0
22996,-100,4,2,1,70,0,0
23796,-100,4,2,0,70,0,0
24596,-100,4,2,1,70,0,0
25396,-100,4,2,0,70,0,0
26196,-100,4,2,1,70,0,0
28600,-100,4,2,0,70,0,0
31000,-100,4,2,1,70,0,0
31596,-100,4,2,0,70,0,0
34200,-100,4,2,1,70,0,0
35000,-100,4,2,0,70,0,0
37400,-100,4,2,1,70,0,0
37996,-100,4,2,0,70,0,0
40600,-100,4,2,1,70,0,0
41196,-100,4,2,0,70,0,0
43800,-100,4,2,1,70,0,0
44600,-100,4,2,0,70,0,0
47000,-100,4,2,1,70,0,0
47800,-100,4,2,0,70,0,0
50200,-100,4,2,1,70,0,0
51000,-100,4,2,0,70,0,0
51800,-100,4,2,1,70,0,0
52600,-100,4,2,0,70,0,0
53400,-100,4,2,1,70,0,0
54200,-100,4,2,0,70,0,0
56600,-100,4,2,1,70,0,0
57400,-100,4,2,0,70,0,0
59800,-100,4,2,1,70,0,0
60396,-100,4,2,0,70,0,0
61196,-100,4,2,1,70,0,0
62200,-100,4,2,0,70,0,0
63000,-100,4,2,1,70,0,0
63800,-100,4,2,0,70,0,0
65996,-100,4,2,1,70,0,0
67000,-100,4,2,0,70,0,0
67596,-100,4,2,1,70,0,0
68396,-100,4,2,0,70,0,0
69196,-100,4,2,1,70,0,0
69996,-100,4,2,0,70,0,0
70796,-100,4,2,1,70,0,0
71596,-100,4,2,0,70,0,0
72600,-100,4,2,1,70,0,0
73196,-100,4,2,0,70,0,0
74200,-100,4,2,1,70,0,0
75000,-100,4,2,0,70,0,0
75800,-100,4,2,1,70,0,0
76600,-100,4,2,0,70,0,0
77196,-100,4,2,1,70,0,0
77707,-100,4,2,0,70,0,0
78796,-100,4,2,1,70,0,0
79596,-100,4,2,0,70,0,0
80396,-100,4,2,1,70,0,0
81400,-100,4,2,0,70,0,0
81996,-100,4,2,1,70,0,0
84396,-100,4,2,0,70,0,0
85400,-100,4,2,1,70,0,0
86096,-100,4,2,0,70,0,0
87000,-100,4,2,1,70,0,0
87800,-100,4,2,0,70,0,0
88600,-100,4,2,1,70,0,0
89307,-100,4,2,0,70,0,0
90200,-100,4,2,1,70,0,0
91000,-100,4,2,0,70,0,0
91800,-100,4,2,1,70,0,0
92600,-100,4,2,0,70,0,0
93400,-100,4,2,1,70,0,0
94200,-100,4,2,0,70,0,0
107800,-100,4,2,1,70,0,0
108396,-100,4,2,0,70,0,0
109400,-100,4,2,1,70,0,0
109996,-100,4,2,0,70,0,0
111000,-100,4,2,1,70,0,0
111800,-100,4,2,0,70,0,0
112600,-100,4,2,1,70,0,0
113196,-100,4,2,0,70,0,0
114200,-100,4,2,1,70,0,0
115000,-100,4,2,0,70,0,0
115800,-100,4,2,1,70,0,0
116600,-100,4,2,0,70,0,0
120600,-100,4,2,1,70,0,0
121400,-100,4,2,0,70,0,0
123800,-100,4,2,1,70,0,0
124600,-100,4,2,0,70,0,0
127000,-100,4,2,1,70,0,0
127796,-100,4,2,0,70,0,0
130200,-100,4,2,1,70,0,0
131000,-100,4,2,0,70,0,0
131800,-100,4,2,1,70,0,0
132600,-100,4,2,0,70,0,0
133400,-100,4,2,1,70,0,0
134200,-100,4,2,0,70,0,0
136600,-100,4,2,1,70,0,0
137400,-100,4,2,0,70,0,0
139800,-100,4,2,1,70,0,0
140600,-100,4,2,0,70,0,0
143000,-100,4,2,1,70,0,0
143800,-100,4,2,0,70,0,0
146200,-100,4,2,1,70,0,0
147000,-100,4,2,0,70,0,0
149400,-100,4,2,1,70,0,0
150200,-100,4,2,0,70,0,0
152600,-100,4,2,1,70,0,0
153400,-100,4,2,0,70,0,0
155800,-100,4,2,1,70,0,0
157096,-100,4,2,0,70,0,0
158796,-100,4,2,1,70,0,0
159800,-100,4,2,0,70,0,0
160396,-100,4,2,1,70,0,0
161400,-100,4,2,0,70,0,0
161996,-100,4,2,1,70,0,0
163000,-100,4,2,0,70,0,0
163596,-100,4,2,1,70,0,0
164396,-100,4,2,0,70,0,0
165400,-100,4,2,1,70,0,0
165996,-100,4,2,0,70,0,0
167000,-100,4,2,1,70,0,0
167800,-100,4,2,0,70,0,0
168600,-100,4,2,1,70,0,0
169400,-100,4,2,0,70,0,0
169996,-100,4,2,1,70,0,0
171000,-100,4,2,0,70,0,0
171596,-100,4,2,1,70,0,0
172600,-100,4,2,0,70,0,0
173196,-100,4,2,1,70,0,0
174200,-100,4,2,0,70,0,0
174796,-100,4,2,1,70,0,0
175596,-100,4,2,0,70,0,0
176396,-100,4,2,1,70,0,0
177196,-100,4,2,0,70,0,0
178196,-100,4,2,1,70,0,0
178796,-100,4,2,0,70,0,0
179800,-100,4,2,1,70,0,0
180600,-100,4,2,0,70,0,0
181400,-100,4,2,1,70,0,0
181996,-100,4,2,0,70,0,0
183000,-100,4,2,1,70,0,0
183800,-100,4,2,0,70,0,0
184600,-100,4,2,1,70,0,0
185486,-100,4,2,0,70,0,0
186200,-100,4,2,1,70,0,0
187086,-100,4,2,0,70,0,0
200600,-100,4,2,1,70,0,0
201496,-100,4,2,0,70,0,0
202200,-100,4,2,1,70,0,0
203096,-100,4,2,0,70,0,0
203800,-100,4,2,1,70,0,0
204396,-100,4,2,0,70,0,0
205196,-100,4,2,1,70,0,0
206200,-100,4,2,0,70,0,0
207000,-100,4,2,1,70,0,0
207800,-100,4,2,0,70,0,0
208600,-100,4,2,1,70,0,0
209400,-100,4,2,0,70,0,0
210200,-100,4,2,1,70,0,0
211000,-100,4,2,0,70,0,0
211596,-100,4,2,1,70,0,0
212600,-100,4,2,0,70,0,0
213400,-100,4,2,1,70,0,0
213696,-100,4,2,1,45,0,0
214200,-100,4,2,0,45,0,0
215000,-100,4,2,1,58,0,0
215800,-100,4,2,0,70,0,0
216396,-100,4,2,1,70,0,0
216496,-100,4,2,1,70,0,1
217196,-100,4,2,0,70,0,1
217996,-100,4,2,1,70,0,1
219000,-100,4,2,0,70,0,1
219596,-100,4,2,1,70,0,1
220396,-100,4,2,0,70,0,1
221196,-100,4,2,1,70,0,1
221996,-100,4,2,0,70,0,1
223000,-100,4,2,1,70,0,1
223796,-100,4,2,0,70,0,1
224600,-100,4,2,1,70,0,1
225400,-100,4,2,0,70,0,1
226200,-100,4,2,1,70,0,1
226796,-100,4,2,0,70,0,1
227596,-100,4,2,1,70,0,1
228600,-100,4,2,0,70,0,1
229196,-100,4,2,1,70,0,0
229296,-100,4,2,1,70,0,1
230200,-100,4,2,0,70,0,1
230796,-100,4,2,1,70,0,1
231596,-100,4,2,0,70,0,1
232396,-100,4,2,1,70,0,1
233196,-100,4,2,0,70,0,1
233996,-100,4,2,1,70,0,1
234796,-100,4,2,0,70,0,1
235800,-100,4,2,1,70,0,1
236396,-100,4,2,0,70,0,1
237400,-100,4,2,1,70,0,1
238200,-100,4,2,0,70,0,1
239000,-100,4,2,1,70,0,1
239596,-100,4,2,0,70,0,1
240600,-100,4,2,1,70,0,1
241400,-100,4,2,0,70,0,1
242200,-100,4,2,1,70,0,1
243000,-100,4,2,0,70,0,1
243800,-100,4,1,1,45,0,1
244685,-100,4,2,0,70,0,1
245400,-100,4,2,1,70,0,1
245496,-100,4,2,0,70,0,0

[Colours]
Combo1 : 255,255,255
Combo2 : 5,240,5
Combo3 : 5,5,240
Combo4 : 240,5,5
Combo5 : 255,128,0
SliderBorder : 0,0,0

[HitObjects]
107,79,2296,2,0,B|79:132|104:191,1,110,6|8
193,146,3096,2,0,B|173:208|209:256,1,110,2|8
287,196,3896,2,0,B|402:196,1,110,2|8
438,168,4496,1,0
426,119,4696,2,0,B|402:101|403:70,2,55,2|0|8
327,120,5496,5,2
230,139,5896,1,8
245,236,6296,1,2
147,252,6696,1,8
147,252,6896,2,0,B|104:213|110:151,1,110,2|0
119,104,7496,1,8
166,91,7696,2,0,B|227:98|276:54,1,110,2|0
287,106,8296,2,0,B|342:127|394:104,1,110,8|2
453,183,9096,5,8
398,265,9496,1,2
299,261,9896,1,8
299,261,10096,1,0
299,261,10296,2,0,B|266:213|202:205,1,110,2|8
165,295,11096,2,0,B|105:294|68:244,1,110,2|8
48,202,11696,1,0
256,192,11896,12,0,14296
207,92,15096,6,0,B|161:131|167:197,1,110,6|8
175,238,15696,1,0
213,268,15896,2,0,B|327:268,1,110,2|8
400,205,16696,2,0,B|380:149|400:96,1,110,2|8
350,104,17296,2,0,B|296:127|241:106,1,110,2|0
199,130,17896,2,0,B|177:147|189:162|163:174,1,55,8|0
160,221,18296,6,0,B|154:311|252:348,2,165,2|2|8
132,125,19896,1,2
198,51,20296,1,8
243,70,20496,2,0,B|285:106|274:172,1,110,2|0
297,214,21096,1,8
229,286,21496,6,0,L|181:313|107:313,1,110,2|8
85,284,22096,1,0
85,234,22296,1,2
98,135,22696,1,8
182,83,23096,2,0,B|231:117|302:102,1,110,2|8
380,137,23896,2,0,B|331:171|260:156,1,110,2|8
272,208,24496,1,0
246,250,24696,6,0,L|244:265|230:258|230:274|214:266|214:282|198:274|198:290|182:282|182:298|166:290|166:306|150:298|142:314|142:306,1,220,2|2
44,298,25896,1,8
27,200,26296,2,2,B|97:148|92:39,1,165,2|2
237,86,27496,1,8
316,27,27896,6,0,B|259:129|381:129|304:242,1,220,6|2
230,293,29096,1,8
133,269,29496,2,0,B|92:234|107:159,1,110,0|8
128,123,30096,1,0
177,128,30296,2,0,B|291:128,1,110,2|8
368,184,31096,6,0,B|288:217|261:323,2,165,2|2|8
357,85,32696,1,0
259,103,33096,2,0,B|201:103,2,55,8|0|2
273,200,33896,1,8
177,225,34296,6,0,B|142:272|70:276,2,110,2|8|2
118,144,35496,1,8
184,70,35896,2,0,B|241:85|291:52,1,110,0|8
312,97,36496,2,0,B|356:128|417:113,1,110,2|0
455,145,37096,2,0,B|461:172|455:202,1,55,8|0
414,229,37496,6,0,B|371:300|327:247|270:313,2,165,2|2|8
383,189,38896,1,0
333,188,39096,2,0,B|255:224|164:189,2,165,0|2|8
249,135,40696,6,0,B|276:83|247:25,1,110,6|8
215,65,41296,2,0,L|146:90|45:90,1,165,2|8
91,181,42296,2,0,B|67:231|86:293,1,110,0|8
126,315,42896,1,0
174,307,43096,1,2
236,230,43496,1,8
196,139,43896,6,0,B|191:74|248:38,2,110,2|8|2
293,119,45096,1,8
327,210,45496,2,0,B|474:289,2,165,0|2|8
293,246,46896,1,0
243,239,47096,6,0,B|194:269|129:257,1,110,2|8
161,162,47896,2,0,B|74:161|25:64,1,165,2|0
34,25,48696,1,0
129,50,49096,1,8
191,127,49496,1,2
175,224,49896,1,8
94,281,50296,6,2,B|144:347|246:338,1,165
310,268,51296,2,0,B|378:268,2,55,2|8|0
282,227,51896,2,0,B|254:172|279:110,1,110,2|8
194,177,52696,2,0,B|222:122|197:60,1,110,2|8
107,36,53496,5,6
34,103,53896,1,8
34,103,54096,1,0
34,103,54296,1,2
77,191,54696,1,0
77,191,54896,2,0,B|135:252|107:352,1,165,2|8
194,296,55896,2,0,B|232:340|303:335,1,110,2|8
368,271,56696,6,0,B|425:271,2,55,2|0|8
390,174,57496,2,0,B|352:132|355:72,1,110,2|8
312,99,58096,2,0,B|252:141|151:134,1,165,2|8
73,192,59096,2,0,B|47:241|71:298,1,110,2|8
115,319,59696,1,0
163,309,59896,6,0,B|209:343|276:334,1,110,2|8
312,314,60496,1,2
392,264,60896,1,0
392,264,61096,1,8
392,264,61296,2,0,B|401:174|338:199|347:95,1,165,2|8
305,81,62096,1,0
255,87,62296,2,0,B|255:29,2,55,2|0|8
150,101,63096,6,2,B|104:74|52:116|65:173|112:188,1,165
207,200,64096,2,0,B|236:208|264:197,2,55,0|8|0
173,236,64696,2,0,B|174:291|125:331,1,110,4|8
33,293,65496,1,0
33,293,65696,1,2
64,199,66096,6,0,B|111:134|84:32,1,165,6|8
178,76,67096,2,0,B|249:76,2,55,2|0|8
158,121,67696,2,0,B|127:194|191:191|149:285,1,165,6|8
200,277,68496,2,0,B|262:328|366:314,1,165,2|8
391,280,69296,6,0,B|391:157,1,110,6|0
364,127,69896,1,8
314,121,70096,2,0,B|197:121,1,110,2|0
157,139,70696,1,8
152,188,70896,2,0,B|174:241|149:300,1,110,6|8
65,245,71696,2,0,B|41:190|63:137,1,110,2|0
102,106,72296,2,0,B|167:106,1,55,8|0
145,154,72696,6,0,B|204:209|303:197,2,165,6|2|8
234,110,74296,2,0,B|348:110,1,110,6|8
418,175,75096,2,0,B|300:175,1,110,2|8
357,261,75896,6,0,B|333:314|259:323,1,110,6|8
171,329,76696,2,0,B|171:383,2,55,2|0|8
121,322,77296,2,2,B|74:284|80:211,2,110,2|2|8
148,280,78296,2,0,B|267:280,1,110,2|8
284,238,78896,6,0,B|339:175|325:80,1,165,6|8
283,57,79696,2,0,B|224:73|177:42,1,110,2|0
128,48,80296,1,8
95,85,80496,2,0,L|50:145|51:239,2,165,6|8|0
141,102,81896,1,8
146,151,82096,5,6
97,237,82496,1,0
97,236,82696,2,0,B|160:289|262:263,1,165,8|0
301,275,83496,1,8
328,234,83696,2,0,B|328:102,2,110,6|0|2
237,194,84896,2,0,B|181:194,2,55,0|8|0
221,147,85496,6,0,B|212:87|257:38,1,110,6|8
300,43,86096,1,0
314,90,86296,2,0,B|358:125|427:109,1,110,2|8
447,151,86896,1,0
429,197,87096,6,0,B|429:262,1,55,6|0
429,301,87496,1,8
330,302,87896,2,0,B|330:237,1,55,2|0
330,198,88296,1,8
253,135,88696,6,2,B|186:176|159:125|87:171,2,165,6|2|8
168,83,90296,2,0,B|106:71|86:9,1,110,4|8
35,99,91096,2,0,B|40:141|12:179,2,82.5,2|0|2
79,129,91896,6,0,B|146:129,2,55,6|0|8
121,218,92696,2,0,B|182:218,2,55,2|0|8
177,299,93496,2,0,B|209:345|277:349,1,110,2|8
318,261,94296,2,0,B|372:287|433:261,1,110,2|8
372,179,95096,1,4
224,112,107896,6,0,B|154:162|213:201|129:252,2,165,6|2|8
284,189,109496,2,0,B|359:143|300:104|370:54,2,165,2|2|8
224,268,111096,6,0,B|224:379,1,110,2|8
140,324,111896,2,0,B|140:199,1,110,2|8
165,171,112496,1,0
214,180,112696,2,0,B|299:201|373:145,1,165,2|2
291,87,113696,2,2,B|238:85|248:40|194:40,1,110
194,89,114296,6,0,B|138:116|137:190,1,110,2|8
181,266,115096,2,0,B|171:294|181:327,2,55,2|0|8
278,246,115896,2,0,L|329:266|331:262|384:279,1,110,2|8
340,186,116696,2,0,L|293:166|290:170|241:145,1,110,2|8
193,158,117296,1,0
256,192,117496,12,0,119896
179,60,120696,6,0,B|131:100|143:176,1,110,6|8
181,249,121496,1,2
279,262,121896,1,8
361,207,122296,2,0,B|473:207,1,110,0|8
418,124,123096,2,0,B|306:124,1,110,2|8
265,149,123696,1,0
218,133,123896,5,2
121,157,124296,1,8
180,235,124696,2,0,B|134:267|72:255,1,110,2|8
162,301,125496,2,0,B|208:333|270:321,1,110,0|8
344,259,126296,2,0,B|298:227|239:238,1,110,2|8
289,152,127096,5,2
219,81,127496,2,0,B|219:20,1,55,8|0
170,18,127896,2,0,B|130:54|56:47,1,110,2|8
35,141,128696,2,0,B|19:206|69:243,3,110,0|8|2|8
122,159,130296,6,0,B|191:190|294:165,1,165,2|0
321,199,131096,2,0,B|303:257|340:306,1,110,2|8
258,241,131896,2,0,B|221:288|147:284,1,110,0|8
111,288,132496,1,0
68,262,132696,2,0,B|65:231|45:212,2,55,2|0|8
130,184,133496,6,0,B|227:119,1,110,6|8
320,128,134296,1,2
405,77,134696,1,8
436,170,135096,2,0,B|369:219|380:319,1,165,0|0
336,292,135896,2,0,B|219:292,1,110,2|8
136,249,136696,5,2
60,184,137096,1,8
147,137,137496,1,2
223,200,137896,1,8
315,163,138296,2,0,B|356:206|426:196,1,110,0|8
395,100,139096,2,0,B|313:85|348:39|255:20,1,165,2|0
205,23,139896,5,2
153,107,140296,1,8
215,183,140696,2,0,B|250:229|232:291,1,110,2|8
308,222,141496,2,0,B|360:249|420:230,1,110,0|8
423,182,142096,2,0,B|364:189|311:162,1,110,2|0
328,116,142696,1,8
250,54,143096,6,0,B|164:67|188:116|89:131,1,165,2|0
64,155,143896,2,0,B|63:266,1,110,2|8
158,237,144696,1,2
257,237,145096,1,8
209,150,145496,1,2
307,151,145896,1,8
359,233,146296,6,0,B|388:286|360:343,1,110,6|8
313,347,146896,1,0
275,315,147096,2,0,B|162:314,1,110,2|8
118,296,147696,1,0
95,251,147896,2,0,B|61:172|111:80,2,165,2|2|8
164,180,149496,6,0,B|236:180,2,55,2|0|8
232,251,150296,2,0,B|273:291|352:289,1,110,2|8
377,268,150896,2,0,B|405:215|391:158,1,110,2|0
354,127,151496,1,8
261,162,151896,2,0,B|146:162,2,110,2|8|2
244,259,153096,5,8
157,306,153496,1,2
117,215,153896,1,8
204,168,154296,2,0,L|257:109|256:15,2,165,2|2|8
301,186,155896,6,2,B|284:237|319:273|374:269|388:207,2,165,2|2|8
209,224,157496,2,0,B|87:224,1,110,4|8
34,149,158296,1,0
34,149,158496,1,2
99,74,158896,6,0,B|142:106|207:94,1,110,6|0
241,127,159496,1,8
211,221,159896,2,0,B|182:264|194:326,1,110,2|8
237,350,160496,2,0,B|289:332|351:349,1,110,6|0
392,331,161096,1,8
374,233,161496,2,0,B|374:147|454:90,2,165,2|6|8
299,167,163096,6,0,B|239:167,2,55,2|0|8
286,119,163696,2,0,B|222:101|202:32,1,110,6|8
111,70,164496,2,0,B|173:87|188:140,1,110,2|0
145,165,165096,2,0,B|145:226,1,55,8|0
192,234,165496,6,0,B|266:275|276:377,2,165,6|2|8
180,135,167096,1,6
254,69,167496,1,8
349,93,167896,1,2
381,186,168296,1,8
306,250,168696,6,0,B|261:289|267:354,1,110,6|8
174,311,169496,1,2
138,276,169696,2,0,B|82:276,1,55,0|8
68,228,170096,2,2,B|54:170|102:116,1,110
127,161,170696,2,0,B|242:161,1,110,8|0
286,161,171296,1,2
247,252,171696,6,0,B|314:290|410:270,1,165,6|8
448,243,172496,1,0
421,201,172696,2,0,B|421:140,2,55,2|0|8
373,186,173296,2,0,B|220:196|257:109|106:110,1,275,6|2
39,173,174696,5,8
39,173,174896,1,6
49,271,175296,1,0
49,271,175496,1,8
49,271,175696,1,2
147,263,176096,2,0,B|177:271|182:257|206:267,1,55,0|8
241,293,176496,2,0,B|280:333|349:325,1,110,6|8
405,249,177296,1,2
372,155,177696,2,0,B|405:110,2,55,0|8|0
340,116,178296,6,0,B|283:138|219:107,1,110,6|8
187,132,178896,2,0,B|141:169|69:158,1,110,2|0
60,203,179496,1,8
148,246,179896,2,0,B|122:297|142:354,1,110,6|8
240,351,180696,2,0,B|259:295|233:244,1,110,2|8
194,153,181496,6,0,B|194:81,2,55,6|0|8
239,132,182096,2,0,B|282:166|349:156,1,110,2|0
387,179,182696,2,0,B|387:238,1,55,8|0
352,269,183096,1,4
256,244,183496,2,0,B|144:244,1,110,8|2
60,193,184296,1,8
97,101,184696,6,2,L|189:128|203:88|305:115,1,220,6|2
343,186,185896,1,8
322,282,186296,2,2,B|228:348|104:320,1,220,2|2
55,240,187496,1,8
112,159,187896,1,4
182,79,200696,6,2,B|88:79|23:180|81:285|193:287,1,330,6|2
181,182,202296,2,2,L|278:232|379:186|400:73,1,330,2|2
312,125,203896,6,0,B|258:97|253:34,1,110,2|8
218,72,204496,2,0,B|189:27|114:29,1,110,2|0
76,48,205096,1,8
65,95,205296,2,0,B|27:167|80:179|38:258,1,165,2|8
92,338,206296,1,2
189,319,206696,1,8
191,220,207096,6,0,B|191:107,1,110,2|8
274,164,207896,2,0,B|389:164,1,110,2|8
326,244,208696,2,0,B|301:293|323:352,1,110,4|8
235,302,209496,1,2
136,302,209896,1,8
77,221,210296,6,0,B|92:161|62:107,1,110,4|8
116,28,211096,1,2
163,13,211296,1,0
210,35,211496,1,8
215,84,211696,2,2,B|195:139|219:196,1,110,2|0
262,171,212296,2,0,B|325:171,1,55,8|0
349,208,212696,2,0,B|328:291|228:326,1,165,2|0
191,306,213496,5,4
108,251,213896,2,0,B|109:281|69:296|32:284|31:244,1,110,8|2
71,220,214496,2,0,B|70:84,1,110,2|0
71,60,215096,1,4
169,60,215496,2,0,B|191:84|232:85,2,55,8|0|0
165,109,216096,2,0,B|140:161|176:164|153:224,2,110,2|6|0
213,98,217096,5,8
244,136,217296,2,0,B|302:185|422:166,1,165,2|8
384,215,218096,2,0,B|406:266|384:331,1,110,6|0
336,311,218696,1,8
243,275,219096,2,0,B|160:311|66:273,1,165,2|6
51,184,220096,6,0,B|51:119,2,55,0|8|2
148,168,220896,2,0,B|148:231,2,55,0|8|6
205,87,221696,1,8
303,95,222096,1,2
361,175,222496,1,0
382,219,222696,2,0,B|365:241|365:269,1,55,8|0
326,301,223096,6,0,B|240:330|152:286,1,165,6|0
126,261,223896,2,0,B|141:202|98:209|110:144,1,110,2|8
193,102,224696,2,0,L|233:141|305:144,1,110,6|8
331,54,225496,2,0,L|385:56|425:95,1,110,2|8
398,190,226296,6,0,B|345:258|368:360,2,165,6|2|8
365,152,227696,2,0,B|241:152,1,110,6|0
220,187,228296,2,0,B|209:213|214:242,1,55,8|0
165,228,228696,2,0,B|110:202|102:135,1,110,2|8
122,97,229296,6,0,B|196:113|206:60|303:77,1,165,6|8
357,139,230296,2,0,B|416:160,2,55,2|0|8
308,151,230896,2,0,B|237:195|230:299,1,165,6|8
267,323,231696,2,0,B|206:378|96:358,1,165,2|8
65,342,232496,5,6
35,247,232896,1,0
51,200,233096,1,8
98,186,233296,2,0,B|222:187,1,110,2|0
247,157,233896,1,8
294,142,234096,2,0,B|425:141,1,110,6|8
422,238,234896,1,2
352,308,235296,2,2,B|299:293|317:263|260:249,1,110,2|0
215,231,235896,6,0,B|193:174|229:114,1,110,6|8
173,127,236496,2,0,B|177:68|136:28,1,110,2|0
86,34,237096,1,8
55,73,237296,1,0
68,120,237496,2,0,L|75:221|58:223|74:331,1,220,6|2
167,353,238696,1,8
249,298,239096,6,0,B|323:338|430:308,1,165,6|2
461,228,240096,1,0
451,179,240296,1,8
411,149,240496,1,0
362,158,240696,2,0,B|316:189|252:174,1,110,4|8
222,81,241496,2,0,B|156:114|135:67|57:106,1,165,2|2
36,146,242296,5,4
49,244,242696,1,8
147,257,243096,2,0,B|180:304|257:298,1,110,2|8
291,284,243696,1,0
323,247,243896,2,0,L|323:180|329:181|331:114|338:115|338:34,1,220,2|2
239,34,245096,1,8
195,122,245496,1,4
