osu file format v9

[General]
AudioFilename: God knows.mp3
AudioLeadIn: 1500
PreviewTime: 215264
Countdown: 0
SampleSet: Soft
StackLeniency: 0.5
Mode: 0
LetterboxInBreaks: 1

[Editor]
Bookmarks: 2256,15056,27856,40656,53456,66256,79056,95056,107851,120651,133451,146251,159051,171851,187851,200651,216651,229451,245451,258251,269451
DistanceSpacing: 0.9
BeatDivisor: 2
GridSize: 8

[Metadata]
Title:God Knows...
Artist:Hirano Aya
Creator:impossiblexu
Version:Easy
Source:Suzumiya Haruhi no Yuuutsu
Tags:

[Difficulty]
HPDrainRate:2
CircleSize:3
OverallDifficulty:2
ApproachRate:2
SliderMultiplier:0.8
SliderTickRate:1

[Events]
//Background and Video events
0,0,"BG.jpg"
//Break Periods
2,15296,26336
2,95296,106336
2,188096,199136
//Storyboard Layer 0 (Background)
//Storyboard Layer 1 (Fail)
//Storyboard Layer 2 (Pass)
//Storyboard Layer 3 (Foreground)
//Storyboard Sound Samples
//Background Colour Transformations
3,100,163,162,255

[TimingPoints]
696,400,4,2,0,70,1,0
62896,-100,4,2,1,70,0,0
64496,-100,4,2,0,70,0,0
93296,-100,4,1,0,45,0,0
94896,-100,4,2,0,70,0,0
155696,-100,4,2,1,70,0,0
157296,-100,4,2,0,70,0,0
213696,-100,4,2,1,45,0,0
214506,-100,4,2,0,45,0,0
215296,-100,4,2,0,58,0,0
216296,-100,4,2,0,70,0,0
216596,-100,4,2,0,70,0,1
243696,-100,4,1,0,55,0,1
245296,-100,4,2,0,70,0,1
245496,-100,4,2,0,70,0,0

[Colours]
Combo1 : 255,255,255
Combo2 : 5,240,5
Combo3 : 5,5,240
Combo4 : 240,5,5
Combo5 : 255,128,0
SliderBorder : 0,0,0

[HitObjects]
66,132,2296,2,0,B|40:215|99:287,2,160,4|8|2
112,76,4296,1,0
182,90,4696,2,0,B|217:117|266:101,1,80,8|0
255,174,5496,6,0,B|318:214|270:254|336:309,1,160,2|8
402,330,6696,1,0
464,294,7096,2,0,B|443:254|463:216,1,80,2|0
391,205,7896,2,0,B|417:172|402:127,1,80,8|0
450,75,8696,5,2
315,24,9496,1,8
193,101,10296,1,2
320,167,11096,1,8
256,192,11896,12,4,15096
125,89,27896,6,0,B|96:121|99:162,1,80,4|0
169,147,28696,2,0,B|156:234|219:301,1,160,8|0
276,333,29896,1,0
343,308,30296,2,0,B|382:323|382:295|420:310,1,80,8|0
437,240,31096,6,0,B|411:163|454:80,2,160,2|8|0
369,213,33096,1,0
302,241,33496,2,0,B|267:263|222:248,1,80,8|0
256,184,34296,6,0,B|186:149|168:197|92:161,1,160,2|8
56,107,35496,1,0
105,55,35896,2,0,B|187:24,1,80
189,98,36696,2,0,B|280:104,1,80,8|0
237,168,37496,6,0,B|192:239|221:324,1,160,2|8
288,345,38696,1,0
341,296,39096,2,0,L|389:239|381:232|433:167,1,160,0|8
398,107,40296,1,0
326,100,40696,6,0,B|302:137|251:135,1,80,4|0
194,98,41496,2,0,B|144:98|123:136,1,80,8|0
186,170,42296,2,0,B|251:280,2,120
123,205,43896,6,0,B|89:230|42:224,1,80,2|0
90,282,44696,2,0,B|126:258|172:266,1,80,8|0
143,333,45496,2,0,B|272:355|382:299,1,240
326,249,47096,6,0,B|288:182|346:159|301:82,1,160,2|8
241,64,48296,1,0
181,104,48696,2,0,B|173:165|121:206,2,120
220,164,50296,6,0,B|228:225|280:266,2,120,2|0|0
161,206,51896,2,0,B|161:295,1,80,2|0
94,259,52696,2,0,B|94:347,2,80,8|0|4
45,205,53896,5,0
87,146,54296,2,0,B|137:105|142:29,2,120,8|2|0
158,156,55896,2,0,B|188:185|241:173,1,80,8|0
246,104,56696,6,0,B|321:90|326:141|413:126,1,160,2|8
455,175,57896,2,0,B|469:260|413:334,1,160,2|0
360,284,59096,2,0,B|263:284,2,80,8|0|2
328,143,60696,5,8
184,139,61496,2,0,B|167:220|81:265,1,160,2|8
32,215,62696,1,0
63,150,63096,6,2,B|95:88|67:27,2,120
130,124,64696,2,0,B|174:140|220:116,1,80,2|0
228,190,65496,2,0,B|286:196|287:151|358:158,2,120,8|4|0
176,240,67096,6,0,B|159:278|174:319,1,80,8|0
239,283,67896,2,0,B|404:283,1,160,2|8
451,233,69096,1,0
408,174,69496,6,0,B|360:107|382:17,2,160,2|8|2
335,176,71496,1,0
281,224,71896,2,0,B|256:261|204:259,1,80,8|0
212,187,72696,6,0,L|159:187|150:175|92:175,2,120,2|2|0
203,115,74296,2,0,B|198:70|243:35,1,80,2|0
275,102,75096,2,0,B|303:134|351:133,1,80,8|0
298,186,75896,6,0,B|237:230|278:272|195:311,1,160,2|8
185,236,77096,2,0,B|116:281|27:266,1,160,2|0
27,194,78296,2,0,B|86:176|109:90,2,120,8|4|0
47,262,79896,5,8
118,255,80296,1,0
166,308,80696,2,0,B|241:341|336:302,1,160,2|8
364,249,81896,2,0,B|337:216|359:203|331:174,1,80,0|2
268,145,82696,5,0
197,160,83096,2,0,B|167:216|82:226,2,120,8|2|0
128,138,84696,2,0,B|118:98|146:57,1,80,8|0
198,108,85496,6,0,L|274:137|360:132,1,160,2|8
415,166,86696,1,0
423,237,87096,2,0,B|389:267|388:309,1,80,2|0
319,284,87896,2,0,B|327:240|358:209,1,80,8|0
282,206,88696,6,0,B|222:192|251:151|171:143,2,120,2|2|0
275,134,90296,1,2
338,100,90696,1,0
386,153,91096,2,0,B|419:182|469:172,1,80,8|0
427,237,91896,6,0,B|427:334,1,80,4|0
362,284,92696,2,0,B|362:186,1,80,8|0
295,230,93496,2,0,B|197:295|45:264,1,240
28,204,95096,1,4
157,70,107896,6,0,B|135:107|157:146,1,80,4|0
218,109,108696,2,0,B|299:109,1,80,8|0
361,142,109496,1,2
383,210,109896,1,0
331,259,110296,1,8
271,218,110696,1,0
289,149,111096,6,0,L|236:127|240:117|194:95,2,120,2|0|0
296,77,112696,2,0,B|329:49|377:54,1,80,2|0
357,124,113496,1,8
426,142,113896,1,0
460,205,114296,6,0,B|405:270|418:354,1,160,2|8
348,342,115496,1,0
313,279,115896,2,0,B|226:270|160:315,1,160,2|8
89,302,117096,1,0
256,192,117496,12,0,119896
179,109,120696,6,0,B|151:143|161:191,2,80,4|0|8
229,159,121896,1,0
299,145,122296,2,0,B|366:190|459:174,1,160,0|8
477,242,123496,1,0
423,290,123896,6,0,B|384:316|386:363,1,80,2|0
347,295,124696,2,0,B|257:314|191:263,1,160,8|0
154,206,125896,1,0
192,144,126296,2,0,B|213:104|191:65,1,80,8|0
264,73,127096,6,0,L|338:103|421:103,1,160,2|8
461,160,128296,1,0
419,219,128696,2,0,B|396:254|409:302,1,80
344,331,129496,1,8
282,293,129896,1,0
301,223,130296,6,0,B|279:167|217:141,2,120,2|0|0
346,166,131896,2,2,B|430:166,1,80,2|0
389,104,132696,2,0,B|389:21,1,80,8|0
319,41,133496,6,0,B|284:66|241:53,1,80,4|0
174,76,134296,1,8
183,147,134696,1,0
251,169,135096,2,0,B|297:235|273:330,1,160,0|8
209,352,136296,1,0
155,304,136696,6,0,B|73:287,1,80,2|0
115,227,137496,2,0,B|28:207,1,80,8|0
76,148,138296,1,0
70,76,138696,1,0
132,40,139096,1,8
195,74,139496,1,0
192,145,139896,6,0,B|223:176|281:172,1,80,2|0
309,229,140696,2,0,B|269:244|219:219,1,80,8|0
167,259,141496,2,0,B|234:305|334:293,1,160,0|8
391,287,142696,1,0
426,224,143096,6,0,L|411:167|427:104,2,120,2|2|0
355,206,144696,2,0,B|314:224|272:206,3,80,2|0|8|0
240,146,146296,6,0,B|161:146,1,80,4|0
93,172,147096,2,0,B|55:227|73:300,2,120,8|2|0
54,110,148696,1,8
102,57,149096,1,0
168,83,149496,6,0,B|206:103|253:87,1,80,2|0
226,158,150296,2,0,B|275:194|299:157|356:191,2,120,8|2|0
155,172,151896,1,8
135,241,152296,1,0
190,287,152696,6,0,B|237:278|265:313,1,80,2|0
281,240,153496,2,0,B|346:291|433:276,2,160,8|2|8
220,200,155496,1,0
253,136,155896,6,2,B|253:9,2,120,2|2|2
193,95,157496,2,0,B|149:95|119:126,1,80,2|0
176,170,158296,2,0,B|125:206|118:274,2,120,8|4|0
207,234,159896,6,0,B|243:261|294:249,1,80,8|0
259,182,160696,2,0,B|273:98|367:64,1,160,2|8
430,72,161896,1,0
458,137,162296,5,2
411,191,162696,2,0,B|379:220|385:267,2,80,0|8|0
339,186,163896,2,0,B|282:248|180:232,2,160,2|8|2
326,114,165896,5,0
254,114,166296,2,0,B|225:147|177:132,1,80,8|0
119,170,167096,2,0,B|56:226|91:330,2,160,2|8|2
83,107,169096,5,0
134,54,169496,2,0,B|197:78|262:47,1,120,8|2
359,62,170696,1,0
402,119,171096,2,0,B|365:171|383:240,2,120,8|4|0
474,119,172696,5,8
493,188,173096,1,0
454,248,173496,2,0,B|445:291|464:334,1,80,2|0
387,300,174296,2,0,B|348:317|304:301,1,80,8|0
265,244,175096,6,0,B|242:159|153:132,2,160,2|8|2
327,208,177096,1,0
313,137,177496,2,0,B|267:129|252:83,1,80,8|0
182,97,178296,6,0,B|124:115|118:75|49:104,2,120,2|2|0
141,156,179896,1,2
121,225,180296,1,0
190,242,180696,1,8
171,311,181096,1,0
242,322,181496,6,0,B|315:361|408:339,2,160,2|8|4
287,265,183496,1,0
264,196,183896,2,0,B|243:160|265:118,1,80,8|0
194,136,184696,6,0,B|171:78|207:19,2,120,2|2|8
124,115,186296,2,0,B|147:173|111:232,2,120,2|2|8
59,147,187896,1,4
192,77,200696,6,2,B|125:70|70:147|116:231|206:226,1,240,4|0
186,151,202296,2,0,B|314:139|280:221|429:209,1,240,2|0
368,271,203896,6,0,B|368:366,1,80,2|0
303,319,204696,2,0,B|303:222,1,80,8|0
236,265,205496,2,0,B|182:295|109:281,2,120,2|2|0
183,215,207096,5,4
185,143,207496,1,0
250,112,207896,2,0,B|291:130|330:109,1,80,8|0
397,126,208696,1,2
418,194,209096,2,0,B|391:227|402:274,2,80,0|8|0
347,208,210296,6,0,B|319:242|333:287,1,80,2|0
260,274,211096,2,0,B|215:309|194:272|139:308,2,120,8|2|0
202,229,212696,1,8
222,160,213096,1,0
293,157,213496,5,4
333,216,213896,2,2,B|379:261|461:245,2,120,2|2|4
387,169,215496,5,0
369,99,215896,2,0,B|307:116|252:87,1,120,2|4
145,97,217096,5,0
86,139,217496,2,0,B|100:183|72:217,2,80,8|0|2
145,180,218696,1,0
216,173,219096,2,0,B|287:215|375:198,1,160,8|2
437,225,220296,5,0
416,293,220696,2,0,B|388:321|392:366,1,80,8|0
334,323,221496,2,0,L|252:310|197:253|98:239,1,240,2|0
62,198,223096,6,0,B|44:162|56:119,1,80,4|0
119,152,223896,2,0,B|116:106|149:72,1,80,8|0
190,132,224696,2,0,B|269:165|346:129,2,160,2|8|2
129,171,226696,5,0
159,236,227096,2,0,B|213:267|172:297|238:331,2,120,8|2|0
220,199,228696,6,0,B|274:230|233:260|299:294,2,120,8|4|0
174,143,230296,2,0,B|192:102|172:62,1,80,8|0
237,98,231096,2,0,B|215:59|240:10,1,80,2|0
299,56,231896,2,0,B|468:55,2,160,8|2|8
248,108,233896,5,0
292,164,234296,2,0,B|316:202|300:244,1,80,2|0
248,289,235096,1,8
180,264,235496,1,0
190,192,235896,6,0,B|162:136|88:122,2,120,4|2|0
212,123,237496,2,0,B|293:123,1,80,2|0
331,62,238296,2,0,B|416:63,1,80,8|0
463,111,239096,6,0,B|428:160|441:236,2,120,2|2|0
393,130,240696,2,0,B|311:130,1,80,2|0
289,197,241496,2,0,B|258:228|266:276,1,80,8|0
198,296,242296,5,4
135,260,242696,1,0
156,191,243096,2,0,B|156:108,1,80,8|0
225,130,243896,2,2,L|304:139|306:132|375:144|378:137|453:151,1,240,2|2
479,217,245496,1,4
