osu file format v12

[General]
AudioFilename: First Good Bye.mp3
AudioLeadIn: 1500
PreviewTime: 64844
Countdown: 0
SampleSet: Soft
StackLeniency: 0.7
Mode: 3
LetterboxInBreaks: 0
SpecialStyle: 0
WidescreenStoryboard: 0

[Editor]
DistanceSpacing: 0.6
BeatDivisor: 4
GridSize: 8

[Metadata]
Title:First Good Bye
TitleUnicode:First Good Bye
Artist:Hirano Aya
ArtistUnicode:Hirano Aya
Creator:indyinyou
Version:Pro Drum
Source:
Tags:The Melancholy of Haruhi Suzumiya
BeatmapID:268284
BeatmapSetID:95210

[Difficulty]
HPDrainRate:8
CircleSize:7
OverallDifficulty:8
ApproachRate:5
SliderMultiplier:1.4
SliderTickRate:1

[Events]
//Background and Video events
0,0,"haruhibg.jpg",0,0
//Break Periods
2,213040,223640
//Storyboard Layer 0 (Background)
//Storyboard Layer 1 (Fail)
//Storyboard Layer 2 (Pass)
//Storyboard Layer 3 (Foreground)
//Storyboard Sound Samples
//Background Colour Transformations
3,100,163,162,255

[TimingPoints]
841,333.333333333333,4,2,1,75,1,0
6080,-100,4,3,1,75,0,0
6247,-100,4,2,1,75,0,0
11414,-100,4,3,1,75,0,0
11580,-100,4,2,1,75,0,0
22090,-100,4,3,1,75,0,0
22257,-100,4,2,1,75,0,0
32757,-100,4,3,1,75,0,0
32924,-100,4,2,1,75,0,0
43424,-100,4,3,1,75,0,0
43590,-100,4,2,1,75,0,0
48757,-100,4,3,1,75,0,0
48924,-100,4,2,1,75,0,0
54090,-100,4,3,1,75,0,0
54257,-100,4,2,1,75,0,0
59424,-100,4,3,1,75,0,0
59590,-100,4,2,1,75,0,0
64757,-100,4,3,1,90,0,0
64840,-100,4,3,1,90,0,1
64924,-100,4,2,1,90,0,1
75424,-100,4,3,1,60,0,1
75590,-100,4,2,1,90,0,1
80757,-100,4,3,1,60,0,1
80924,-100,4,2,1,90,0,1
86090,-100,4,2,1,75,0,1
86174,-100,4,3,1,75,0,0
86257,-100,4,2,1,75,0,0
91424,-100,4,3,1,55,0,0
91590,-100,4,2,1,75,0,0
96757,-100,4,3,1,55,0,0
96924,-100,4,2,1,75,0,0
99424,-100,4,3,1,50,0,0
99590,-100,4,2,1,75,0,0
107424,-100,4,3,1,75,0,0
107590,-100,4,2,1,75,0,0
118090,-100,4,3,1,45,0,0
118257,-100,4,2,1,75,0,0
123424,-100,4,3,1,45,0,0
123590,-100,4,2,1,75,0,0
128757,-100,4,3,1,55,0,0
128924,-100,4,2,1,85,0,0
134090,-100,4,3,1,55,0,0
134257,-100,4,2,1,75,0,0
139424,-100,4,3,1,90,0,0
139507,-100,4,3,1,90,0,0
139590,-100,4,2,1,90,0,1
150090,-100,4,3,1,90,0,1
150257,-100,4,2,1,90,0,1
155424,-100,4,3,1,75,0,1
155590,-100,4,2,1,90,0,1
160840,-100,4,2,1,70,0,0
160940,-100,4,2,1,70,0,0
168090,-100,4,2,1,40,0,0
168090,-100,4,2,1,75,0,0
168757,-100,4,2,1,70,0,0
170757,-100,4,2,1,75,0,0
171424,-100,4,3,1,70,0,0
171590,-100,4,2,1,75,0,0
182090,-100,4,3,1,75,0,0
182257,-100,4,2,1,75,0,0
191340,-100,4,2,1,80,0,0
192757,-100,4,3,1,75,0,0
192924,-100,4,2,1,75,0,0
198090,-100,4,3,1,75,0,0
198257,-100,4,2,1,85,0,0
203424,-100,4,3,1,75,0,0
203590,-100,4,2,1,75,0,0
208757,-100,4,3,1,75,0,0
208924,-100,4,2,1,85,0,0
224757,-100,4,3,1,70,0,0
224840,-100,4,3,1,70,0,0
224924,-100,4,2,1,70,0,0
235424,-100,4,3,1,85,0,0
235507,-100,4,3,1,85,0,0
235590,-100,4,2,1,85,0,0
246090,-100,4,3,1,85,0,0
246257,-100,4,2,1,85,0,0
256755,-100,4,3,1,75,0,0
256924,-100,4,2,1,70,0,0
262090,-100,4,3,1,70,0,0
262257,-100,4,2,1,70,0,0

[HitObjects]
182,192,841,1,8,0:0:0:0:
475,192,841,1,4,0:0:0:0:
475,192,1174,1,4,0:0:0:0:
182,192,1340,1,8,0:0:0:0:
402,192,1340,1,2,0:0:0:0:
475,192,1507,1,4,0:0:0:0:
402,192,1674,1,2,0:0:0:0:
475,192,1840,1,4,0:0:0:0:
182,192,1840,1,8,0:0:0:0:
109,192,2174,1,2,0:0:0:50:soft-hitwhistle.wav
402,192,2174,1,4,0:0:0:0:
329,192,2340,1,8,0:0:0:45:soft-hitclap.wav
182,192,2340,1,8,0:0:0:45:soft-hitclap.wav
36,192,2507,1,4,0:0:0:0:
109,192,2674,1,2,0:0:0:0:
329,192,2840,1,8,0:0:0:0:
36,192,2840,1,4,0:0:0:0:
109,192,3007,1,2,0:0:0:0:
36,192,3174,1,4,0:0:0:0:
475,192,3174,1,8,0:0:0:0:
109,192,3340,1,0,0:0:0:0:
256,192,3340,1,2,0:0:0:0:
182,192,3507,1,4,0:0:0:0:
329,192,3507,1,8,0:0:0:0:
402,192,3840,1,2,0:0:0:0:
36,192,3840,1,4,0:0:0:0:
329,192,4007,1,8,0:0:0:45:soft-hitclap.wav
182,192,4007,1,8,0:0:0:45:soft-hitclap.wav
475,192,4174,1,4,0:0:0:0:
36,192,4174,1,4,0:0:0:0:
256,192,4340,1,2,0:0:0:0:
109,192,4340,1,2,0:0:0:0:
182,192,4507,1,4,0:0:0:0:
329,192,4507,1,8,0:0:0:0:
256,192,4674,1,2,0:0:0:0:
402,192,4674,1,2,0:0:0:0:
329,192,4840,1,8,0:0:0:0:
182,192,4840,1,8,0:0:0:0:
109,192,4924,1,2,0:0:0:0:
402,192,5007,1,2,0:0:0:0:
109,192,5090,1,2,0:0:0:0:
402,192,5174,1,2,0:0:0:0:
109,192,5257,1,2,0:0:0:0:
182,192,5340,1,8,0:0:0:85:soft-hitclap.wav
329,192,5340,1,8,0:0:0:85:soft-hitclap.wav
402,192,5424,1,2,0:0:0:0:
109,192,5507,1,2,0:0:0:0:
402,192,5590,1,2,0:0:0:0:
109,192,5674,1,2,0:0:0:0:
402,192,5757,1,2,0:0:0:0:
182,192,5840,1,8,0:0:0:85:soft-hitclap.wav
329,192,5840,1,8,0:0:0:85:soft-hitclap.wav
36,192,6174,1,4,0:0:0:45:drum-hitfinish.wav
475,192,6174,1,6,0:0:0:45:drum-hitfinish.wav
256,192,6174,1,2,0:0:0:95:drum-hitwhistle.wav
475,192,6507,1,4,0:0:0:0:
329,192,6507,1,8,0:0:0:0:
109,192,6840,1,2,0:0:0:90:soft-hitwhistle.wav
475,192,6840,1,4,0:0:0:0:
109,192,7007,1,2,0:0:0:90:soft-hitwhistle.wav
402,192,7007,1,2,0:0:0:0:
475,192,7174,1,4,0:0:0:0:
329,192,7174,1,8,0:0:0:0:
256,192,7507,1,2,0:0:0:70:soft-hitwhistle.wav
475,192,7507,1,4,0:0:0:0:
329,192,7840,1,8,0:0:0:0:
475,192,7840,1,4,0:0:0:0:
109,192,8174,1,2,0:0:0:0:
475,192,8174,1,4,0:0:0:0:
109,192,8340,1,2,0:0:0:0:
402,192,8340,1,2,0:0:0:0:
475,192,8507,1,4,0:0:0:0:
329,192,8507,1,8,0:0:0:0:
256,192,8840,1,2,0:0:0:70:soft-hitwhistle.wav
36,192,8840,1,6,0:0:0:0:
36,192,9174,1,4,0:0:0:0:
182,192,9174,1,8,0:0:0:0:
36,192,9507,1,4,0:0:0:0:
402,192,9507,1,2,0:0:0:0:
402,192,9674,1,2,0:0:0:0:
109,192,9674,1,2,0:0:0:0:
182,192,9840,1,8,0:0:0:0:
36,192,9840,1,4,0:0:0:0:
475,192,10174,1,2,0:0:0:0:
36,192,10174,1,6,0:0:0:0:
182,192,10507,1,4,0:0:0:0:
36,192,10507,1,8,0:0:0:0:
402,192,10840,1,2,0:0:0:0:
36,192,10840,1,4,0:0:0:0:
402,192,11007,1,2,0:0:0:0:
109,192,11007,1,2,0:0:0:0:
182,192,11174,1,8,0:0:0:0:
36,192,11174,1,4,0:0:0:0:
256,192,11507,1,2,0:0:0:90:drum-hitwhistle.wav
475,192,11507,1,4,0:0:0:45:drum-hitfinish.wav
36,192,11507,1,4,0:0:0:45:drum-hitfinish.wav
402,192,11674,1,2,0:0:0:0:
329,192,11840,1,4,0:0:0:0:
109,192,11840,1,8,0:0:0:0:
256,192,12007,1,2,0:0:0:0:
402,192,12007,1,2,0:0:0:0:
475,192,12174,1,2,0:0:0:0:
36,192,12174,1,4,0:0:0:0:
402,192,12340,1,2,0:0:0:0:
109,192,12340,1,2,0:0:0:0:
329,192,12507,1,4,0:0:0:0:
109,192,12507,1,8,0:0:0:0:
256,192,12840,1,2,0:0:0:0:
36,192,12840,1,4,0:0:0:0:
329,192,13174,1,4,0:0:0:0:
109,192,13174,1,8,0:0:0:0:
182,192,13340,1,2,0:0:0:0:
402,192,13340,1,2,0:0:0:0:
36,192,13507,1,4,0:0:0:0:
475,192,13507,1,2,0:0:0:0:
402,192,13674,1,2,0:0:0:0:
182,192,13674,1,2,0:0:0:0:
329,192,13840,1,4,0:0:0:0:
109,192,13840,1,8,0:0:0:0:
402,192,14007,1,2,0:0:0:0:
109,192,14007,1,2,0:0:0:0:
256,192,14174,1,2,0:0:0:0:
36,192,14174,1,4,0:0:0:0:
182,192,14507,1,4,0:0:0:0:
402,192,14507,1,8,0:0:0:0:
256,192,14674,1,2,0:0:0:0:
109,192,14674,1,2,0:0:0:0:
36,192,14840,1,2,0:0:0:0:
475,192,14840,1,4,0:0:0:0:
109,192,15007,1,2,0:0:0:0:
402,192,15007,1,2,0:0:0:0:
402,192,15174,1,8,0:0:0:0:
182,192,15174,1,4,0:0:0:0:
109,192,15340,1,2,0:0:0:0:
402,192,15340,1,2,0:0:0:0:
256,192,15507,1,2,0:0:0:0:
475,192,15507,1,4,0:0:0:0:
182,192,15840,1,4,0:0:0:0:
402,192,15840,1,8,0:0:0:0:
36,192,16174,1,2,0:0:0:0:
475,192,16174,1,4,0:0:0:0:
109,192,16340,1,2,0:0:0:0:
402,192,16340,1,2,0:0:0:0:
402,192,16507,1,8,0:0:0:0:
182,192,16507,1,4,0:0:0:0:
109,192,16674,1,2,0:0:0:0:
475,192,16674,1,2,0:0:0:0:
256,192,16840,1,0,0:0:0:35:normal-hitwhistle.wav
402,192,16840,1,0,0:0:0:30:normal-hitwhistle.wav
109,192,17174,1,0,0:0:0:35:normal-hitwhistle.wav
402,192,17340,1,0,0:0:0:35:normal-hitwhistle.wav
329,192,17452,1,0,0:0:0:40:soft-hitnormal.wav
109,192,17507,1,0,0:0:0:35:normal-hitwhistle.wav
256,192,17674,1,0,0:0:0:35:normal-hitwhistle.wav
402,192,17840,1,0,0:0:0:40:normal-hitwhistle.wav
402,192,18174,1,0,0:0:0:35:normal-hitwhistle.wav
109,192,18340,1,0,0:0:0:35:normal-hitwhistle.wav
329,192,18452,1,0,0:0:0:0:
402,192,18674,1,0,0:0:0:45:soft-hitwhistle.wav
256,192,18840,1,0,0:0:0:35:normal-hitwhistle.wav
109,192,19007,1,0,0:0:0:35:normal-hitwhistle.wav
402,192,19174,1,0,0:0:0:35:normal-hitwhistle.wav
402,192,19340,1,0,0:0:0:30:normal-hitwhistle.wav
256,192,19507,1,0,0:0:0:30:normal-hitwhistle.wav
402,192,19840,1,0,0:0:0:30:normal-hitwhistle.wav
109,192,20007,1,0,0:0:0:30:normal-hitwhistle.wav
329,192,20118,1,0,0:0:0:0:
402,192,20340,1,0,0:0:0:35:normal-hitwhistle.wav
109,192,20507,1,0,0:0:0:35:normal-hitwhistle.wav
182,192,20840,1,0,0:0:0:35:normal-hitwhistle.wav
329,192,21007,1,0,0:0:0:35:normal-hitwhistle.wav
109,192,21174,1,0,0:0:0:35:normal-hitwhistle.wav
402,192,21340,1,0,0:0:0:35:normal-hitwhistle.wav
182,192,21465,1,8,0:0:0:0:
329,192,21507,1,8,0:0:0:0:
256,192,21674,1,0,0:0:0:30:normal-hitwhistle.wav
182,192,21799,1,8,0:0:0:0:
329,192,21840,1,8,0:0:0:0:
109,192,22007,1,2,0:0:0:0:
402,192,22007,1,2,0:0:0:0:
36,192,22174,1,4,0:0:0:0:
475,192,22174,1,2,0:0:0:0:
256,192,22174,1,2,0:0:0:0:
36,192,22507,1,4,0:0:0:0:
182,192,22507,1,8,0:0:0:0:
36,192,22840,1,4,0:0:0:0:
402,192,22840,1,2,0:0:0:0:
109,192,23007,1,2,0:0:0:0:
402,192,23007,1,2,0:0:0:0:
36,192,23174,1,4,0:0:0:0:
182,192,23174,1,8,0:0:0:0:
475,192,23507,1,4,0:0:0:0:
256,192,23507,1,2,0:0:0:0:
36,192,23840,1,4,0:0:0:0:
182,192,23840,1,8,0:0:0:0:
402,192,24174,1,2,0:0:0:0:
36,192,24174,1,4,0:0:0:0:
402,192,24340,1,2,0:0:0:0:
109,192,24340,1,2,0:0:0:0:
182,192,24507,1,8,0:0:0:0:
36,192,24507,1,4,0:0:0:0:
36,192,24840,1,4,0:0:0:0:
256,192,24840,1,2,0:0:0:0:
329,192,25174,1,8,0:0:0:0:
475,192,25174,1,4,0:0:0:0:
109,192,25507,1,2,0:0:0:0:
475,192,25507,1,4,0:0:0:0:
109,192,25674,1,2,0:0:0:0:
256,192,25674,1,2,0:0:0:0:
402,192,25840,1,8,0:0:0:0:
475,192,25840,1,4,0:0:0:0:
256,192,26174,1,2,0:0:0:0:
475,192,26174,1,4,0:0:0:0:
329,192,26507,1,8,0:0:0:0:
475,192,26507,1,4,0:0:0:0:
109,192,26840,1,2,0:0:0:0:
475,192,26840,1,4,0:0:0:0:
109,192,27007,1,2,0:0:0:0:
256,192,27007,1,2,0:0:0:0:
402,192,27174,1,8,0:0:0:0:
475,192,27174,1,4,0:0:0:0:
36,192,27507,1,4,0:0:0:0:
475,192,27507,1,2,0:0:0:0:
182,192,27840,1,4,0:0:0:0:
475,192,27840,1,8,0:0:0:0:
36,192,28174,1,4,0:0:0:0:
402,192,28174,1,2,0:0:0:0:
402,192,28340,1,2,0:0:0:0:
109,192,28340,1,2,0:0:0:0:
182,192,28507,1,4,0:0:0:0:
475,192,28507,1,8,0:0:0:0:
256,192,28840,1,2,0:0:0:0:
475,192,28840,1,4,0:0:0:0:
182,192,29174,1,4,0:0:0:0:
475,192,29174,1,8,0:0:0:0:
36,192,29507,1,4,0:0:0:0:
402,192,29507,1,2,0:0:0:0:
109,192,29674,1,2,0:0:0:0:
402,192,29674,1,2,0:0:0:0:
182,192,29840,1,4,0:0:0:0:
475,192,29840,1,8,0:0:0:0:
256,192,30174,1,2,0:0:0:0:
36,192,30174,1,4,0:0:0:0:
329,192,30507,1,8,0:0:0:0:
182,192,30507,1,4,0:0:0:0:
402,192,30840,1,2,0:0:0:0:
36,192,30840,1,4,0:0:0:0:
36,192,31007,1,2,0:0:0:0:
475,192,31007,1,2,0:0:0:0:
182,192,31174,1,4,0:0:0:0:
329,192,31174,1,8,0:0:0:0:
36,192,31507,1,2,0:0:0:0:
475,192,31507,1,4,0:0:0:0:
182,192,31840,1,4,0:0:0:0:
329,192,31840,1,8,0:0:0:0:
109,192,32174,1,2,0:0:0:0:
402,192,32174,1,6,0:0:0:0:
402,192,32340,1,2,0:0:0:0:
109,192,32340,1,2,0:0:0:0:
182,192,32465,1,8,0:0:0:0:
329,192,32507,1,8,0:0:0:0:
36,192,32840,1,4,0:0:0:0:
256,192,32840,1,2,0:0:0:0:
475,192,32840,1,2,0:0:0:0:
182,192,33174,1,4,0:0:0:0:
402,192,33174,1,8,0:0:0:0:
329,192,33507,1,4,0:0:0:0:
109,192,33507,1,2,0:0:0:0:
109,192,33674,1,2,0:0:0:0:
475,192,33674,1,2,0:0:0:0:
182,192,33840,1,4,0:0:0:0:
402,192,33840,1,8,0:0:0:0:
256,192,34174,1,2,0:0:0:0:
475,192,34174,1,4,0:0:0:0:
182,192,34507,1,4,0:0:0:0:
402,192,34507,1,8,0:0:0:0:
109,192,34840,1,2,0:0:0:0:
329,192,34840,1,4,0:0:0:0:
109,192,35007,1,2,0:0:0:0:
475,192,35007,1,2,0:0:0:0:
182,192,35174,1,4,0:0:0:0:
402,192,35174,1,8,0:0:0:0:
256,192,35507,1,2,0:0:0:0:
36,192,35507,1,4,0:0:0:0:
475,192,35840,1,8,0:0:0:0:
36,192,35840,1,4,0:0:0:0:
402,192,36174,1,2,0:0:0:0:
36,192,36174,1,4,0:0:0:0:
402,192,36340,1,2,0:0:0:0:
109,192,36340,1,2,0:0:0:0:
36,192,36507,1,4,0:0:0:0:
475,192,36507,1,8,0:0:0:0:
256,192,36840,1,2,0:0:0:0:
475,192,36840,1,4,0:0:0:0:
36,192,37174,1,4,0:0:0:0:
475,192,37174,1,8,0:0:0:0:
36,192,37507,1,4,0:0:0:0:
402,192,37507,1,2,0:0:0:0:
402,192,37674,1,2,0:0:0:0:
109,192,37674,1,2,0:0:0:0:
36,192,37840,1,4,0:0:0:0:
475,192,37840,1,8,0:0:0:0:
36,192,38174,1,4,0:0:0:0:
475,192,38174,1,2,0:0:0:0:
182,192,38507,1,4,0:0:0:0:
329,192,38507,1,8,0:0:0:0:
256,192,38840,1,2,0:0:0:0:
109,192,38840,1,4,0:0:0:0:
256,192,39007,1,2,0:0:0:0:
402,192,39007,1,2,0:0:0:0:
182,192,39174,1,4,0:0:0:0:
475,192,39174,1,8,0:0:0:0:
256,192,39507,1,2,0:0:0:0:
36,192,39507,1,4,0:0:0:0:
329,192,39840,1,8,0:0:0:0:
182,192,39840,1,4,0:0:0:0:
256,192,40174,1,2,0:0:0:0:
109,192,40174,1,4,0:0:0:0:
256,192,40340,1,2,0:0:0:0:
402,192,40340,1,2,0:0:0:0:
475,192,40507,1,8,0:0:0:0:
182,192,40507,1,4,0:0:0:0:
256,192,40840,1,2,0:0:0:0:
475,192,40840,1,4,0:0:0:0:
475,192,41174,1,4,0:0:0:0:
329,192,41174,1,8,0:0:0:0:
109,192,41340,1,2,0:0:0:0:
109,192,41507,1,2,0:0:0:0:
475,192,41507,1,4,0:0:0:0:
402,192,41674,1,2,0:0:0:0:
109,192,41674,1,2,0:0:0:0:
329,192,41840,1,8,0:0:0:0:
475,192,41840,1,4,0:0:0:0:
256,192,42174,1,2,0:0:0:0:
36,192,42174,1,4,0:0:0:0:
109,192,42340,1,2,0:0:0:0:
402,192,42340,1,2,0:0:0:0:
182,192,42507,1,8,0:0:0:0:
36,192,42507,1,4,0:0:0:0:
329,192,42757,1,8,0:0:0:0:
36,192,42840,1,2,0:0:0:0:
402,192,42840,1,2,0:0:0:0:
402,192,43007,1,2,0:0:0:0:
109,192,43007,1,2,0:0:0:0:
182,192,43174,1,8,0:0:0:0:
36,192,43174,1,10,0:0:0:0:
329,192,43340,1,8,0:0:0:0:
109,192,43340,1,10,0:0:0:0:
475,192,43507,1,2,0:0:0:0:
36,192,43507,1,4,0:0:0:0:
329,192,43840,1,0,0:0:0:35:normal-hitclap.wav
182,192,43840,1,0,0:0:0:40:normal-hitclap.wav
256,192,44174,1,0,0:0:0:40:normal-hitwhistle.wav
402,192,44174,1,0,0:0:0:40:normal-hitwhistle.wav
36,192,44507,1,8,0:0:0:40:soft-hitclap.wav
475,192,44507,1,8,0:0:0:40:soft-hitclap.wav
109,192,44729,1,0,0:0:0:45:normal-hitwhistle.wav
329,192,44785,1,0,0:0:0:40:normal-hitwhistle.wav
402,192,44785,1,2,0:0:0:45:normal-hitwhistle.wav
182,192,45174,1,0,0:0:0:40:soft-hitclap.wav
329,192,45174,1,0,0:0:0:40:normal-hitclap.wav
256,192,45507,1,8,0:0:0:40:normal-hitwhistle.wav
182,192,45840,1,0,0:0:0:40:soft-hitclap.wav
329,192,45840,1,0,0:0:0:40:soft-hitclap.wav
109,192,46063,1,2,0:0:0:45:normal-hitwhistle.wav
402,192,46118,1,2,0:0:0:45:normal-hitwhistle.wav
329,192,46118,1,0,0:0:0:45:normal-hitwhistle.wav
475,192,46507,1,0,0:0:0:40:soft-hitclap.wav
36,192,46507,1,0,0:0:0:40:normal-hitclap.wav
256,192,46840,1,8,0:0:0:40:normal-hitwhistle.wav
182,192,47174,1,0,0:0:0:40:soft-hitclap.wav
329,192,47174,1,0,0:0:0:40:soft-hitclap.wav
109,192,47396,1,2,0:0:0:45:normal-hitwhistle.wav
402,192,47452,1,2,0:0:0:45:normal-hitwhistle.wav
329,192,47452,1,0,0:0:0:45:normal-hitwhistle.wav
36,192,47840,1,0,0:0:0:40:soft-hitclap.wav
475,192,47840,1,0,0:0:0:40:soft-hitclap.wav
109,192,48174,1,2,0:0:0:0:
402,192,48174,1,2,0:0:0:0:
402,192,48340,1,2,0:0:0:0:
109,192,48340,1,2,0:0:0:0:
329,192,48507,1,0,0:0:0:60:drum-hitfinish.wav
182,192,48507,1,8,0:0:0:0:
475,192,48507,1,8,0:0:0:0:
36,192,48840,1,4,0:0:0:0:
256,192,48840,1,2,0:0:0:0:
475,192,48840,1,2,0:0:0:0:
182,192,49174,1,8,0:0:0:0:
475,192,49174,1,4,0:0:0:0:
36,192,49507,1,2,0:0:0:0:
475,192,49507,1,4,0:0:0:0:
109,192,49674,1,2,0:0:0:0:
402,192,49674,1,2,0:0:0:0:
475,192,49840,1,4,0:0:0:0:
182,192,49840,1,8,0:0:0:0:
402,192,50174,1,6,0:0:0:0:
109,192,50174,1,2,0:0:0:0:
402,192,50340,1,2,0:0:0:0:
109,192,50340,1,2,0:0:0:0:
36,192,50507,1,8,0:0:0:0:
475,192,50507,1,4,0:0:0:0:
36,192,50840,1,2,0:0:0:0:
475,192,50840,1,4,0:0:0:0:
109,192,51007,1,2,0:0:0:0:
402,192,51007,1,2,0:0:0:0:
182,192,51174,1,8,0:0:0:0:
475,192,51174,1,4,0:0:0:0:
36,192,51507,1,4,0:0:0:0:
256,192,51507,1,2,0:0:0:0:
182,192,51840,1,8,0:0:0:0:
475,192,51840,1,4,0:0:0:0:
475,192,52174,1,2,0:0:0:0:
36,192,52174,1,4,0:0:0:0:
109,192,52340,1,2,0:0:0:0:
402,192,52340,1,2,0:0:0:0:
329,192,52507,1,8,0:0:0:0:
36,192,52507,1,4,0:0:0:0:
36,192,52840,1,2,0:0:0:0:
475,192,52840,1,6,0:0:0:0:
402,192,53007,1,2,0:0:0:0:
109,192,53007,1,2,0:0:0:0:
475,192,53174,1,4,0:0:0:0:
182,192,53174,1,8,0:0:0:0:
109,192,53340,1,2,0:0:0:0:
402,192,53340,1,2,0:0:0:0:
182,192,53465,1,8,0:0:0:90:soft-hitclap.wav
329,192,53507,1,8,0:0:0:90:soft-hitclap.wav
109,192,53674,1,2,0:0:0:90:soft-hitwhistle.wav
402,192,53674,1,2,0:0:0:90:soft-hitwhistle.wav
475,192,53840,1,0,0:0:0:0:
36,192,53840,1,0,0:0:0:0:
256,192,54174,1,2,0:0:0:0:
475,192,54174,1,2,0:0:0:0:
36,192,54174,1,4,0:0:0:0:
182,192,54507,1,8,0:0:0:0:
329,192,54507,1,8,0:0:0:0:
109,192,54840,1,2,0:0:0:0:
402,192,54840,1,2,0:0:0:0:
109,192,55007,1,2,0:0:0:0:
402,192,55007,1,2,0:0:0:0:
182,192,55174,1,8,0:0:0:0:
329,192,55174,1,8,0:0:0:0:
402,192,55507,1,2,0:0:0:0:
109,192,55507,1,2,0:0:0:0:
402,192,55674,1,2,0:0:0:0:
109,192,55674,1,2,0:0:0:0:
475,192,55840,1,8,0:0:0:0:
36,192,55840,1,8,0:0:0:0:
109,192,56174,1,2,0:0:0:0:
402,192,56174,1,2,0:0:0:0:
402,192,56340,1,2,0:0:0:0:
109,192,56340,1,2,0:0:0:0:
329,192,56507,1,8,0:0:0:0:
182,192,56507,1,8,0:0:0:0:
402,192,56840,1,2,0:0:0:0:
109,192,56840,1,2,0:0:0:0:
402,192,57007,1,2,0:0:0:0:
109,192,57007,1,2,0:0:0:0:
36,192,57174,1,8,0:0:0:0:
475,192,57174,1,8,0:0:0:0:
109,192,57340,1,2,0:0:0:0:
182,192,57424,1,2,0:0:0:0:
256,192,57507,1,2,0:0:0:0:
475,192,57674,1,2,0:0:0:0:
36,192,57674,1,2,0:0:0:0:
182,192,57840,1,8,0:0:0:0:
329,192,57840,1,8,0:0:0:0:
402,192,58007,1,2,0:0:0:0:
329,192,58090,1,2,0:0:0:0:
256,192,58174,1,2,0:0:0:0:
36,192,58340,1,2,0:0:0:0:
475,192,58340,1,2,0:0:0:0:
182,192,58507,1,8,0:0:0:0:
329,192,58507,1,8,0:0:0:0:
475,192,58840,1,2,0:0:0:0:
36,192,58840,1,2,0:0:0:0:
36,192,59007,1,2,0:0:0:0:
475,192,59007,1,2,0:0:0:0:
182,192,59174,1,8,0:0:0:85:soft-hitclap.wav
329,192,59174,1,10,0:0:0:0:
36,192,59507,1,4,0:0:0:0:
256,192,59507,1,2,0:0:0:0:
475,192,59507,1,2,0:0:0:0:
182,192,59840,1,4,0:0:0:0:
475,192,59840,1,8,0:0:0:0:
36,192,60174,1,4,0:0:0:0:
256,192,60174,1,2,0:0:0:0:
109,192,60340,1,2,0:0:0:0:
402,192,60340,1,2,0:0:0:0:
182,192,60507,1,4,0:0:0:0:
475,192,60507,1,8,0:0:0:0:
256,192,60840,1,2,0:0:0:0:
475,192,60840,1,4,0:0:0:0:
36,192,61174,1,4,0:0:0:0:
329,192,61174,1,8,0:0:0:0:
256,192,61507,1,4,0:0:0:0:
475,192,61507,1,2,0:0:0:0:
109,192,61674,1,2,0:0:0:0:
402,192,61674,1,2,0:0:0:0:
36,192,61840,1,4,0:0:0:0:
329,192,61840,1,8,0:0:0:0:
475,192,62174,1,4,0:0:0:0:
36,192,62174,1,2,0:0:0:0:
109,192,62340,1,2,0:0:0:0:
402,192,62340,1,2,0:0:0:0:
182,192,62507,1,4,0:0:0:0:
329,192,62507,1,8,0:0:0:0:
402,192,62674,1,2,0:0:0:0:
109,192,62674,1,2,0:0:0:0:
475,192,62840,1,2,0:0:0:0:
36,192,62840,1,4,0:0:0:0:
36,192,63007,1,2,0:0:0:0:
475,192,63007,1,2,0:0:0:0:
329,192,63174,1,8,0:0:0:0:
182,192,63174,1,12,0:0:0:0:
109,192,63340,1,2,0:0:0:0:
402,192,63340,1,2,0:0:0:0:
182,192,63465,1,0,0:0:0:90:soft-hitclap.wav
329,192,63507,1,0,0:0:0:90:soft-hitclap.wav
36,192,63840,1,0,0:0:0:0:
182,192,63840,1,0,0:0:0:0:
36,192,64174,1,0,0:0:0:0:
182,192,64174,1,0,0:0:0:0:
329,192,64507,1,8,0:0:0:60:normal-hitwhistle.wav
402,192,64507,1,0,0:0:0:90:soft-hitclap.wav
109,192,64507,1,0,0:0:0:90:soft-hitclap.wav
36,192,64840,1,4,0:0:0:0:
256,192,64840,1,2,0:0:0:0:
475,192,64840,1,6,0:0:0:0:
182,192,65174,1,8,0:0:0:0:
36,192,65174,1,4,0:0:0:0:
182,192,65507,1,4,0:0:0:0:
402,192,65507,1,2,0:0:0:0:
402,192,65674,1,2,0:0:0:0:
109,192,65674,1,2,0:0:0:0:
182,192,65840,1,8,0:0:0:0:
36,192,65840,1,4,0:0:0:0:
475,192,66174,1,4,0:0:0:0:
256,192,66174,1,2,0:0:0:0:
36,192,66507,1,4,0:0:0:0:
182,192,66507,1,8,0:0:0:0:
402,192,66840,1,2,0:0:0:0:
182,192,66840,1,4,0:0:0:0:
109,192,67007,1,2,0:0:0:0:
402,192,67007,1,2,0:0:0:0:
182,192,67174,1,8,0:0:0:0:
36,192,67174,1,4,0:0:0:0:
256,192,67507,1,2,0:0:0:0:
36,192,67507,1,4,0:0:0:0:
109,192,67840,1,8,0:0:0:0:
329,192,67840,1,4,0:0:0:0:
182,192,68174,1,2,0:0:0:0:
475,192,68174,1,4,0:0:0:0:
475,192,68340,1,2,0:0:0:0:
182,192,68340,1,2,0:0:0:0:
329,192,68507,1,4,0:0:0:0:
109,192,68507,1,8,0:0:0:0:
256,192,68840,1,2,0:0:0:0:
36,192,68840,1,4,0:0:0:0:
329,192,69174,1,4,0:0:0:0:
109,192,69174,1,8,0:0:0:0:
109,192,69340,1,0,0:0:0:40:soft-hitclap.wav
402,192,69340,1,2,0:0:0:0:
475,192,69507,1,4,0:0:0:0:
182,192,69507,1,2,0:0:0:0:
182,192,69674,1,2,0:0:0:0:
475,192,69674,1,2,0:0:0:0:
329,192,69840,1,4,0:0:0:0:
109,192,69840,1,8,0:0:0:0:
402,192,70007,1,2,0:0:0:0:
109,192,70007,1,2,0:0:0:0:
36,192,70174,1,4,0:0:0:0:
256,192,70174,1,2,0:0:0:0:
329,192,70507,1,8,0:0:0:0:
182,192,70507,1,4,0:0:0:0:
36,192,70840,1,4,0:0:0:0:
402,192,70840,1,2,0:0:0:0:
109,192,71007,1,2,0:0:0:0:
402,192,71007,1,2,0:0:0:0:
182,192,71174,1,4,0:0:0:0:
329,192,71174,1,8,0:0:0:0:
256,192,71507,1,2,0:0:0:0:
475,192,71507,1,4,0:0:0:0:
182,192,71840,1,8,0:0:0:0:
329,192,71840,1,4,0:0:0:0:
36,192,72174,1,4,0:0:0:0:
402,192,72174,1,2,0:0:0:0:
402,192,72340,1,2,0:0:0:0:
109,192,72340,1,2,0:0:0:0:
329,192,72507,1,8,0:0:0:0:
182,192,72507,1,4,0:0:0:0:
36,192,72840,1,2,0:0:0:0:
475,192,72840,1,4,0:0:0:0:
109,192,73174,1,4,0:0:0:0:
402,192,73174,1,8,0:0:0:0:
36,192,73507,1,4,0:0:0:0:
475,192,73507,1,2,0:0:0:0:
475,192,73674,1,2,0:0:0:0:
36,192,73674,1,2,0:0:0:0:
182,192,73840,1,4,0:0:0:0:
329,192,73840,1,8,0:0:0:0:
475,192,74174,1,4,0:0:0:0:
36,192,74174,1,2,0:0:0:0:
182,192,74507,1,12,0:0:0:0:
329,192,74507,1,8,0:0:0:0:
36,192,74757,1,8,0:0:0:95:soft-hitclap.wav
109,192,74840,1,2,0:0:0:0:
402,192,75007,1,10,0:0:0:0:
109,192,75007,1,2,0:0:0:0:
402,192,75174,1,10,0:0:0:0:
109,192,75174,1,2,0:0:0:0:
329,192,75340,1,8,0:0:0:60:soft-hitclap.wav
182,192,75340,1,10,0:0:0:60:soft-hitclap.wav
36,192,75507,1,4,0:0:0:0:
475,192,75507,1,4,0:0:0:0:
256,192,75507,1,2,0:0:0:0:
109,192,75840,1,8,0:0:0:0:
182,192,75840,1,4,0:0:0:0:
36,192,76174,1,4,0:0:0:0:
475,192,76174,1,2,0:0:0:0:
475,192,76340,1,2,0:0:0:0:
36,192,76340,1,2,0:0:0:0:
109,192,76507,1,8,0:0:0:0:
329,192,76507,1,4,0:0:0:0:
36,192,76840,1,4,0:0:0:0:
256,192,76840,1,2,0:0:0:0:
182,192,77174,1,4,0:0:0:0:
109,192,77174,1,8,0:0:0:0:
475,192,77507,1,4,0:0:0:0:
36,192,77507,1,2,0:0:0:0:
475,192,77674,1,2,0:0:0:0:
36,192,77674,1,2,0:0:0:0:
109,192,77840,1,8,0:0:0:0:
329,192,77840,1,4,0:0:0:0:
256,192,78174,1,2,0:0:0:0:
475,192,78174,1,4,0:0:0:0:
329,192,78507,1,8,0:0:0:0:
36,192,78507,1,4,0:0:0:0:
36,192,78840,1,2,0:0:0:0:
475,192,78840,1,4,0:0:0:0:
109,192,79007,1,2,0:0:0:0:
402,192,79007,1,2,0:0:0:0:
182,192,79174,1,4,0:0:0:0:
475,192,79174,1,8,0:0:0:0:
256,192,79507,1,2,0:0:0:0:
36,192,79507,1,4,0:0:0:0:
329,192,79840,1,4,0:0:0:0:
36,192,79840,1,8,0:0:0:0:
475,192,80174,1,4,0:0:0:0:
36,192,80174,1,2,0:0:0:0:
109,192,80340,1,2,0:0:0:0:
402,192,80340,1,2,0:0:0:0:
182,192,80507,1,8,0:0:0:0:
475,192,80507,1,4,0:0:0:0:
36,192,80840,1,4,0:0:0:0:
256,192,80840,1,2,0:0:0:0:
475,192,80840,1,6,0:0:0:0:
329,192,81174,1,8,0:0:0:0:
475,192,81174,1,4,0:0:0:0:
475,192,81507,1,4,0:0:0:0:
36,192,81507,1,2,0:0:0:0:
109,192,81674,1,2,0:0:0:0:
402,192,81674,1,2,0:0:0:0:
475,192,81840,1,4,0:0:0:0:
329,192,81840,1,8,0:0:0:0:
402,192,82174,1,2,0:0:0:0:
36,192,82174,1,0,0:0:0:70:drum-hitfinish.wav
36,192,82507,1,4,0:0:0:0:
182,192,82507,1,8,0:0:0:0:
475,192,82840,1,2,0:0:0:0:
36,192,82840,1,4,0:0:0:0:
109,192,83007,1,2,0:0:0:0:
402,192,83007,1,2,0:0:0:0:
182,192,83174,1,8,0:0:0:0:
36,192,83174,1,4,0:0:0:0:
109,192,83507,1,2,0:0:0:0:
475,192,83507,1,0,0:0:0:70:drum-hitfinish.wav
182,192,83840,1,8,0:0:0:0:
329,192,83840,1,4,0:0:0:0:
109,192,84174,1,2,0:0:0:0:
402,192,84174,1,4,0:0:0:0:
402,192,84340,1,2,0:0:0:0:
109,192,84340,1,2,0:0:0:0:
182,192,84507,1,8,0:0:0:0:
329,192,84507,1,4,0:0:0:0:
36,192,84840,1,4,0:0:0:0:
475,192,84840,1,2,0:0:0:0:
402,192,85007,1,2,0:0:0:0:
109,192,85007,1,2,0:0:0:0:
182,192,85174,1,8,0:0:0:0:
329,192,85174,1,4,0:0:0:0:
402,192,85340,1,2,0:0:0:0:
109,192,85340,1,2,0:0:0:0:
475,192,85507,1,4,0:0:0:0:
182,192,85507,1,2,0:0:0:0:
402,192,85674,1,2,0:0:0:0:
109,192,85674,1,2,0:0:0:0:
329,192,85840,1,8,0:0:0:0:
182,192,85840,1,8,0:0:0:0:
36,192,85840,1,8,0:0:0:0:
36,192,86174,1,4,0:0:0:0:
256,192,86174,1,2,0:0:0:0:
475,192,86174,1,6,0:0:0:0:
182,192,86507,1,8,0:0:0:0:
36,192,86507,1,4,0:0:0:0:
36,192,86840,1,4,0:0:0:0:
402,192,86840,1,2,0:0:0:0:
402,192,87007,1,2,0:0:0:0:
109,192,87007,1,2,0:0:0:0:
182,192,87174,1,8,0:0:0:0:
36,192,87174,1,4,0:0:0:0:
36,192,87507,1,4,0:0:0:0:
256,192,87507,1,2,0:0:0:0:
36,192,87840,1,4,0:0:0:0:
182,192,87840,1,8,0:0:0:0:
36,192,88174,1,4,0:0:0:0:
402,192,88174,1,2,0:0:0:0:
402,192,88340,1,2,0:0:0:0:
109,192,88340,1,2,0:0:0:0:
182,192,88507,1,8,0:0:0:0:
36,192,88507,1,4,0:0:0:0:
475,192,88840,1,4,0:0:0:0:
256,192,88840,1,2,0:0:0:0:
475,192,89174,1,4,0:0:0:0:
329,192,89174,1,8,0:0:0:0:
36,192,89507,1,2,0:0:0:0:
475,192,89507,1,4,0:0:0:0:
402,192,89674,1,2,0:0:0:0:
109,192,89674,1,2,0:0:0:0:
329,192,89840,1,8,0:0:0:0:
475,192,89840,1,4,0:0:0:0:
36,192,90174,1,2,0:0:0:0:
475,192,90174,1,4,0:0:0:0:
402,192,90340,1,2,0:0:0:0:
36,192,90507,1,4,0:0:0:0:
182,192,90507,1,8,0:0:0:0:
402,192,90674,1,2,0:0:0:0:
475,192,90840,1,4,0:0:0:0:
36,192,90840,1,2,0:0:0:0:
109,192,91007,1,2,0:0:0:0:
402,192,91007,1,2,0:0:0:0:
182,192,91174,1,10,0:0:0:0:
329,192,91174,1,8,0:0:0:0:
36,192,91507,1,4,0:0:0:0:
256,192,91507,1,2,0:0:0:0:
475,192,91507,1,6,0:0:0:0:
182,192,91840,1,8,0:0:0:0:
475,192,91840,1,4,0:0:0:0:
256,192,92007,1,2,0:0:0:0:
36,192,92174,1,4,0:0:0:0:
402,192,92174,1,2,0:0:0:0:
402,192,92340,1,2,0:0:0:0:
109,192,92340,1,2,0:0:0:0:
182,192,92507,1,8,0:0:0:0:
475,192,92507,1,4,0:0:0:0:
256,192,92840,1,2,0:0:0:0:
475,192,92840,1,4,0:0:0:0:
109,192,93007,1,2,0:0:0:0:
402,192,93007,1,2,0:0:0:0:
182,192,93174,1,8,0:0:0:0:
475,192,93174,1,4,0:0:0:0:
256,192,93340,1,2,0:0:0:0:
36,192,93507,1,4,0:0:0:0:
402,192,93507,1,2,0:0:0:0:
402,192,93674,1,2,0:0:0:0:
109,192,93674,1,2,0:0:0:0:
182,192,93840,1,8,0:0:0:0:
475,192,93840,1,4,0:0:0:0:
36,192,94174,1,4,0:0:0:0:
256,192,94174,1,2,0:0:0:0:
36,192,94507,1,4,0:0:0:0:
329,192,94507,1,8,0:0:0:0:
109,192,94840,1,2,0:0:0:0:
475,192,94840,1,4,0:0:0:0:
402,192,95007,1,2,0:0:0:0:
109,192,95007,1,2,0:0:0:0:
36,192,95174,1,4,0:0:0:0:
329,192,95174,1,8,0:0:0:0:
256,192,95340,1,2,0:0:0:0:
329,192,95424,1,8,0:0:0:0:
402,192,95507,1,2,0:0:0:0:
109,192,95674,1,2,0:0:0:40:soft-hitclap.wav
182,192,95840,1,8,0:0:0:40:normal-hitwhistle.wav
329,192,96007,1,2,0:0:0:40:normal-hitfinish.wav
36,192,96174,1,2,0:0:0:0:
475,192,96174,1,2,0:0:0:0:
475,192,96340,1,2,0:0:0:0:
36,192,96340,1,2,0:0:0:0:
109,192,96507,1,2,0:0:0:0:
402,192,96507,1,2,0:0:0:0:
109,192,96674,1,2,0:0:0:0:
402,192,96674,1,2,0:0:0:0:
36,192,96840,1,4,0:0:0:0:
256,192,96840,1,2,0:0:0:0:
475,192,96840,1,6,0:0:0:0:
109,192,99174,1,10,0:0:0:0:
402,192,99174,1,8,0:0:0:0:
182,192,99174,1,10,0:0:0:0:
36,192,99507,1,4,0:0:0:0:
256,192,99507,1,2,0:0:0:0:
475,192,99507,1,2,0:0:0:0:
182,192,99840,1,8,0:0:0:0:
475,192,99840,1,4,0:0:0:0:
36,192,100174,1,2,0:0:0:0:
475,192,100174,1,4,0:0:0:0:
109,192,100340,1,2,0:0:0:0:
402,192,100340,1,2,0:0:0:0:
475,192,100507,1,4,0:0:0:0:
182,192,100507,1,8,0:0:0:0:
256,192,100840,1,2,0:0:0:0:
475,192,100840,1,4,0:0:0:0:
182,192,101174,1,8,0:0:0:0:
475,192,101174,1,4,0:0:0:0:
36,192,101507,1,2,0:0:0:0:
475,192,101507,1,4,0:0:0:0:
109,192,101674,1,2,0:0:0:0:
402,192,101674,1,2,0:0:0:0:
182,192,101840,1,8,0:0:0:0:
475,192,101840,1,4,0:0:0:0:
256,192,102174,1,2,0:0:0:0:
36,192,102174,1,4,0:0:0:0:
36,192,102507,1,4,0:0:0:0:
329,192,102507,1,8,0:0:0:0:
36,192,102840,1,4,0:0:0:0:
475,192,102840,1,2,0:0:0:0:
402,192,103007,1,2,0:0:0:0:
109,192,103007,1,2,0:0:0:0:
36,192,103174,1,4,0:0:0:0:
329,192,103174,1,8,0:0:0:0:
256,192,103507,1,2,0:0:0:0:
36,192,103507,1,4,0:0:0:0:
36,192,103840,1,4,0:0:0:0:
329,192,103840,1,8,0:0:0:0:
475,192,104174,1,2,0:0:0:0:
36,192,104174,1,4,0:0:0:0:
109,192,104340,1,2,0:0:0:0:
402,192,104340,1,2,0:0:0:0:
36,192,104507,1,4,0:0:0:0:
329,192,104507,1,8,0:0:0:0:
36,192,104840,1,4,0:0:0:0:
475,192,104840,1,2,0:0:0:0:
182,192,105174,1,4,0:0:0:0:
329,192,105174,1,8,0:0:0:0:
36,192,105340,1,2,0:0:0:0:
475,192,105340,1,2,0:0:0:0:
109,192,105507,1,4,0:0:0:0:
402,192,105507,1,2,0:0:0:0:
402,192,105674,1,2,0:0:0:0:
109,192,105674,1,2,0:0:0:0:
182,192,105840,1,4,0:0:0:0:
329,192,105840,1,8,0:0:0:0:
475,192,106174,1,2,0:0:0:0:
36,192,106174,1,4,0:0:0:0:
109,192,106507,1,4,0:0:0:0:
402,192,106507,1,8,0:0:0:0:
36,192,106840,1,4,0:0:0:0:
475,192,106840,1,2,0:0:0:0:
475,192,107007,1,2,0:0:0:0:
36,192,107007,1,2,0:0:0:0:
182,192,107132,1,10,0:0:0:90:soft-hitclap.wav
329,192,107174,1,8,0:0:0:90:soft-hitclap.wav
36,192,107507,1,4,0:0:0:70:drum-hitfinish.wav
256,192,107507,1,2,0:0:0:0:
475,192,107507,1,2,0:0:0:50:drum-hitfinish.wav
329,192,107840,1,4,0:0:0:0:
475,192,107840,1,8,0:0:0:0:
36,192,108174,1,4,0:0:0:0:
256,192,108174,1,2,0:0:0:0:
109,192,108340,1,2,0:0:0:0:
256,192,108340,1,2,0:0:0:0:
402,192,108507,1,8,0:0:0:0:
329,192,108507,1,4,0:0:0:0:
109,192,108840,1,2,0:0:0:0:
475,192,108840,1,4,0:0:0:0:
329,192,109174,1,4,0:0:0:0:
475,192,109174,1,8,0:0:0:0:
36,192,109507,1,4,0:0:0:0:
256,192,109507,1,2,0:0:0:0:
256,192,109674,1,2,0:0:0:0:
109,192,109674,1,2,0:0:0:0:
402,192,109840,1,8,0:0:0:0:
329,192,109840,1,4,0:0:0:0:
36,192,110174,1,4,0:0:0:0:
475,192,110174,1,2,0:0:0:0:
109,192,110507,1,8,0:0:0:0:
329,192,110507,1,4,0:0:0:0:
475,192,110840,1,4,0:0:0:0:
36,192,110840,1,2,0:0:0:0:
402,192,111007,1,2,0:0:0:0:
256,192,111007,1,2,0:0:0:0:
329,192,111174,1,4,0:0:0:0:
109,192,111174,1,8,0:0:0:0:
256,192,111507,1,2,0:0:0:0:
36,192,111507,1,4,0:0:0:0:
109,192,111840,1,8,0:0:0:0:
329,192,111840,1,4,0:0:0:0:
475,192,112174,1,4,0:0:0:0:
36,192,112174,1,2,0:0:0:0:
402,192,112340,1,2,0:0:0:0:
256,192,112340,1,2,0:0:0:0:
329,192,112507,1,4,0:0:0:0:
109,192,112507,1,8,0:0:0:0:
36,192,112840,1,4,0:0:0:0:
475,192,112840,1,2,0:0:0:0:
329,192,113174,1,8,0:0:0:0:
475,192,113174,1,4,0:0:0:0:
402,192,113507,1,2,0:0:0:0:
36,192,113507,1,4,0:0:0:0:
109,192,113674,1,2,0:0:0:0:
402,192,113674,1,2,0:0:0:0:
475,192,113840,1,4,0:0:0:0:
182,192,113840,1,8,0:0:0:0:
256,192,114174,1,2,0:0:0:0:
475,192,114174,1,4,0:0:0:0:
329,192,114507,1,4,0:0:0:0:
475,192,114507,1,8,0:0:0:0:
36,192,114840,1,4,0:0:0:0:
402,192,114840,1,2,0:0:0:0:
109,192,115007,1,2,0:0:0:0:
402,192,115007,1,2,0:0:0:0:
182,192,115174,1,8,0:0:0:0:
475,192,115174,1,4,0:0:0:0:
36,192,115507,1,4,0:0:0:0:
475,192,115507,1,2,0:0:0:0:
109,192,115840,1,8,0:0:0:0:
402,192,115840,1,4,0:0:0:0:
36,192,116174,1,2,0:0:0:0:
475,192,116174,1,4,0:0:0:0:
475,192,116340,1,2,0:0:0:0:
36,192,116340,1,2,0:0:0:0:
182,192,116507,1,8,0:0:0:0:
329,192,116507,1,4,0:0:0:0:
109,192,116840,1,2,0:0:0:0:
402,192,116840,1,4,0:0:0:0:
109,192,117007,1,2,0:0:0:0:
402,192,117007,1,2,0:0:0:0:
329,192,117174,1,4,0:0:0:0:
182,192,117174,1,8,0:0:0:0:
256,192,117340,1,2,0:0:0:0:
109,192,117507,1,4,0:0:0:0:
402,192,117507,1,2,0:0:0:0:
402,192,117674,1,2,0:0:0:0:
109,192,117674,1,2,0:0:0:0:
182,192,117840,1,4,0:0:0:0:
329,192,117840,1,8,0:0:0:0:
109,192,118007,1,2,0:0:0:0:
402,192,118007,1,2,0:0:0:0:
475,192,118174,1,6,0:0:0:0:
36,192,118174,1,6,0:0:0:0:
256,192,118174,1,2,0:0:0:0:
109,192,118340,1,2,0:0:0:0:
402,192,118340,1,2,0:0:0:0:
182,192,118507,1,0,0:0:0:40:normal-hitfinish.wav
475,192,118507,1,0,0:0:0:40:normal-hitwhistle.wav
36,192,118674,1,2,0:0:0:0:
109,192,118757,1,2,0:0:0:0:
182,192,118840,1,2,0:0:0:0:
402,192,119007,1,2,0:0:0:0:
329,192,119174,1,8,0:0:0:0:
182,192,119174,1,8,0:0:0:0:
109,192,119507,1,2,0:0:0:0:
402,192,119507,1,2,0:0:0:0:
109,192,119674,1,2,0:0:0:0:
402,192,119674,1,2,0:0:0:0:
36,192,119840,1,8,0:0:0:0:
475,192,119840,1,8,0:0:0:0:
109,192,120174,1,2,0:0:0:0:
402,192,120174,1,2,0:0:0:0:
402,192,120340,1,2,0:0:0:0:
109,192,120340,1,2,0:0:0:0:
182,192,120507,1,8,0:0:0:0:
329,192,120507,1,8,0:0:0:0:
36,192,120840,1,2,0:0:0:0:
475,192,120840,1,2,0:0:0:0:
475,192,121007,1,2,0:0:0:0:
36,192,121007,1,2,0:0:0:0:
182,192,121174,1,8,0:0:0:0:
329,192,121174,1,8,0:0:0:0:
475,192,121340,1,2,0:0:0:0:
402,192,121424,1,2,0:0:0:0:
329,192,121507,1,2,0:0:0:0:
475,192,121674,1,2,0:0:0:0:
36,192,121674,1,2,0:0:0:0:
182,192,121840,1,8,0:0:0:0:
329,192,121840,1,8,0:0:0:0:
402,192,122174,1,2,0:0:0:0:
109,192,122174,1,2,0:0:0:0:
109,192,122340,1,2,0:0:0:0:
402,192,122340,1,2,0:0:0:0:
36,192,122507,1,8,0:0:0:0:
475,192,122507,1,8,0:0:0:0:
402,192,122674,1,2,0:0:0:0:
256,192,122757,1,2,0:0:0:0:
109,192,122840,1,2,0:0:0:0:
182,192,123007,1,2,0:0:0:0:
329,192,123007,1,2,0:0:0:0:
109,192,123174,1,10,0:0:0:0:
475,192,123174,1,0,0:0:0:55:drum-hitfinish.wav
36,192,123507,1,4,0:0:0:0:
256,192,123507,1,2,0:0:0:0:
475,192,123507,1,6,0:0:0:0:
182,192,123840,1,4,0:0:0:0:
36,192,123840,1,8,0:0:0:0:
402,192,124007,1,2,0:0:0:0:
402,192,124174,1,2,0:0:0:0:
182,192,124174,1,4,0:0:0:0:
402,192,124340,1,2,0:0:0:0:
109,192,124340,1,2,0:0:0:0:
182,192,124507,1,4,0:0:0:0:
36,192,124507,1,8,0:0:0:0:
109,192,124840,1,2,0:0:0:0:
475,192,124840,1,4,0:0:0:0:
402,192,125007,1,2,0:0:0:0:
109,192,125007,1,2,0:0:0:0:
475,192,125174,1,8,0:0:0:0:
329,192,125174,1,4,0:0:0:0:
109,192,125507,1,2,0:0:0:0:
329,192,125507,1,4,0:0:0:0:
402,192,125674,1,2,0:0:0:0:
182,192,125674,1,2,0:0:0:0:
329,192,125840,1,4,0:0:0:0:
475,192,125840,1,8,0:0:0:0:
36,192,126174,1,4,0:0:0:0:
475,192,126174,1,2,0:0:0:0:
36,192,126507,1,8,0:0:0:0:
329,192,126507,1,4,0:0:0:0:
109,192,126840,1,4,0:0:0:0:
402,192,126840,1,2,0:0:0:0:
109,192,127007,1,2,0:0:0:0:
402,192,127007,1,2,0:0:0:0:
329,192,127174,1,4,0:0:0:0:
36,192,127174,1,8,0:0:0:0:
36,192,127507,1,2,0:0:0:0:
475,192,127507,1,4,0:0:0:0:
256,192,127674,1,2,0:0:0:0:
109,192,127674,1,2,0:0:0:0:
182,192,127840,1,4,0:0:0:0:
475,192,127840,1,8,0:0:0:0:
402,192,128007,1,2,0:0:0:0:
256,192,128007,1,2,0:0:0:0:
329,192,128174,1,8,0:0:0:0:
182,192,128174,1,8,0:0:0:0:
109,192,128340,1,2,0:0:0:0:
402,192,128340,1,2,0:0:0:0:
329,192,128507,1,0,0:0:0:35:soft-hitnormal.wav
36,192,128507,1,0,0:0:0:35:soft-hitnormal.wav
36,192,128840,1,4,0:0:0:0:
256,192,128840,1,2,0:0:0:0:
475,192,128840,1,2,0:0:0:0:
182,192,129174,1,8,0:0:0:0:
329,192,129174,1,8,0:0:0:0:
475,192,129507,1,2,0:0:0:0:
36,192,129507,1,2,0:0:0:0:
475,192,129674,1,2,0:0:0:0:
36,192,129674,1,2,0:0:0:0:
182,192,129840,1,8,0:0:0:0:
329,192,129840,1,8,0:0:0:0:
475,192,130007,1,2,0:0:0:0:
402,192,130090,1,2,0:0:0:0:
329,192,130174,1,2,0:0:0:0:
182,192,130507,1,8,0:0:0:0:
329,192,130507,1,8,0:0:0:0:
36,192,130840,1,2,0:0:0:0:
475,192,130840,1,2,0:0:0:0:
475,192,131007,1,2,0:0:0:0:
36,192,131007,1,2,0:0:0:0:
182,192,131174,1,8,0:0:0:0:
329,192,131174,1,8,0:0:0:0:
36,192,131507,1,2,0:0:0:0:
475,192,131507,1,2,0:0:0:0:
475,192,131674,1,2,0:0:0:0:
36,192,131674,1,2,0:0:0:0:
109,192,131840,1,8,0:0:0:0:
402,192,131840,1,8,0:0:0:0:
182,192,132007,1,2,0:0:0:0:
256,192,132090,1,2,0:0:0:0:
329,192,132174,1,2,0:0:0:0:
36,192,132340,1,2,0:0:0:0:
475,192,132340,1,2,0:0:0:0:
402,192,132507,1,8,0:0:0:0:
109,192,132507,1,8,0:0:0:0:
36,192,132840,1,2,0:0:0:0:
475,192,132840,1,2,0:0:0:0:
475,192,133007,1,2,0:0:0:0:
36,192,133007,1,2,0:0:0:0:
109,192,133174,1,8,0:0:0:0:
402,192,133174,1,8,0:0:0:0:
36,192,133507,1,2,0:0:0:0:
475,192,133507,1,2,0:0:0:0:
475,192,133674,1,2,0:0:0:0:
36,192,133674,1,2,0:0:0:0:
109,192,133840,1,0,0:0:0:90:soft-hitclap.wav
402,192,133840,1,0,0:0:0:90:soft-hitclap.wav
36,192,134174,1,4,0:0:0:0:
256,192,134174,1,2,0:0:0:0:
475,192,134174,1,2,0:0:0:0:
329,192,134507,1,8,0:0:0:0:
475,192,134507,1,4,0:0:0:0:
475,192,134840,1,4,0:0:0:0:
109,192,134840,1,2,0:0:0:0:
109,192,135007,1,2,0:0:0:0:
402,192,135007,1,2,0:0:0:0:
475,192,135174,1,4,0:0:0:0:
329,192,135174,1,8,0:0:0:0:
256,192,135507,1,2,0:0:0:0:
36,192,135507,1,4,0:0:0:0:
475,192,135840,1,4,0:0:0:0:
329,192,135840,1,8,0:0:0:0:
475,192,136174,1,4,0:0:0:0:
109,192,136174,1,2,0:0:0:0:
109,192,136340,1,2,0:0:0:0:
402,192,136340,1,2,0:0:0:0:
475,192,136507,1,4,0:0:0:0:
329,192,136507,1,8,0:0:0:0:
36,192,136840,1,4,0:0:0:0:
475,192,136840,1,2,0:0:0:0:
182,192,137174,1,4,0:0:0:0:
329,192,137174,1,8,0:0:0:0:
109,192,137507,1,4,0:0:0:0:
402,192,137507,1,2,0:0:0:0:
402,192,137674,1,2,0:0:0:0:
109,192,137674,1,2,0:0:0:0:
36,192,137840,1,4,0:0:0:0:
475,192,137840,1,8,0:0:0:0:
402,192,138007,1,2,0:0:0:0:
109,192,138007,1,2,0:0:0:0:
182,192,138132,1,8,0:0:0:0:
329,192,138174,1,8,0:0:0:0:
109,192,138340,1,2,0:0:0:0:
402,192,138340,1,2,0:0:0:0:
182,192,138840,1,0,0:0:0:0:
36,192,138840,1,0,0:0:0:0:
402,192,139174,1,8,0:0:0:0:
109,192,139174,1,8,0:0:0:0:
329,192,139174,1,2,0:0:0:0:
36,192,139507,1,4,0:0:0:0:
256,192,139507,1,2,0:0:0:0:
475,192,139507,1,2,0:0:0:0:
182,192,139840,1,4,0:0:0:0:
329,192,139840,1,8,0:0:0:0:
36,192,140174,1,4,0:0:0:0:
402,192,140174,1,2,0:0:0:0:
402,192,140340,1,2,0:0:0:0:
109,192,140340,1,2,0:0:0:0:
182,192,140507,1,4,0:0:0:0:
329,192,140507,1,8,0:0:0:0:
256,192,140840,1,2,0:0:0:0:
475,192,140840,1,4,0:0:0:0:
329,192,141174,1,4,0:0:0:0:
182,192,141174,1,8,0:0:0:0:
402,192,141507,1,2,0:0:0:0:
36,192,141507,1,4,0:0:0:0:
109,192,141674,1,2,0:0:0:0:
402,192,141674,1,2,0:0:0:0:
182,192,141840,1,8,0:0:0:0:
329,192,141840,1,4,0:0:0:0:
256,192,142174,1,2,0:0:0:0:
36,192,142174,1,4,0:0:0:0:
182,192,142507,1,8,0:0:0:0:
475,192,142507,1,4,0:0:0:0:
36,192,142840,1,4,0:0:0:0:
402,192,142840,1,2,0:0:0:0:
109,192,143007,1,2,0:0:0:0:
402,192,143007,1,2,0:0:0:0:
182,192,143174,1,8,0:0:0:0:
475,192,143174,1,4,0:0:0:0:
36,192,143507,1,4,0:0:0:0:
475,192,143507,1,2,0:0:0:0:
36,192,143840,1,4,0:0:0:0:
182,192,143840,1,8,0:0:0:0:
402,192,144007,1,0,0:0:0:40:soft-hitclap.wav
36,192,144007,1,8,0:0:0:0:
475,192,144174,1,4,0:0:0:0:
109,192,144174,1,2,0:0:0:0:
402,192,144340,1,2,0:0:0:0:
109,192,144340,1,2,0:0:0:0:
182,192,144507,1,8,0:0:0:0:
36,192,144507,1,4,0:0:0:0:
402,192,144674,1,2,0:0:0:0:
109,192,144674,1,2,0:0:0:0:
475,192,144840,1,2,0:0:0:0:
256,192,144840,1,4,0:0:0:0:
329,192,145174,1,8,0:0:0:0:
36,192,145174,1,4,0:0:0:0:
475,192,145507,1,4,0:0:0:0:
109,192,145507,1,2,0:0:0:0:
256,192,145674,1,2,0:0:0:0:
402,192,145674,1,2,0:0:0:0:
182,192,145840,1,8,0:0:0:0:
36,192,145840,1,4,0:0:0:0:
36,192,146174,1,4,0:0:0:0:
256,192,146174,1,2,0:0:0:0:
329,192,146507,1,8,0:0:0:0:
36,192,146507,1,4,0:0:0:0:
109,192,146840,1,4,0:0:0:0:
475,192,146840,1,2,0:0:0:0:
256,192,147007,1,2,0:0:0:0:
402,192,147007,1,2,0:0:0:0:
182,192,147174,1,4,0:0:0:0:
36,192,147174,1,8,0:0:0:0:
256,192,147507,1,2,0:0:0:0:
475,192,147507,1,4,0:0:0:0:
329,192,147840,1,4,0:0:0:0:
36,192,147840,1,8,0:0:0:0:
109,192,148174,1,2,0:0:0:0:
475,192,148174,1,4,0:0:0:0:
402,192,148340,1,2,0:0:0:0:
256,192,148340,1,2,0:0:0:0:
182,192,148507,1,4,0:0:0:0:
36,192,148507,1,8,0:0:0:0:
109,192,148840,1,4,0:0:0:0:
402,192,148840,1,2,0:0:0:0:
182,192,149174,1,8,0:0:0:0:
329,192,149174,1,4,0:0:0:0:
109,192,149507,1,4,0:0:0:0:
402,192,149507,1,2,0:0:0:0:
475,192,149674,1,2,0:0:0:0:
36,192,149674,1,2,0:0:0:0:
182,192,149840,1,8,0:0:0:0:
329,192,149840,1,8,0:0:0:0:
256,192,150174,1,2,0:0:0:0:
36,192,150174,1,4,0:0:0:0:
475,192,150174,1,2,0:0:0:0:
329,192,150507,1,4,0:0:0:0:
402,192,150507,1,8,0:0:0:0:
256,192,150840,1,2,0:0:0:0:
36,192,150840,1,4,0:0:0:0:
109,192,151007,1,2,0:0:0:0:
402,192,151007,1,2,0:0:0:0:
329,192,151174,1,4,0:0:0:0:
475,192,151174,1,8,0:0:0:0:
256,192,151507,1,2,0:0:0:0:
36,192,151507,1,4,0:0:0:0:
329,192,151840,1,4,0:0:0:0:
402,192,151840,1,8,0:0:0:0:
36,192,152174,1,4,0:0:0:0:
256,192,152174,1,2,0:0:0:0:
109,192,152340,1,2,0:0:0:0:
402,192,152340,1,2,0:0:0:0:
329,192,152507,1,4,0:0:0:0:
475,192,152507,1,8,0:0:0:0:
256,192,152840,1,2,0:0:0:0:
475,192,152840,1,4,0:0:0:0:
182,192,153174,1,4,0:0:0:0:
402,192,153174,1,8,0:0:0:0:
36,192,153507,1,4,0:0:0:0:
475,192,153507,1,2,0:0:0:0:
109,192,153674,1,2,0:0:0:0:
475,192,153674,1,2,0:0:0:0:
182,192,153840,1,4,0:0:0:0:
402,192,153840,1,8,0:0:0:0:
36,192,154174,1,4,0:0:0:0:
256,192,154174,1,2,0:0:0:0:
402,192,154507,1,8,0:0:0:0:
182,192,154507,1,4,0:0:0:0:
475,192,154840,1,4,0:0:0:0:
36,192,154840,1,2,0:0:0:0:
475,192,155007,1,2,0:0:0:0:
109,192,155007,1,2,0:0:0:0:
402,192,155174,1,8,0:0:0:0:
182,192,155174,1,4,0:0:0:0:
36,192,155507,1,4,0:0:0:0:
256,192,155507,1,2,0:0:0:0:
475,192,155507,1,2,0:0:0:0:
182,192,155840,1,4,0:0:0:0:
329,192,155840,1,8,0:0:0:0:
109,192,156174,1,4,0:0:0:0:
402,192,156174,1,2,0:0:0:0:
329,192,156340,1,2,0:0:0:0:
109,192,156340,1,2,0:0:0:0:
36,192,156507,1,8,0:0:0:0:
182,192,156507,1,4,0:0:0:0:
329,192,156840,1,0,0:0:0:70:drum-hitfinish.wav
109,192,156840,1,2,0:0:0:0:
329,192,157174,1,4,0:0:0:0:
182,192,157174,1,8,0:0:0:0:
402,192,157507,1,4,0:0:0:0:
109,192,157507,1,2,0:0:0:0:
329,192,157674,1,2,0:0:0:0:
109,192,157674,1,2,0:0:0:0:
182,192,157840,1,4,0:0:0:0:
36,192,157840,1,8,0:0:0:0:
182,192,158174,1,0,0:0:0:70:drum-hitfinish.wav
402,192,158174,1,2,0:0:0:0:
329,192,158507,1,8,0:0:0:0:
475,192,158507,1,4,0:0:0:0:
109,192,158840,1,2,0:0:0:0:
329,192,158840,1,4,0:0:0:0:
402,192,159007,1,2,0:0:0:0:
109,192,159007,1,2,0:0:0:0:
329,192,159174,1,8,0:0:0:0:
475,192,159174,1,4,0:0:0:0:
256,192,159507,1,2,0:0:0:0:
36,192,159507,1,4,0:0:0:0:
182,192,159840,1,8,0:0:0:0:
36,192,159840,1,4,0:0:0:0:
402,192,160174,1,2,0:0:0:0:
36,192,160174,1,4,0:0:0:0:
402,192,160340,1,2,0:0:0:0:
109,192,160340,1,2,0:0:0:0:
475,192,160507,1,8,0:0:0:0:
182,192,160507,1,8,0:0:0:0:
109,192,160840,1,0,0:0:0:40:normal-hitwhistle.wav
402,192,160840,1,0,0:0:0:40:normal-hitwhistle.wav
182,192,161174,1,0,0:0:0:25:normal-hitfinish.wav
402,192,161174,1,0,0:0:0:30:normal-hitfinish.wav
329,192,161340,1,0,0:0:0:25:normal-hitwhistle.wav
36,192,161340,1,0,0:0:0:30:normal-hitfinish.wav
256,192,161507,1,2,0:0:0:0:
109,192,161674,1,0,0:0:0:25:normal-hitfinish.wav
402,192,161840,1,0,0:0:0:30:normal-hitwhistle.wav
182,192,161840,1,0,0:0:0:30:normal-hitwhistle.wav
36,192,162174,1,0,0:0:0:25:normal-hitfinish.wav
109,192,162174,1,0,0:0:0:30:normal-hitfinish.wav
182,192,162340,1,0,0:0:0:25:normal-hitwhistle.wav
402,192,162340,1,0,0:0:0:30:normal-hitwhistle.wav
109,192,162674,1,2,0:0:0:0:
329,192,162674,1,2,0:0:0:0:
256,192,162840,1,2,0:0:0:0:
402,192,162840,1,2,0:0:0:0:
329,192,163007,1,0,0:0:0:25:normal-hitfinish.wav
256,192,163174,1,0,0:0:0:30:normal-hitwhistle.wav
109,192,163174,1,0,0:0:0:30:normal-hitwhistle.wav
109,192,163340,1,2,0:0:0:0:
256,192,163507,1,0,0:0:0:25:normal-hitwhistle.wav
475,192,163507,1,0,0:0:0:55:drum-hitfinish.wav
475,192,163840,1,0,0:0:0:30:normal-hitfinish.wav
329,192,163840,1,0,0:0:0:30:normal-hitfinish.wav
182,192,164007,1,0,0:0:0:30:normal-hitwhistle.wav
402,192,164007,1,0,0:0:0:0:
256,192,164174,1,0,0:0:0:25:normal-hitfinish.wav
109,192,164340,1,2,0:0:0:0:
182,192,164507,1,0,0:0:0:30:normal-hitfinish.wav
402,192,164507,1,0,0:0:0:30:normal-hitfinish.wav
256,192,164840,1,2,0:0:0:0:
109,192,164840,1,2,0:0:0:0:
475,192,165007,1,0,0:0:0:30:normal-hitfinish.wav
182,192,165007,1,0,0:0:0:0:
329,192,165174,1,0,0:0:0:25:normal-hitwhistle.wav
402,192,165340,1,2,0:0:0:0:
182,192,165507,1,0,0:0:0:25:normal-hitfinish.wav
36,192,165507,1,0,0:0:0:30:normal-hitfinish.wav
109,192,165674,1,2,0:0:0:0:
329,192,165840,1,0,0:0:0:30:normal-hitfinish.wav
475,192,165840,1,0,0:0:0:30:normal-hitfinish.wav
402,192,166007,1,0,0:0:0:25:normal-hitwhistle.wav
329,192,166174,1,10,0:0:0:0:
36,192,166174,1,0,0:0:0:40:drum-hitfinish.wav
109,192,166507,1,2,0:0:0:0:
329,192,166674,1,0,0:0:0:25:normal-hitfinish.wav
36,192,166674,1,0,0:0:0:30:normal-hitfinish.wav
182,192,166840,1,0,0:0:0:25:normal-hitwhistle.wav
402,192,167007,1,2,0:0:0:0:
256,192,167174,1,0,0:0:0:30:normal-hitfinish.wav
475,192,167174,1,0,0:0:0:30:normal-hitfinish.wav
109,192,167396,1,2,0:0:0:0:
182,192,167452,1,2,0:0:0:0:
329,192,167674,1,0,0:0:0:25:normal-hitfinish.wav
256,192,168007,1,2,0:0:0:0:
402,192,168174,1,8,0:0:0:0:
36,192,168174,1,8,0:0:0:0:
109,192,168507,1,12,0:0:0:0:
402,192,168507,1,8,0:0:0:0:
475,192,168840,1,0,0:0:0:35:soft-hitfinish.wav
256,192,168840,1,6,0:0:0:0:
109,192,169174,1,2,0:0:0:0:
256,192,169340,1,0,0:0:0:25:normal-hitfinish.wav
475,192,169340,1,0,0:0:0:30:normal-hitfinish.wav
109,192,169507,1,2,0:0:0:0:
402,192,169674,1,2,0:0:0:0:
256,192,169840,1,0,0:0:0:25:normal-hitwhistle.wav
36,192,169840,1,2,0:0:0:40:drum-hitfinish.wav
109,192,170174,1,2,0:0:0:0:
402,192,170340,1,0,0:0:0:30:normal-hitfinish.wav
475,192,170340,1,0,0:0:0:30:normal-hitfinish.wav
256,192,170507,1,0,0:0:0:25:normal-hitwhistle.wav
182,192,170674,1,0,0:0:0:25:normal-hitwhistle.wav
36,192,170840,1,12,0:0:0:0:
402,192,170840,1,8,0:0:0:0:
109,192,171174,1,12,0:0:0:0:
402,192,171174,1,8,0:0:0:0:
36,192,171507,1,4,0:0:0:0:
256,192,171507,1,2,0:0:0:0:
475,192,171507,1,2,0:0:0:0:
36,192,171840,1,4,0:0:0:0:
329,192,171840,1,8,0:0:0:0:
475,192,172174,1,2,0:0:0:0:
36,192,172174,1,4,0:0:0:0:
402,192,172340,1,2,0:0:0:0:
36,192,172340,1,2,0:0:0:0:
329,192,172507,1,4,0:0:0:0:
475,192,172507,1,8,0:0:0:0:
256,192,172840,1,2,0:0:0:0:
182,192,172840,1,4,0:0:0:0:
182,192,173007,1,2,0:0:0:0:
402,192,173007,1,2,0:0:0:0:
329,192,173174,1,8,0:0:0:0:
36,192,173174,1,4,0:0:0:0:
475,192,173507,1,2,0:0:0:0:
36,192,173507,1,4,0:0:0:0:
402,192,173674,1,2,0:0:0:0:
109,192,173674,1,2,0:0:0:0:
329,192,173840,1,8,0:0:0:0:
36,192,173840,1,4,0:0:0:0:
256,192,174174,1,2,0:0:0:0:
475,192,174174,1,4,0:0:0:0:
182,192,174507,1,8,0:0:0:0:
475,192,174507,1,4,0:0:0:0:
36,192,174840,1,2,0:0:0:0:
475,192,174840,1,4,0:0:0:0:
402,192,175007,1,2,0:0:0:0:
109,192,175007,1,2,0:0:0:0:
182,192,175174,1,8,0:0:0:0:
475,192,175174,1,4,0:0:0:0:
256,192,175507,1,2,0:0:0:0:
475,192,175507,1,4,0:0:0:0:
109,192,175674,1,2,0:0:0:0:
402,192,175674,1,2,0:0:0:0:
475,192,175840,1,4,0:0:0:0:
182,192,175840,1,8,0:0:0:0:
36,192,176174,1,2,0:0:0:0:
475,192,176174,1,4,0:0:0:0:
402,192,176340,1,2,0:0:0:0:
109,192,176340,1,2,0:0:0:0:
182,192,176507,1,8,0:0:0:0:
475,192,176507,1,4,0:0:0:0:
36,192,176840,1,4,0:0:0:0:
475,192,176840,1,2,0:0:0:0:
182,192,177174,1,4,0:0:0:0:
329,192,177174,1,8,0:0:0:0:
402,192,177507,1,2,0:0:0:0:
36,192,177507,1,4,0:0:0:0:
109,192,177674,1,2,0:0:0:0:
402,192,177674,1,2,0:0:0:0:
182,192,177840,1,4,0:0:0:0:
329,192,177840,1,8,0:0:0:0:
256,192,178174,1,2,0:0:0:0:
36,192,178174,1,4,0:0:0:0:
402,192,178340,1,2,0:0:0:0:
109,192,178340,1,2,0:0:0:0:
182,192,178507,1,4,0:0:0:0:
329,192,178507,1,8,0:0:0:0:
36,192,178840,1,4,0:0:0:0:
402,192,178840,1,2,0:0:0:0:
402,192,179007,1,2,0:0:0:0:
109,192,179007,1,2,0:0:0:0:
182,192,179174,1,4,0:0:0:0:
329,192,179174,1,8,0:0:0:0:
475,192,179507,1,4,0:0:0:0:
256,192,179507,1,2,0:0:0:0:
402,192,179674,1,2,0:0:0:0:
109,192,179674,1,2,0:0:0:0:
329,192,179840,1,4,0:0:0:0:
182,192,179840,1,8,0:0:0:0:
109,192,180174,1,2,0:0:0:0:
475,192,180174,1,4,0:0:0:0:
402,192,180340,1,2,0:0:0:0:
109,192,180340,1,2,0:0:0:0:
329,192,180507,1,4,0:0:0:0:
182,192,180507,1,8,0:0:0:0:
36,192,180840,1,2,0:0:0:0:
475,192,180840,1,4,0:0:0:0:
109,192,181007,1,2,0:0:0:0:
402,192,181007,1,2,0:0:0:0:
329,192,181174,1,8,0:0:0:0:
182,192,181174,1,4,0:0:0:0:
36,192,181507,1,2,0:0:0:0:
475,192,181507,1,4,0:0:0:0:
475,192,181674,1,2,0:0:0:0:
36,192,181674,1,2,0:0:0:0:
182,192,181840,1,8,0:0:0:0:
329,192,181840,1,8,0:0:0:0:
36,192,182174,1,4,0:0:0:0:
256,192,182174,1,2,0:0:0:0:
475,192,182174,1,2,0:0:0:0:
182,192,182507,1,8,0:0:0:0:
36,192,182507,1,4,0:0:0:0:
475,192,182840,1,4,0:0:0:0:
36,192,182840,1,2,0:0:0:0:
402,192,183007,1,2,0:0:0:0:
256,192,183007,1,2,0:0:0:0:
109,192,183174,1,4,0:0:0:0:
182,192,183174,1,8,0:0:0:0:
256,192,183507,1,2,0:0:0:0:
36,192,183507,1,4,0:0:0:0:
402,192,183674,1,2,0:0:0:0:
109,192,183674,1,2,0:0:0:0:
36,192,183840,1,4,0:0:0:0:
182,192,183840,1,8,0:0:0:0:
475,192,184174,1,2,0:0:0:0:
36,192,184174,1,4,0:0:0:0:
402,192,184340,1,2,0:0:0:0:
256,192,184340,1,2,0:0:0:0:
182,192,184507,1,8,0:0:0:0:
109,192,184507,1,4,0:0:0:0:
256,192,184840,1,2,0:0:0:0:
475,192,184840,1,4,0:0:0:0:
329,192,185174,1,8,0:0:0:0:
475,192,185174,1,4,0:0:0:0:
36,192,185507,1,2,0:0:0:0:
475,192,185507,1,4,0:0:0:0:
256,192,185674,1,2,0:0:0:0:
109,192,185674,1,2,0:0:0:0:
329,192,185840,1,8,0:0:0:0:
402,192,185840,1,4,0:0:0:0:
256,192,186174,1,2,0:0:0:0:
475,192,186174,1,4,0:0:0:0:
109,192,186340,1,2,0:0:0:0:
402,192,186340,1,2,0:0:0:0:
329,192,186507,1,8,0:0:0:0:
475,192,186507,1,4,0:0:0:0:
36,192,186840,1,2,0:0:0:0:
475,192,186840,1,4,0:0:0:0:
256,192,187007,1,2,0:0:0:0:
109,192,187007,1,2,0:0:0:0:
329,192,187174,1,8,0:0:0:0:
402,192,187174,1,4,0:0:0:0:
36,192,187507,1,4,0:0:0:0:
475,192,187507,1,2,0:0:0:0:
109,192,187840,1,8,0:0:0:0:
329,192,187840,1,4,0:0:0:0:
475,192,188174,1,2,0:0:0:0:
36,192,188174,1,4,0:0:0:0:
402,192,188340,1,2,0:0:0:0:
256,192,188340,1,2,0:0:0:0:
329,192,188507,1,4,0:0:0:0:
109,192,188507,1,8,0:0:0:0:
256,192,188840,1,0,0:0:0:0:
36,192,188840,1,4,0:0:0:0:
182,192,189007,1,2,0:0:0:0:
402,192,189007,1,2,0:0:0:0:
329,192,189174,1,4,0:0:0:0:
109,192,189174,1,8,0:0:0:0:
475,192,189507,1,2,0:0:0:0:
36,192,189507,1,4,0:0:0:0:
402,192,189674,1,2,0:0:0:0:
256,192,189674,1,2,0:0:0:0:
329,192,189840,1,4,0:0:0:0:
109,192,189840,1,8,0:0:0:0:
256,192,190174,1,2,0:0:0:0:
475,192,190174,1,4,0:0:0:0:
402,192,190340,1,2,0:0:0:0:
109,192,190340,1,2,0:0:0:0:
402,192,190507,1,4,0:0:0:0:
182,192,190507,1,8,0:0:0:0:
36,192,190840,1,2,0:0:0:0:
475,192,190840,1,4,0:0:0:0:
256,192,191007,1,2,0:0:0:0:
109,192,191007,1,2,0:0:0:0:
182,192,191174,1,8,0:0:0:0:
402,192,191174,1,8,0:0:0:0:
475,192,191424,1,8,0:0:0:0:
402,192,191507,1,2,0:0:0:0:
256,192,191674,1,2,0:0:0:0:
109,192,191674,1,8,0:0:0:0:
182,192,191840,1,8,0:0:0:0:
402,192,192007,1,8,0:0:0:0:
329,192,192174,1,8,0:0:0:0:
182,192,192340,1,8,0:0:0:0:
109,192,192507,1,8,0:0:0:40:normal-hitwhistle.wav
402,192,192507,1,2,0:0:0:0:
182,192,192674,1,8,0:0:0:0:
329,192,192674,1,8,0:0:0:0:
475,192,192840,1,2,0:0:0:0:
256,192,192840,1,2,0:0:0:0:
36,192,192840,1,4,0:0:0:0:
182,192,193174,1,8,0:0:0:0:
329,192,193174,1,8,0:0:0:0:
109,192,193507,1,2,0:0:0:0:
402,192,193507,1,2,0:0:0:0:
402,192,193674,1,2,0:0:0:0:
109,192,193674,1,2,0:0:0:0:
36,192,193840,1,8,0:0:0:0:
329,192,193840,1,8,0:0:0:0:
109,192,194174,1,2,0:0:0:0:
402,192,194174,1,2,0:0:0:0:
109,192,194340,1,2,0:0:0:0:
402,192,194340,1,2,0:0:0:0:
36,192,194507,1,8,0:0:0:0:
329,192,194507,1,8,0:0:0:0:
109,192,194840,1,2,0:0:0:0:
402,192,194840,1,2,0:0:0:0:
109,192,195007,1,2,0:0:0:0:
402,192,195007,1,2,0:0:0:0:
36,192,195174,1,8,0:0:0:0:
329,192,195174,1,8,0:0:0:0:
256,192,195507,1,2,0:0:0:0:
109,192,195507,1,2,0:0:0:0:
36,192,195840,1,8,0:0:0:0:
329,192,195840,1,8,0:0:0:0:
109,192,196174,1,2,0:0:0:0:
402,192,196174,1,2,0:0:0:0:
109,192,196340,1,2,0:0:0:0:
402,192,196340,1,2,0:0:0:0:
182,192,196507,1,8,0:0:0:0:
475,192,196507,1,8,0:0:0:0:
109,192,196840,1,2,0:0:0:0:
402,192,196840,1,2,0:0:0:0:
402,192,197007,1,2,0:0:0:0:
109,192,197007,1,2,0:0:0:0:
182,192,197174,1,8,0:0:0:0:
475,192,197174,1,8,0:0:0:0:
402,192,197507,1,2,0:0:0:0:
109,192,197507,1,2,0:0:0:0:
109,192,197674,1,2,0:0:0:0:
402,192,197674,1,2,0:0:0:0:
182,192,197840,1,8,0:0:0:0:
475,192,197840,1,8,0:0:0:0:
36,192,198174,1,4,0:0:0:0:
256,192,198174,1,2,0:0:0:0:
475,192,198174,1,2,0:0:0:0:
109,192,198507,1,8,0:0:0:0:
329,192,198507,1,4,0:0:0:0:
182,192,198840,1,4,0:0:0:0:
402,192,198840,1,2,0:0:0:0:
402,192,199007,1,2,0:0:0:0:
256,192,199007,1,2,0:0:0:0:
109,192,199174,1,8,0:0:0:0:
329,192,199174,1,4,0:0:0:0:
256,192,199507,1,2,0:0:0:0:
475,192,199507,1,4,0:0:0:0:
402,192,199674,1,2,0:0:0:0:
256,192,199674,1,2,0:0:0:0:
402,192,199840,1,8,0:0:0:0:
182,192,199840,1,4,0:0:0:0:
109,192,200174,1,2,0:0:0:0:
329,192,200174,1,4,0:0:0:0:
256,192,200340,1,2,0:0:0:0:
109,192,200340,1,2,0:0:0:0:
182,192,200507,1,4,0:0:0:0:
402,192,200507,1,8,0:0:0:0:
256,192,200840,1,2,0:0:0:0:
36,192,200840,1,4,0:0:0:0:
109,192,201174,1,4,0:0:0:0:
329,192,201174,1,8,0:0:0:0:
402,192,201507,1,2,0:0:0:0:
182,192,201507,1,4,0:0:0:0:
256,192,201674,1,2,0:0:0:0:
402,192,201674,1,2,0:0:0:0:
109,192,201840,1,4,0:0:0:0:
329,192,201840,1,8,0:0:0:0:
256,192,202174,1,2,0:0:0:0:
475,192,202174,1,4,0:0:0:0:
402,192,202340,1,2,0:0:0:0:
256,192,202340,1,2,0:0:0:0:
329,192,202507,1,4,0:0:0:0:
109,192,202507,1,8,0:0:0:0:
109,192,202674,1,2,0:0:0:0:
402,192,202674,1,2,0:0:0:0:
182,192,202840,1,0,0:0:0:50:soft-hitclap.wav
329,192,202840,1,0,0:0:0:50:soft-hitclap.wav
36,192,202840,1,0,0:0:0:50:soft-hitclap.wav
256,192,203007,1,2,0:0:0:0:
109,192,203174,1,0,0:0:0:0:
329,192,203174,1,0,0:0:0:0:
256,192,203507,1,2,0:0:0:0:
475,192,203507,1,2,0:0:0:0:
36,192,203507,1,4,0:0:0:0:
402,192,203840,1,8,0:0:0:0:
109,192,203840,1,8,0:0:0:0:
475,192,204174,1,2,0:0:0:0:
36,192,204174,1,2,0:0:0:0:
36,192,204340,1,2,0:0:0:0:
475,192,204340,1,2,0:0:0:0:
402,192,204507,1,8,0:0:0:0:
109,192,204507,1,8,0:0:0:0:
182,192,204840,1,2,0:0:0:0:
329,192,204840,1,2,0:0:0:0:
329,192,205007,1,2,0:0:0:0:
182,192,205007,1,2,0:0:0:0:
402,192,205174,1,8,0:0:0:0:
109,192,205174,1,8,0:0:0:0:
475,192,205507,1,2,0:0:0:0:
36,192,205507,1,2,0:0:0:0:
475,192,205674,1,2,0:0:0:0:
36,192,205674,1,2,0:0:0:0:
402,192,205840,1,8,0:0:0:0:
109,192,205840,1,8,0:0:0:0:
402,192,206174,1,2,0:0:0:0:
256,192,206174,1,2,0:0:0:0:
182,192,206507,1,8,0:0:0:0:
36,192,206507,1,8,0:0:0:0:
109,192,206840,1,2,0:0:0:0:
402,192,206840,1,2,0:0:0:0:
402,192,207007,1,2,0:0:0:0:
109,192,207007,1,2,0:0:0:0:
182,192,207174,1,8,0:0:0:0:
329,192,207174,1,8,0:0:0:0:
109,192,207507,1,2,0:0:0:0:
402,192,207507,1,2,0:0:0:0:
109,192,207674,1,2,0:0:0:0:
402,192,207674,1,2,0:0:0:0:
475,192,207840,1,8,0:0:0:0:
36,192,207840,1,8,0:0:0:0:
109,192,208174,1,2,0:0:0:0:
402,192,208174,1,2,0:0:0:0:
402,192,208340,1,2,0:0:0:0:
109,192,208340,1,2,0:0:0:0:
182,192,208507,1,8,0:0:0:0:
329,192,208507,1,8,0:0:0:0:
36,192,208840,1,4,0:0:0:0:
256,192,208840,1,2,0:0:0:0:
475,192,208840,1,2,0:0:0:0:
182,192,209174,1,4,0:0:0:0:
402,192,209174,1,8,0:0:0:0:
36,192,209507,1,4,0:0:0:0:
402,192,209507,1,2,0:0:0:0:
109,192,209674,1,2,0:0:0:0:
256,192,209674,1,2,0:0:0:0:
182,192,209840,1,4,0:0:0:0:
402,192,209840,1,8,0:0:0:0:
256,192,210174,1,2,0:0:0:0:
36,192,210174,1,4,0:0:0:0:
109,192,210507,1,8,0:0:0:0:
329,192,210507,1,4,0:0:0:0:
475,192,210840,1,4,0:0:0:0:
109,192,210840,1,2,0:0:0:0:
256,192,211007,1,2,0:0:0:0:
402,192,211007,1,2,0:0:0:0:
109,192,211174,1,8,0:0:0:0:
329,192,211174,1,4,0:0:0:0:
36,192,211507,1,2,0:0:0:0:
475,192,211507,1,4,0:0:0:0:
329,192,211840,1,8,0:0:0:0:
182,192,211840,1,4,0:0:0:0:
36,192,212090,1,8,0:0:0:0:
109,192,212174,1,2,0:0:0:0:
402,192,212340,1,8,0:0:0:0:
329,192,212340,1,8,0:0:0:0:
256,192,212507,1,2,0:0:0:0:
109,192,212674,1,8,0:0:0:0:
182,192,212674,1,8,0:0:0:0:
402,192,212799,1,2,0:0:0:0:
182,192,212840,1,8,0:0:0:0:
475,192,212840,1,8,0:0:0:0:
36,192,224840,5,4,0:0:0:0:
475,192,224840,1,2,0:0:0:0:
182,192,225174,1,4,0:0:0:0:
329,192,225174,1,8,0:0:0:0:
402,192,225507,1,2,0:0:0:0:
36,192,225507,1,4,0:0:0:0:
402,192,225674,1,2,0:0:0:0:
329,192,225840,1,8,0:0:0:0:
182,192,225840,1,4,0:0:0:0:
256,192,226174,1,2,0:0:0:0:
475,192,226174,1,4,0:0:0:0:
329,192,226507,1,4,0:0:0:0:
182,192,226507,1,8,0:0:0:0:
109,192,226840,1,2,0:0:0:0:
475,192,226840,1,4,0:0:0:0:
109,192,227007,1,2,0:0:0:0:
182,192,227174,1,8,0:0:0:0:
329,192,227174,1,4,0:0:0:0:
256,192,227507,1,2,0:0:0:0:
36,192,227507,1,4,0:0:0:0:
329,192,227840,1,8,0:0:0:0:
475,192,227840,1,4,0:0:0:0:
36,192,228174,1,4,0:0:0:0:
256,192,228174,1,2,0:0:0:0:
109,192,228340,1,2,0:0:0:0:
329,192,228507,1,8,0:0:0:0:
402,192,228507,1,4,0:0:0:0:
256,192,228840,1,2,0:0:0:0:
475,192,228840,1,4,0:0:0:0:
182,192,229174,1,8,0:0:0:0:
36,192,229174,1,4,0:0:0:0:
475,192,229507,1,4,0:0:0:0:
256,192,229507,1,2,0:0:0:0:
402,192,229674,1,2,0:0:0:0:
182,192,229840,1,4,0:0:0:0:
109,192,229840,1,8,0:0:0:0:
36,192,230174,1,4,0:0:0:0:
475,192,230174,1,2,0:0:0:0:
182,192,230507,1,4,0:0:0:0:
402,192,230507,1,8,0:0:0:0:
109,192,230840,1,2,0:0:0:0:
329,192,230840,1,4,0:0:0:0:
109,192,231007,1,2,0:0:0:0:
402,192,231174,1,8,0:0:0:0:
182,192,231174,1,4,0:0:0:0:
256,192,231507,1,2,0:0:0:0:
475,192,231507,1,4,0:0:0:0:
329,192,231840,1,4,0:0:0:0:
109,192,231840,1,8,0:0:0:0:
402,192,232174,1,2,0:0:0:0:
182,192,232174,1,4,0:0:0:0:
402,192,232340,1,2,0:0:0:0:
329,192,232507,1,4,0:0:0:0:
109,192,232507,1,8,0:0:0:0:
256,192,232840,1,2,0:0:0:0:
36,192,232840,1,4,0:0:0:0:
475,192,233174,1,4,0:0:0:0:
329,192,233174,1,8,0:0:0:0:
402,192,233507,1,2,0:0:0:0:
36,192,233507,1,4,0:0:0:0:
402,192,233674,1,2,0:0:0:0:
182,192,233840,1,4,0:0:0:0:
36,192,233840,1,8,0:0:0:0:
402,192,234007,1,2,0:0:0:0:
109,192,234007,1,2,0:0:0:0:
182,192,234174,1,8,0:0:0:0:
329,192,234174,1,8,0:0:0:0:
256,192,234340,1,2,0:0:0:0:
256,192,234674,1,2,0:0:0:0:
256,192,235007,1,2,0:0:0:0:
402,192,235174,1,8,0:0:0:0:
109,192,235174,1,8,0:0:0:0:
36,192,235507,1,4,0:0:0:0:
256,192,235507,1,2,0:0:0:0:
475,192,235507,1,2,0:0:0:0:
329,192,235840,1,8,0:0:0:0:
109,192,235840,1,8,0:0:0:0:
256,192,236174,1,2,0:0:0:0:
402,192,236174,1,2,0:0:0:0:
256,192,236340,1,2,0:0:0:0:
402,192,236340,1,2,0:0:0:0:
109,192,236507,1,8,0:0:0:0:
329,192,236507,1,8,0:0:0:0:
256,192,236840,1,2,0:0:0:0:
329,192,237174,1,8,0:0:0:0:
109,192,237174,1,8,0:0:0:0:
256,192,237507,1,2,0:0:0:0:
402,192,237507,1,2,0:0:0:0:
256,192,237674,1,2,0:0:0:0:
402,192,237674,1,2,0:0:0:0:
109,192,237840,1,8,0:0:0:0:
329,192,237840,1,8,0:0:0:0:
256,192,238174,1,2,0:0:0:0:
182,192,238507,1,8,0:0:0:0:
36,192,238507,1,8,0:0:0:0:
402,192,238840,1,2,0:0:0:0:
109,192,238840,1,2,0:0:0:0:
402,192,239007,1,2,0:0:0:0:
109,192,239007,1,2,0:0:0:0:
182,192,239174,1,8,0:0:0:0:
36,192,239174,1,8,0:0:0:0:
109,192,239507,1,2,0:0:0:0:
402,192,239507,1,2,0:0:0:0:
109,192,239674,1,2,0:0:0:0:
402,192,239674,1,2,0:0:0:0:
36,192,239840,1,8,0:0:0:0:
182,192,239840,1,8,0:0:0:0:
109,192,240174,1,2,0:0:0:0:
109,192,240340,1,2,0:0:0:0:
36,192,240507,1,8,0:0:0:0:
182,192,240507,1,8,0:0:0:0:
256,192,240674,1,2,0:0:0:0:
402,192,240674,1,2,0:0:0:0:
256,192,240840,1,2,0:0:0:0:
109,192,240840,1,2,0:0:0:0:
182,192,241174,1,8,0:0:0:0:
109,192,241174,1,8,0:0:0:0:
475,192,241507,1,2,0:0:0:0:
329,192,241507,1,2,0:0:0:0:
475,192,241674,1,2,0:0:0:0:
329,192,241674,1,2,0:0:0:0:
182,192,241840,1,8,0:0:0:0:
36,192,241840,1,8,0:0:0:0:
256,192,242174,1,2,0:0:0:0:
182,192,242507,1,8,0:0:0:0:
109,192,242507,1,8,0:0:0:0:
475,192,242840,1,2,0:0:0:0:
329,192,242840,1,2,0:0:0:0:
475,192,243007,1,2,0:0:0:0:
329,192,243007,1,2,0:0:0:0:
182,192,243174,1,8,0:0:0:0:
36,192,243174,1,8,0:0:0:0:
256,192,243507,1,2,0:0:0:0:
329,192,243840,1,8,0:0:0:0:
402,192,243840,1,8,0:0:0:0:
36,192,244174,1,2,0:0:0:0:
182,192,244174,1,2,0:0:0:0:
36,192,244340,1,2,0:0:0:0:
182,192,244340,1,2,0:0:0:0:
329,192,244507,1,8,0:0:0:0:
475,192,244507,1,8,0:0:0:0:
256,192,244840,1,2,0:0:0:0:
329,192,245174,1,8,0:0:0:0:
402,192,245174,1,8,0:0:0:0:
36,192,245507,1,2,0:0:0:0:
182,192,245507,1,2,0:0:0:0:
36,192,245674,1,2,0:0:0:0:
182,192,245674,1,2,0:0:0:0:
109,192,245840,1,8,0:0:0:0:
402,192,245840,1,8,0:0:0:0:
36,192,246174,1,2,0:0:0:0:
475,192,246174,1,4,0:0:0:0:
109,192,246507,1,8,0:0:0:0:
402,192,246507,1,8,0:0:0:0:
256,192,246840,1,2,0:0:0:0:
36,192,246840,1,2,0:0:0:0:
256,192,247007,1,2,0:0:0:0:
36,192,247007,1,2,0:0:0:0:
402,192,247174,1,8,0:0:0:0:
109,192,247174,1,8,0:0:0:0:
256,192,247507,1,2,0:0:0:0:
402,192,247840,1,8,0:0:0:0:
109,192,247840,1,8,0:0:0:0:
256,192,248174,1,2,0:0:0:0:
36,192,248174,1,2,0:0:0:0:
256,192,248340,1,2,0:0:0:0:
36,192,248340,1,2,0:0:0:0:
109,192,248507,1,8,0:0:0:0:
402,192,248507,1,8,0:0:0:0:
256,192,248840,1,2,0:0:0:0:
329,192,249174,1,8,0:0:0:0:
36,192,249174,1,8,0:0:0:0:
402,192,249507,1,2,0:0:0:0:
109,192,249507,1,2,0:0:0:0:
109,192,249674,1,2,0:0:0:0:
402,192,249674,1,2,0:0:0:0:
182,192,249840,1,8,0:0:0:0:
36,192,249840,1,8,0:0:0:0:
256,192,250174,1,2,0:0:0:0:
109,192,250340,1,2,0:0:0:0:
329,192,250507,1,8,0:0:0:0:
36,192,250507,1,8,0:0:0:0:
402,192,250840,1,2,0:0:0:0:
109,192,250840,1,2,0:0:0:0:
109,192,251007,1,2,0:0:0:0:
402,192,251007,1,2,0:0:0:0:
182,192,251174,1,8,0:0:0:0:
36,192,251174,1,8,0:0:0:0:
36,192,251507,1,0,0:0:0:70:drum-hitfinish.wav
402,192,251507,1,2,0:0:0:0:
182,192,251840,1,8,0:0:0:0:
329,192,251840,1,8,0:0:0:0:
109,192,252174,1,2,0:0:0:0:
256,192,252174,1,2,0:0:0:0:
109,192,252340,1,2,0:0:0:0:
256,192,252340,1,2,0:0:0:0:
329,192,252507,1,8,0:0:0:0:
182,192,252507,1,8,0:0:0:0:
256,192,252840,1,2,0:0:0:0:
475,192,252840,1,0,0:0:0:70:drum-hitfinish.wav
182,192,253174,1,8,0:0:0:0:
329,192,253174,1,8,0:0:0:0:
256,192,253507,1,2,0:0:0:0:
402,192,253507,1,2,0:0:0:0:
256,192,253674,1,2,0:0:0:0:
402,192,253674,1,2,0:0:0:0:
329,192,253840,1,8,0:0:0:0:
182,192,253840,1,8,0:0:0:0:
256,192,254174,1,2,0:0:0:0:
36,192,254174,1,0,0:0:0:70:drum-hitfinish.wav
109,192,254507,1,8,0:0:0:0:
402,192,254507,1,8,0:0:0:0:
402,192,254840,1,2,0:0:0:0:
182,192,254840,1,8,0:0:0:0:
109,192,255007,1,2,0:0:0:0:
256,192,255174,1,2,0:0:0:0:
329,192,255340,1,8,0:0:0:0:
109,192,255340,1,2,0:0:0:0:
402,192,255507,1,2,0:0:0:0:
256,192,255507,1,2,0:0:0:0:
109,192,255674,1,2,0:0:0:0:
36,192,255840,1,8,0:0:0:0:
475,192,255840,1,8,0:0:0:0:
402,192,256007,1,2,0:0:0:0:
182,192,256174,1,8,0:0:0:0:
329,192,256174,1,8,0:0:0:0:
256,192,256340,1,2,0:0:0:0:
109,192,256507,1,8,0:0:0:0:
402,192,256507,1,8,0:0:0:0:
256,192,256674,1,2,0:0:0:0:
256,192,256840,1,2,0:0:0:0:
36,192,256840,1,2,0:0:0:0:
475,192,256840,1,4,0:0:0:0:
182,192,257174,1,8,0:0:0:0:
36,192,257174,1,4,0:0:0:0:
36,192,257507,1,4,0:0:0:0:
402,192,257507,1,2,0:0:0:0:
402,192,257674,1,2,0:0:0:0:
109,192,257674,1,2,0:0:0:0:
36,192,257840,1,4,0:0:0:0:
182,192,257840,1,8,0:0:0:0:
256,192,258174,1,2,0:0:0:0:
36,192,258174,1,4,0:0:0:0:
36,192,258507,1,4,0:0:0:0:
182,192,258507,1,8,0:0:0:0:
36,192,258840,1,4,0:0:0:0:
402,192,258840,1,2,0:0:0:0:
402,192,259007,1,2,0:0:0:0:
109,192,259007,1,2,0:0:0:0:
36,192,259174,1,4,0:0:0:0:
182,192,259174,1,8,0:0:0:0:
256,192,259507,1,2,0:0:0:0:
475,192,259507,1,4,0:0:0:0:
329,192,259840,1,8,0:0:0:0:
475,192,259840,1,4,0:0:0:0:
475,192,260174,1,4,0:0:0:0:
109,192,260174,1,2,0:0:0:0:
109,192,260340,1,2,0:0:0:0:
402,192,260340,1,2,0:0:0:0:
475,192,260507,1,4,0:0:0:0:
329,192,260507,1,8,0:0:0:0:
475,192,260840,1,4,0:0:0:0:
36,192,260840,1,2,0:0:0:0:
182,192,261174,1,8,0:0:0:0:
329,192,261174,1,4,0:0:0:0:
475,192,261507,1,4,0:0:0:0:
36,192,261507,1,2,0:0:0:0:
402,192,261674,1,2,0:0:0:0:
109,192,261674,1,2,0:0:0:0:
329,192,261840,1,8,0:0:0:0:
182,192,261840,1,8,0:0:0:0:
36,192,262174,1,4,0:0:0:0:
256,192,262174,1,2,0:0:0:0:
475,192,262174,1,2,0:0:0:0:
109,192,262507,1,8,0:0:0:0:
329,192,262507,1,4,0:0:0:0:
402,192,262840,1,2,0:0:0:0:
36,192,262840,1,4,0:0:0:0:
256,192,263007,1,2,0:0:0:0:
402,192,263007,1,2,0:0:0:0:
329,192,263174,1,4,0:0:0:0:
109,192,263174,1,8,0:0:0:0:
256,192,263507,1,2,0:0:0:0:
475,192,263507,1,4,0:0:0:0:
182,192,263840,1,4,0:0:0:0:
402,192,263840,1,8,0:0:0:0:
109,192,264174,1,2,0:0:0:0:
475,192,264174,1,4,0:0:0:0:
109,192,264340,1,2,0:0:0:0:
256,192,264340,1,2,0:0:0:0:
182,192,264507,1,4,0:0:0:0:
402,192,264507,1,8,0:0:0:0:
36,192,264840,1,4,0:0:0:0:
475,192,264840,1,2,0:0:0:0:
182,192,265174,1,8,0:0:0:0:
329,192,265174,1,4,0:0:0:0:
109,192,265507,1,2,0:0:0:0:
402,192,265507,1,4,0:0:0:0:
402,192,265674,1,2,0:0:0:0:
109,192,265674,1,2,0:0:0:0:
36,192,265840,1,4,0:0:0:0:
475,192,265840,1,8,0:0:0:0:
256,192,266007,1,2,0:0:0:0:
182,192,266174,1,8,0:0:0:0:
329,192,266174,1,8,0:0:0:0:
109,192,266340,1,0,0:0:0:40:normal-hitfinish.wav
256,192,266507,1,0,0:0:0:40:normal-hitwhistle.wav
402,192,266674,1,0,0:0:0:40:normal-hitfinish.wav
475,192,266840,1,0,0:0:0:45:normal-hitwhistle.wav
182,192,267007,1,0,0:0:0:40:normal-hitfinish.wav
329,192,267174,1,0,0:0:0:40:normal-hitfinish.wav
256,192,267340,1,0,0:0:0:40:normal-hitwhistle.wav
109,192,267340,1,0,0:0:0:40:normal-hitwhistle.wav
