osu file format v7

[General]
AudioFilename: 06 First Good Bye.mp3
AudioLeadIn: 0
PreviewTime: 65116
Countdown: 2
SampleSet: Normal
StackLeniency: 0.7
Mode: 0
LetterboxInBreaks: 0
StoryFireInFront: 0

[Editor]
Bookmarks: 6639,17301,22800,65290,89285,97616,140273,164268,174622
DistanceSpacing: 1
BeatDivisor: 2
GridSize: 8

[Metadata]
Title:First Good Bye
Artist:Hirano Aya
Creator:Midget
Version:Hard
Source:Suzumiya Haruhi No Yuutsu
Tags:enoz sound around

[Difficulty]
HPDrainRate:7
CircleSize:4
OverallDifficulty:8
SliderMultiplier:1.4
SliderTickRate:1

[Events]
//Background and Video events
0,0,"bg.jpg"
//Break Periods
2,17483,22200
2,89483,96866
//Storyboard Layer 0 (Background)
//Storyboard Layer 1 (Fail)
//Storyboard Layer 2 (Pass)
//Storyboard Layer 3 (Foreground)
//Storyboard Sound Samples
//Background Colour Transformations
3,100,163,162,255

[TimingPoints]
6617,333.333333333333,4,1,1,50,1,0
65457,-100,4,1,1,50,0,1
89285,-100,4,1,1,50,0,0
139956,-100,4,1,1,50,0,1
163956,-100,4,1,1,50,0,0

[HitObjects]
104,80,6616,2,0,B|44:106|70:196|113:192,1,140,0|8
176,184,7116,2,0,B|184:224|144:256,2,70
240,152,7616,1,8
304,120,7783,2,0,B|312:80|272:48,1,70
400,128,8283,1,8
440,184,8450,1,0
312,232,8783,2,0,B|280:208|272:248|216:224,1,70,0|8
244,231,9116,1,0
192,280,9283,6,0,B|180:343|85:331|96:267,1,140,0|8
128,216,9783,1,0
160,152,9950,2,0,B|172:89|267:101|256:165,1,140,0|8
288,216,10450,1,0
320,280,10617,2,0,B|360:304,3,35,8|0|0|0
350,298,10950,2,0,B|392:272,3,35,8|0|0|0
379,279,11283,2,0,B|416:304,3,35,8|0|0|0
408,299,11617,2,0,B|448:272,4,35,8|0|0|0|12
464,168,12283,5,0
408,120,12450,1,0
352,168,12617,1,8
304,224,12783,2,0,B|272:280|168:280,1,140,0|0
168,208,13283,2,0,B|211:209|246:205|265:169|284:123,1,140,8|0
208,120,13783,2,0,B|226:62|289:55|323:85,1,140
384,112,14283,2,0,B|424:128|472:112,2,70,8|8|0
440,240,14950,5,8
384,192,15117,1,0
328,240,15283,1,0
384,288,15450,2,0,B|347:330|276:322|258:257,1,140
200,312,15950,5,0
104,272,16200,1,0
184,200,16450,1,0
120,168,16617,1,0
56,136,16783,1,0
47,130,16867,1,0
41,120,16950,1,8
37,110,17033,1,0
35,99,17117,1,0
34,88,17200,1,0
34,77,17283,1,4
64,176,22950,6,0,B|92:123|181:135|186:196,1,140,8|0
304,248,23616,1,8
248,296,23783,1,0
192,344,23950,2,0,B|147:387|61:330|104:273,1,140,0|8
160,272,24450,2,0,B|159:210|58:189|48:260,1,140,0|0
16,176,24950,2,0,B|70:121|174:161,1,140,8|0
216,128,25450,1,0
248,192,25616,1,8
384,104,26616,6,0,B|448:144|432:232,1,140,0|8
360,216,27116,2,0,B|354:276|413:309|454:293,1,140
432,224,27616,1,8
480,168,27783,1,0
416,136,27950,2,0,B|399:77|341:59|295:80,1,140,0|8
280,144,28450,1,0
264,216,28616,2,0,B|210:245|156:217|138:170,2,140,0|8|0
160,304,29616,5,8
296,304,29950,1,0
232,336,30116,1,0
360,272,30450,2,0,C|408:272|408:168|352:168,1,210,0|8
80,192,31616,5,8
216,192,31950,2,0,B|205:241|239:306|321:284,1,140,0|8
288,216,32450,1,0
288,216,32616,1,0
352,184,32783,2,0,B|400:200|400:240,2,70,0|8|0
320,120,33283,1,0
184,80,33616,6,0,B|136:55|75:85|86:167,1,140,8|0
144,272,34283,1,8
88,224,34450,1,0
152,192,34616,2,0,B|193:135|273:174|256:240,1,140,0|8
216,272,35116,2,0,B|257:329|337:290|320:224,1,140,0|0
368,192,35616,1,8
400,256,35783,2,0,B|372:355|291:369,1,140,0|0
316,361,36283,1,8
92,191,37283,6,0,B|24:221|-19:135|53:98,1,140,0|8
96,88,37783,1,0
152,136,37950,2,0,B|220:166|263:80|191:43,1,140,0|8
280,32,38450,1,0
328,88,38616,2,0,B|396:58|439:144|367:181,1,140,0|8
328,200,39116,1,0
384,248,39283,1,0
256,328,40283,6,0,B|160:336|160:248|168:232,1,140,8|0
96,248,40783,2,0,B|94:166|198:163|214:202,1,140
256,216,41283,2,0,B|336:248,1,70,0|0
368,184,41617,2,0,B|280:152,1,70,8|0
304,88,41950,2,0,B|376:112,2,70,0|0|8
232,64,42450,1,0
160,80,42617,6,0,B|66:42|16:168|128:200,1,210,0|0
108,192,43283,1,0
176,224,43450,1,0
176,224,43617,1,8
120,272,43783,1,0
120,272,43950,1,0
464,328,44783,6,0,B|416:336|392:304,1,70,0|8
336,272,45117,1,0
272,232,45283,2,0,B|207:213|231:106|296:125,1,140,0|8
328,168,45783,1,0
384,216,45950,2,0,B|449:197|425:90|360:109,1,140,0|8
328,72,46450,1,0
96,192,47450,6,0,B|64:208|56:264,2,70,0|8|0
168,192,47950,2,0,B|200:176|208:120,2,70,0|0|8
136,256,48450,1,0
104,320,48617,2,0,B|176:360|248:320,1,140,0|8
344,232,49283,6,0,B|288:232|288:336|352:336,1,140,0|8
392,288,49783,1,0
448,240,49950,2,0,B|504:240|504:136|440:136,1,140,0|8
453,137,50450,1,0
384,120,50617,5,0
384,120,50783,1,0
432,64,50950,1,8
432,64,51117,1,0
304,120,51450,5,0
304,120,51617,1,8
256,64,51783,1,0
256,64,51950,1,0
184,64,52117,1,0
136,120,52283,2,0,B|72:128|72:208|152:208,1,140,8|0
208,208,52783,6,0,B|272:216|272:296|192:296,1,140,0|8
206,295,53283,1,0
144,264,53450,2,0,B|56:216,1,70,0|8
40,168,53783,1,0
104,136,53950,2,0,B|192:184,1,70,0|8
152,80,55450,5,0
96,128,55617,1,8
152,176,55783,1,0
208,224,55950,2,0,B|278:224|272:320|192:299,1,140,0|8
136,304,56450,1,0
64,304,56617,2,0,B|-6:304|0:208|80:229,1,140,0|8
136,224,57117,1,0
320,192,58117,5,0
248,192,58283,2,0,B|178:131|235:69|268:54,1,140,8|0
288,128,58783,1,0
328,72,58950,2,0,B|360:88|360:144,1,70,8|0
408,184,59283,2,0,B|440:160|432:104,2,70,0|0|8
264,184,59950,1,4
96,216,61283,6,0,B|96:312|224:312|224:208,2,210,0|0|8
152,168,62450,1,0
208,120,62617,2,0,B|208:24|336:24|336:128,2,210,0|0|8
264,168,63783,1,0
256,192,63950,12,12,64950
64,144,65450,6,0,B|112:144|136:192,2,70,0|8|0
56,72,65950,2,0,B|113:69|166:101|190:143,1,140,0|8
232,176,66450,1,0
288,224,66617,2,0,B|249:266|189:281|143:268,1,140,0|8
176,344,67117,2,0,B|264:344|320:291,1,140
307,303,67617,1,8
307,303,67783,1,0
448,312,68117,6,0,B|480:272|464:232,1,70,0|8
400,256,68450,2,0,B|408:200|384:176,2,70
360,312,68950,1,8
320,256,69117,2,0,B|328:176|264:120,2,140
208,168,70116,5,0
208,168,70283,1,8
208,96,70450,1,0
208,96,70617,1,0
136,120,70783,6,0,B|80:176,1,70,0|8
40,112,71117,2,0,B|104:48,1,70
208,96,71617,1,8
344,112,71950,2,0,B|413:112|409:209|319:195,1,140,0|8
272,200,72450,2,0,B|203:208|212:308|297:283,2,140,0|0|0
272,200,73283,1,0
256,192,74283,12,0,75450
96,192,76117,6,0,B|72:232|88:280,1,70,0|8
152,264,76450,2,0,B|149:231|172:192,1,70
240,176,76783,1,0
288,232,76950,1,8
232,280,77117,1,0
176,328,77283,2,0,B|152:368|72:352|72:296,1,140,0|8
128,248,77783,2,0,B|151:208|232:224|232:280,1,140
232,278,78450,1,0
288,328,78617,5,0
344,280,78783,2,0,B|368:336|408:336,1,70,0|8
440,280,79116,2,0,B|410:259|397:217,2,70,0|0|0
480,224,79616,1,8
440,160,79783,2,0,B|416:80|320:128|344:168,1,140
64,160,80783,5,0
120,112,80950,1,8
168,168,81116,2,0,B|168:264|296:264|296:160,2,210,0|8|0
224,120,82283,1,8
280,72,82450,1,0
352,72,82616,6,0,B|440:80|440:144|376:152,1,140,0|8
336,200,83116,1,0
280,248,83283,2,0,B|192:256|192:320|256:328,2,140,0|8|0
336,296,84116,5,0
392,248,84283,1,8
448,200,84450,2,0,B|520:200|520:128|440:128,1,140
312,128,85116,1,0
240,128,85283,2,0,B|168:128|168:200|248:200,1,140,0|8
312,200,85783,1,0
312,272,85950,1,0
240,272,86116,1,0
256,192,86450,12,4,89283
48,64,97616,6,0,B|104:64|104:160|48:160,1,140,8|0
144,264,98283,1,8
200,216,98450,1,0
256,168,98616,2,0,B|328:168|328:96|248:96,1,140,0|8
184,96,99116,2,0,B|112:96|112:168|192:168,1,140
320,168,99783,1,0
400,56,100116,1,0
456,104,100283,1,8
360,240,101283,6,0,B|424:240|424:328|352:328,1,140,0|8
296,296,101783,1,0
232,264,101950,2,0,B|168:264|168:176|240:176,1,140,0|8
296,152,102450,1,0
360,120,102616,2,0,B|424:120|424:32|352:32,1,140,0|8
296,56,103116,1,0
232,88,103283,1,0
176,280,104283,6,0,B|176:344|264:344|264:272,1,140,8|0
232,216,104783,2,0,B|232:152|320:152|320:224,1,140
432,296,105450,1,0
352,296,105616,1,8
392,232,105783,1,0
184,192,106283,5,8
256,192,106450,1,0
320,160,106616,2,0,B|384:160|384:80|312:80,1,140,0|8
248,80,107116,1,0
176,80,107283,2,0,B|104:80|72:120|72:168,1,140,0|8
72,154,107783,1,0
72,154,107950,1,0
88,296,108283,6,0,B|144:296|144:248|224:248,1,140,8|0
264,304,108783,1,0
296,240,108950,1,8
248,184,109116,1,0
312,152,109283,2,0,B|360:112|424:176|368:216,1,140,0|8
360,280,109783,1,0
472,192,110116,1,0
360,112,110450,1,0
328,48,110616,2,0,B|280:72|288:128,2,70,0|0|8
56,192,111950,6,0,B|24:232|96:304|136:264,1,140,0|8
120,200,112450,2,0,B|160:168|232:240|192:280,1,140
248,328,112950,1,8
320,328,113116,1,0
376,280,113283,2,0,B|448:280|448:208|368:208,1,140,0|8
304,208,113783,1,0
232,208,113950,2,0,B|160:208|160:136|240:136,1,140,0|8
504,208,114950,6,0,B|424:80,1,140,8|0
360,112,115450,2,0,B|440:240,1,140
312,168,116116,1,0
264,224,116283,1,8
328,256,116450,1,0
120,272,116950,6,0,B|48:272|48:200|120:200,1,140,8|0
328,200,117783,1,0
400,200,117950,2,0,B|464:200|464:80|400:80|264:80,1,280,8|0
112,256,119450,6,0,B|96:296|120:344,1,70,0|8
184,320,119783,2,0,B|168:280|192:232,1,70
248,216,120116,1,0
304,264,120283,2,0,B|368:264|368:176|304:176,1,140,8|0
448,184,120950,2,0,B|392:184|392:120|392:120,1,70,8|0
184,144,121616,1,8
184,144,121783,1,0
328,144,122116,5,0
272,192,122283,2,0,B|295:229|352:216,1,70,8|0
392,264,122616,2,0,B|343:311|277:289|232:259,1,140,0|8
128,304,123283,2,0,B|164:342|266:367|287:352,1,140,0|8
392,352,123950,6,0,B|496:352|496:240|384:240,1,210
392,240,124616,1,0
336,288,124783,1,0
336,288,124950,1,8
280,240,125116,1,0
280,240,125283,1,0
176,208,126116,5,0
176,208,126283,1,8
224,152,126450,1,0
224,152,126616,1,0
160,120,126783,1,0
160,120,126950,1,8
96,88,127116,2,0,B|96:16|24:16|24:96,1,140
24,160,127616,5,8
80,208,127783,1,0
24,256,127950,1,0
24,256,128116,1,0
24,328,128283,2,0,B|168:328,1,140,8|0
164,328,128783,1,0
184,160,130116,6,0,B|192:112|256:104,1,70,0|8
256,176,130450,1,0
256,248,130616,2,0,B|338:236|338:169|312:128,1,140,0|8
360,88,131116,1,0
400,145,131283,2,0,B|404:205|393:251|348:285,1,140,0|8
360,274,131783,1,0
136,192,132783,5,0
80,144,132950,1,8
64,216,133116,1,0
112,272,133283,2,0,B|201:276|215:216|208:184,1,140,0|8
184,336,133950,2,0,B|231:318|273:282|278:215,1,140,0|8
276,96,134616,1,0
107,279,135950,6,0,B|203:278|203:174,1,140,0|8
128,196,136450,2,0,B|136:291|239:282,1,140
272,232,136950,1,8
328,280,137116,1,0
384,328,137283,6,0,B|472:328|471:272|472:152,1,210
392,56,138116,1,0
344,112,138283,1,8
392,168,138450,1,0
256,192,138616,12,12,139616
256,192,139950,5,0
328,192,140116,2,0,B|312:248|352:272,2,70,0|8|0
384,144,140616,2,0,B|384:96|488:96|488:152,1,140,0|8
440,200,141116,1,0
440,272,141283,2,0,B|504:272|504:360|432:360,1,140,0|8
376,328,141783,2,0,B|312:328|312:240|384:240,2,140
448,208,142783,5,0
448,208,142950,1,8
392,160,143116,1,0
392,160,143283,1,0
256,152,143616,1,8
184,152,143783,2,0,B|112:152|112:80|192:80,1,140
256,192,145450,5,0
256,120,145616,1,8
320,152,145783,1,0
320,224,145950,2,0,B|320:288|408:288|408:211,1,140,0|8
448,168,146450,1,0
448,96,146616,2,0,B|448:32|360:32|360:109,1,140,0|8
288,96,147116,2,0,B|288:32|200:32|200:109,1,140
200,168,147616,1,8
200,168,147783,1,0
256,192,148950,12,12,150283
32,192,150783,5,0
96,160,150950,2,0,B|72:112|32:128,2,70,8|0|0
128,224,151450,2,0,B|144:256|192:256,1,70,0|8
232,200,151783,1,0
304,200,151950,2,0,B|376:200|376:128|296:128,1,140,0|8
232,128,152450,2,0,B|160:128|160:56|240:56,1,140
368,56,153116,1,0
416,112,153283,5,0
488,112,153450,1,0
456,176,153616,1,8
384,176,153783,1,0
312,192,153950,2,0,B|312:256|352:256|416:256,1,140,0|8
424,328,154450,2,0,B|341:333|290:313|286:289,1,140
56,144,155450,5,0
104,88,155616,1,8
176,88,155783,2,0,B|272:88|272:216|168:216,2,210,0|8|0
144,152,156950,1,8
112,288,157283,2,0,B|112:384|240:384|240:280,2,210,0|0|8
128,152,158617,1,0
176,208,158783,1,0
224,152,158950,1,8
176,96,159117,1,0
440,192,159783,5,0
368,192,159950,2,0,B|224:192,1,140,0|8
208,264,160450,2,0,B|352:264,1,140
256,192,161117,12,0,163950
