osu file format v7

[General]
AudioFilename: 06 First Good Bye.mp3
AudioLeadIn: 0
PreviewTime: 65116
Countdown: 2
SampleSet: Normal
StackLeniency: 0.7
Mode: 0
LetterboxInBreaks: 0
StoryFireInFront: 0

[Editor]
Bookmarks: 6639,17301,22800,65290,89285,97616,110283,140273,164268,174622
DistanceSpacing: 0.5
BeatDivisor: 1
GridSize: 8

[Metadata]
Title:First Good Bye
Artist:Hirano Aya
Creator:Midget
Version:Easy
Source:Suzumiya Haruhi No Yuutsu
Tags:enoz sound around

[Difficulty]
HPDrainRate:2
CircleSize:3
OverallDifficulty:3
SliderMultiplier:1
SliderTickRate:1

[Events]
//Background and Video events
0,0,"bg.jpg"
//Break Periods
2,17483,21510
2,89483,96176
//Storyboard Layer 0 (Background)
//Storyboard Layer 1 (Fail)
//Storyboard Layer 2 (Pass)
//Storyboard Layer 3 (Foreground)
//Storyboard Sound Samples
//Background Colour Transformations
3,100,163,162,255

[TimingPoints]
6617,333.333333333333,4,1,1,50,1,0
65457,-100,4,1,1,50,0,1
89285,-100,4,1,1,50,0,0
139956,-100,4,1,1,50,0,1
163956,-100,4,1,1,50,0,0

[HitObjects]
40,136,6617,2,0,B|40:48|136:48,1,100,0|8
184,56,7616,1,8
256,128,8283,1,8
320,56,8950,2,0,B|392:56|392:160,1,100,8|0
387,116,9616,5,8
384,216,10283,1,8
384,216,10616,2,0,B|384:352|248:352,2,200
384,216,12283,5,8
288,216,12950,1,8
192,216,13616,2,0,B|72:216|71:166|72:48,2,200,8|8|8
296,216,15616,1,8
296,216,15950,2,0,B|512:216,2,200,0|0|4
34,192,22950,6,0,B|146:192,1,100,8|0
134,193,23616,1,8
216,248,24283,1,8
216,144,24950,1,8
304,192,25616,1,8
400,192,26283,1,8
400,192,26616,6,0,B|400:312|264:312,2,200
400,192,28283,1,8
400,88,28950,1,8
304,88,29616,6,0,B|96:88,2,200,8|8|8
304,88,31283,1,0
304,192,31950,2,0,B|304:304|464:280,2,200,0|0|4
304,192,33616,5,8
224,128,34283,1,8
152,192,34950,1,8
80,128,35616,1,8
80,128,35950,2,0,C|192:48|248:48,1,100,0|8
256,40,36950,1,8
256,40,37283,6,0,C|432:40,1,100,0|8
424,112,38283,1,8
352,184,38950,1,8
416,256,39616,1,8
344,320,40283,6,0,L|128:320,2,200,8|8|8
344,216,42283,1,8
344,216,42616,2,0,C|272:200|272:64,2,200,0|0|4
272,80,44950,5,8
272,80,45283,2,0,C|480:80,2,200
272,80,46950,1,8
240,176,47617,5,8
144,176,48283,1,8
144,280,48950,1,8
144,280,49283,2,0,C|360:280,2,200
160,128,51617,5,8
232,192,52283,1,8
304,128,52950,1,8
376,192,53617,2,0,B|464:208|496:296|376:272,1,150,8|0
344,280,54617,1,0
328,336,55617,5,8
416,336,56283,1,8
416,336,56617,2,0,B|416:144,1,150
416,186,57617,1,8
480,104,58283,5,8
416,184,58950,1,8
320,184,59617,1,8
320,184,59950,2,0,B|320:88|208:88|208:184,2,200
320,288,61950,5,0
208,288,62617,2,0,B|0:288,2,200
312,288,64617,1,0
312,288,64950,1,8
336,192,65617,6,0,B|456:192,2,100,8|0|8
232,192,66950,1,8
136,192,67617,1,8
136,88,68283,6,0,B|24:88,2,100,8|0|8
184,88,69283,1,0
232,88,69617,1,8
336,88,70283,1,8
440,88,70950,6,0,L|440:192|336:192,1,200,8|8
240,192,72283,2,0,L|240:280|360:280,1,200,8|8
456,280,73617,1,8
456,176,74283,2,0,L|456:32|200:32,1,400,8|8
200,136,76283,5,8
96,136,76950,1,8
96,232,77616,1,8
200,232,78283,1,8
304,232,78950,5,8
400,232,79616,2,0,L|504:232|504:136,2,200,8|8|8
400,128,81616,1,8
296,128,82283,6,0,L|240:128|240:80,1,100,8|0
240,84,82950,2,0,L|136:84,1,100,8|0
136,184,83950,1,0
136,184,84283,2,0,L|32:184|32:288,1,200,8|8
136,280,85616,2,0,L|352:280,1,200,8|8
256,192,86616,12,4,89283
40,192,97616,6,0,L|160:192,1,100,8|0
240,192,98616,1,0
344,192,99283,1,0
296,280,99950,2,0,L|192:280,1,100,0|8
256,152,100950,5,8
256,152,101283,2,0,L|256:48|352:48,2,200
256,152,102950,1,8
360,152,103616,1,8
304,232,104283,5,8
304,232,104616,2,0,L|96:232,1,200,0|0
104,232,105616,1,8
144,136,106283,5,8
144,136,106616,2,0,L|352:136,1,200
344,136,107616,1,8
344,240,108283,6,0,L|448:240|448:344,1,200,8|8
344,336,109616,1,8
248,336,110283,1,8
144,336,110950,2,0,L|24:336,1,100,8|0
44,336,111616,1,8
43,337,111950,6,0,L|40:216|112:160,1,200,0|0
144,144,112950,1,8
192,128,113283,2,0,L|448:128,1,200,0|0
392,128,114283,1,8
336,216,114950,5,8
336,216,115283,2,0,L|448:216,1,100,0|8
436,216,115950,1,0
288,216,116950,5,8
288,216,117283,2,0,L|288:352|200:352,1,200,0|0
176,352,118283,1,8
128,352,118616,1,0
112,256,119616,6,0,L|32:256|32:128,1,200,8|8
128,128,120950,2,0,L|128:176|296:176,1,200,8|8
384,176,122283,5,8
472,128,122950,1,8
384,80,123616,1,8
384,80,123950,2,0,L|384:40|208:40,1,200,0|0
224,40,124950,1,8
168,120,125616,1,8
104,200,126283,6,0,L|8:200|8:312,1,200,8|8
112,336,127616,1,8
192,280,128283,1,8
192,280,128616,2,0,L|264:352|336:280,1,200,0|0
333,282,129616,1,8
432,280,130283,5,8
432,176,130950,1,8
336,176,131616,1,8
384,88,132283,1,8
280,88,132950,5,8
232,176,133616,1,8
184,176,133950,1,0
136,176,134283,1,8
88,176,134616,2,0,L|32:184|32:328,1,200
136,328,135950,6,0,L|376:328,1,200
384,328,136950,1,8
432,328,137283,2,0,L|472:328|472:128,1,200
472,168,138283,1,8
256,192,138616,12,12,139616
56,120,140283,5,8
120,192,140950,1,8
184,120,141616,1,8
248,192,142283,2,0,L|408:192,1,100,8|0
376,232,142950,5,8
352,280,143283,2,0,L|136:280,1,200
152,280,144283,1,8
104,192,144950,1,8
168,112,145616,5,8
168,112,145950,2,0,L|272:112,1,100,0|8
368,112,146950,1,8
448,168,147616,1,8
368,224,148283,1,8
256,192,148950,12,8,150283
32,304,150950,6,0,L|184:304|184:248,1,200,8|8
280,280,152283,2,0,L|280:176|184:176,1,200,8|8
88,176,153616,5,8
40,88,154283,2,0,L|240:88,1,200,8|8
320,152,155616,6,0,L|464:152|464:240,1,200,8|8
416,296,156950,1,8
320,296,157616,1,8
216,296,158283,2,0,L|40:296,2,100,8|0|8
216,296,159283,1,0
216,200,159950,6,0,L|416:200,1,200
416,200,160950,1,8
256,192,161283,12,4,163950
