osu file format v12

[General]
AudioFilename: CHA-LA HEAD-CHA-LA.mp3
AudioLeadIn: 993
PreviewTime: 65274
Countdown: 1
SampleSet: Normal
StackLeniency: 0.7
Mode: 0
LetterboxInBreaks: 1

[Editor]
Bookmarks: 145691,163110,175399
DistanceSpacing: 0.8
BeatDivisor: 4
GridSize: 4

[Metadata]
Title:CHA-LA HEAD-CHA-LA
TitleUnicode:CHA-LA HEAD-CHA-LA
Artist:Hirano Aya
ArtistUnicode:Hirano Aya
Creator:ErunamoJAZZ
Version:Hard
Source:Lucky Star
Tags:Dragon Ball DragonBall Karaoke Izumi Konata
BeatmapID:256678
BeatmapSetID:95611

[Difficulty]
HPDrainRate:9
CircleSize:4
OverallDifficulty:7
ApproachRate:9
SliderMultiplier:1.50000000596046
SliderTickRate:2

[Events]
//Background and Video events
0,0,"Fondo Konata Osu Dragonball.png",0,0
//Break Periods
2,1986,17444
2,81341,98541
//Storyboard Layer 0 (Background)
//Storyboard Layer 1 (Fail)
//Storyboard Layer 2 (Pass)
//Storyboard Layer 3 (Foreground)
//Storyboard Sound Samples
//Background Colour Transformations
3,100,0,0,128

[TimingPoints]
625,387.096774193548,4,1,0,70,1,0
42286,-66.6666666666667,4,1,0,70,0,0
48626,-100,4,1,0,70,0,0
57917,-100,4,1,0,70,0,1
61401,-166.666666666667,4,1,0,70,0,1
65272,-76.9230769230769,4,1,0,70,0,1
66915,-76.9230769230769,4,1,0,65,0,1
67302,-76.9230769230769,4,1,0,70,0,1
73788,-125,4,1,0,70,0,1
77270,-100,4,1,0,70,0,1
81917,-100,4,1,0,70,0,0
139981,-100,4,1,0,70,0,1
143384,-76.9230769230769,4,1,0,70,0,1
150799,-100,4,1,0,70,0,1
165143,-71.4285714285714,4,1,0,70,0,1
183334,-55.5555555555556,4,1,0,70,0,1
183431,-55.5555555555556,4,1,0,10,0,1
184110,-100,4,1,0,70,0,0

[Colours]
Combo1 : 100,215,120
Combo2 : 174,85,255
Combo3 : 255,128,0
Combo4 : 234,0,117
Combo5 : 52,56,239
Combo6 : 255,149,202

[HitObjects]
312,192,1592,1,10,0:0:0:0:
200,192,1786,1,12,0:0:0:0:
400,336,18044,6,8,L|96:336,1,300.000001192092
96,280,19012,1,0,0:0:0:0:
96,160,19399,1,0,0:0:0:0:
256,64,19979,1,0,0:0:0:0:
256,128,20173,1,0,0:0:0:0:
256,256,20560,1,2,0:0:0:0:
192,176,20754,6,6,B|64:400|448:400|320:176,1,450.000001788138
256,192,22302,1,0,0:0:0:0:
256,192,22883,1,0,0:0:0:0:
192,88,23270,1,0,0:0:0:0:
152,48,23463,1,0,0:0:0:0:
136,104,23657,6,8,B|94:172|94:172|144:312,1,225.000000894069
256,336,24625,1,0,0:0:0:0:
288,280,25399,1,0,0:0:0:0:
320,224,25979,1,0,0:0:0:0:
432,48,26754,2,8,B|512:136|400:176|400:176|400:256,1,225.000000894069
312,288,27721,1,4,0:0:0:0:
256,192,27915,12,0,30044,0:0:0:0:
256,192,30431,5,0,0:0:0:0:
192,96,30818,1,8,0:0:0:0:
128,96,31012,1,8,0:0:0:0:
160,64,31592,2,8,P|216:109|295:120,1,150.000000596046
192,192,32367,1,12,0:0:0:0:
190,195,32560,1,8,0:0:0:0:
188,197,32754,1,8,0:0:0:0:
424,312,33141,5,8,0:0:0:0:
424,192,33528,2,2,L|240:192,1,150.000000596046
152,192,34302,1,0,0:0:0:0:
104,304,34689,1,0,0:0:0:0:
256,200,35270,1,0,0:0:0:0:
256,320,35657,2,8,L|256:224,1,75.000000298023
256,184,36044,1,0,0:0:0:0:
256,56,37012,5,0,0:0:0:0:
448,192,37786,1,0,0:0:0:0:
328,192,38173,1,0,0:0:0:0:
208,192,38560,1,0,0:0:0:0:
152,224,39334,6,2,L|152:312,2,75.000000298023
152,160,39915,1,10,0:0:0:0:
192,208,40108,6,2,L|233:285,2,75.000000298023
152,160,40689,1,10,0:0:0:0:
208,168,40883,6,2,L|291:195,2,75.000000298023
152,160,41463,1,10,0:0:0:0:
208,127,41657,6,2,L|287:89,2,75.000000298023,6|2|6,0:0|0:0|0:0,0:0:0:0:
464,192,42431,6,10,B|256:384|48:192,1,450.000018954276
59,207,43399,1,0,0:0:0:0:
288,160,43979,1,0,0:0:0:0:
208,192,44367,1,0,0:0:0:0:
278,249,44754,1,0,0:0:0:0:
112,320,45141,1,0,0:0:0:0:
288,336,45528,6,14,B|272:240|480:272|480:272|288:192|288:192|480:112|480:112|272:96|256:32,1,900.000037908553
448,160,49012,1,4,0:0:0:0:
360,80,49399,1,0,0:0:0:0:
256,136,49786,1,0,0:0:0:0:
256,225,50076,1,0,0:0:0:0:
168,256,50367,2,0,L|168:176,1,75.000000298023,0|0,0:0|0:0,0:0:0:0:
160,208,52108,5,4,0:0:0:0:
232,304,52496,2,0,L|328:304,1,75.000000298023
304,240,52883,1,0,0:0:0:0:
240,240,53076,1,0,0:0:0:0:
176,192,54044,5,0,0:0:0:0:
120,88,54431,2,0,L|216:88,1,75.000000298023
160,136,54818,2,0,L|256:136,1,75.000000298023
200,184,55205,2,0,L|296:184,1,75.000000298023
232,224,55592,2,0,L|328:224,1,75.000000298023
272,272,55979,2,2,L|368:272,1,75.000000298023,2|10,0:0|0:0,0:0:0:0:
256,192,56560,1,2,0:0:0:0:
256,192,56754,12,0,57915,0:0:0:0:
256,192,58496,5,4,0:0:0:0:
416,224,59463,2,2,P|352:288|256:288,1,187.500000745057
96,160,60141,2,2,P|160:96|256:96,1,187.500000745057
384,96,61012,1,6,0:0:0:0:
264,208,61496,1,0,0:0:0:0:
192,256,61883,2,0,P|153:232|146:200,2,67.4999982082842
256,220,62850,1,0,0:0:0:0:
256,176,63044,1,8,0:0:0:0:
192,96,63431,2,0,B|144:96|144:96|128:128,2,67.4999982082842
264,96,64496,2,2,B|292:109|292:109|336:160,1,89.9999976110456,0|0,0:3|0:3,0:3:0:0:
480,288,65560,6,0,B|416:192|416:192|320:192,1,194.999991848469
336,272,66141,1,0,0:0:0:0:
336,112,66479,2,0,B|240:112|240:112|64:224,1,292.499987772703,0|0,0:0|0:0,0:0:0:0:
96,320,67592,1,8,0:0:0:0:
416,320,68367,1,8,0:0:0:0:
256,64,69141,1,8,0:0:0:0:
192,224,69528,5,0,0:0:0:0:
208,260,69625,1,0,0:0:0:0:
196,296,69721,1,0,0:0:0:0:
160,316,69818,1,0,0:0:0:0:
124,304,69915,1,8,0:0:0:0:
124,148,70302,6,2,P|124:308|220:308,1,292.499987772703
320,64,71850,2,2,B|432:64|432:64|320:160|320:160|456:160,2,389.999983696937,2|2|10,0:0|0:0|0:0,0:0:0:0:
199,64,73883,6,2,P|160:72|156:148,1,120.000000476837
153,248,74657,1,0,0:0:0:0:
200,248,74850,2,2,B|255:248|255:248|280:212,2,97.5000003874299
256,296,75818,1,0,0:0:0:0:
352,312,76205,1,0,0:0:0:0:
352,263,76399,1,0,0:0:0:0:
272,208,76788,1,0,0:0:0:0:
272,255,76981,1,0,0:0:0:0:
92,255,77560,5,0,0:0:0:0:
92,194,77754,1,0,0:0:0:0:
92,134,77947,1,0,0:0:0:0:
92,73,78141,1,0,0:0:0:0:
256,192,78431,8,12,81141,0:0:0:0:
256,256,99141,5,0,0:0:0:0:
256,128,99334,5,8,0:0:0:0:
480,48,100108,2,0,B|480:144|480:144|416:176,1,150.000000596046
256,192,101076,1,0,0:0:0:0:
208,304,101463,1,0,0:0:0:0:
176,256,101657,1,0,0:0:0:0:
240,256,101850,1,0,0:0:0:0:
288,224,102044,2,0,P|314:146|266:100,1,150.000000596046
392,102,102818,5,0,0:0:0:0:
392,221,103205,1,8,0:0:0:0:
272,221,103592,1,8,0:0:0:0:
80,64,104367,5,8,0:0:0:0:
80,244,104947,1,8,0:0:0:0:
80,128,105334,1,0,0:0:0:0:
80,192,105528,1,0,0:0:0:0:
128,160,105721,2,0,B|192:176|192:176|288:320,1,225.000000894069,0|8,0:0|0:0,0:0:0:0:
384,256,106689,2,0,L|464:256,2,75.000000298023,0|0|8,0:0|0:0|0:0,0:0:0:0:
336,128,107463,2,0,B|260:116|260:116|224:16,1,150.000000596046,0|2,0:0|0:0,0:0:0:0:
233,46,108044,1,0,0:0:0:0:
208,256,108818,6,0,L|304:256,2,75.000000298023
144,256,109399,1,0,0:0:0:0:
101,213,109592,1,0,0:0:0:0:
143,170,109786,1,0,0:0:0:0:
208,64,110173,1,0,0:0:0:0:
208,67,110367,1,0,0:0:0:0:
384,64,110560,1,8,0:0:0:0:
384,80,110947,5,0,0:0:0:0:
383,85,111141,1,0,0:0:0:0:
384,128,111334,2,0,L|384:288,1,150.000000596046,0|8,0:0|0:0,0:0:0:0:
384,288,112108,1,8,0:0:0:0:
272,288,112496,6,0,B|192:288|192:288|160:224,1,150.000000596046
208,48,113463,1,0,0:0:0:0:
224,160,113850,1,0,0:0:0:0:
288,160,114044,1,0,0:0:0:0:
224,163,114237,1,0,0:0:0:0:
288,162,114431,1,0,0:0:0:0:
223,165,114626,1,0,0:0:0:0:
288,162,114820,1,8,0:0:0:0:
256,48,115205,6,0,B|368:48|368:48|448:224,1,300.000001192092,0|8,0:0|0:0,0:0:0:0:
256,352,116754,1,0,0:0:0:0:
128,224,117334,1,8,0:0:0:0:
43,139,117721,1,0,0:0:0:0:
48,144,117915,1,0,0:0:0:0:
54,146,118108,2,0,P|134:146|166:66,1,150.000000596046,0|8,0:0|0:0,0:0:0:0:
336,48,119076,2,0,P|288:96|240:48,1,150.000000596046,0|8,0:0|0:0,0:0:0:0:
128,64,119850,5,0,0:0:0:0:
96,112,120044,1,0,0:0:0:0:
96,176,120237,1,0,0:0:0:0:
144,224,120431,1,0,0:0:0:0:
208,240,120625,1,0,0:0:0:0:
272,240,120818,1,0,0:0:0:0:
336,240,121012,2,0,L|336:320,2,75.000000298023
400,240,121592,2,2,L|400:320,2,75.000000298023
464,240,122173,2,2,L|464:320,2,75.000000298023
464,176,122754,6,2,L|464:96,2,75.000000298023
400,176,123334,2,2,L|400:96,2,75.000000298023
336,176,123915,2,2,L|336:96,2,75.000000298023
272,176,124496,54,0,B|272:64|208:80|144:128|144:128|128:32|128:32|64:160|80:176|16:320|224:368|272:240,1,750.00000298023
160,208,126818,5,0,0:0:0:0:
272,208,127205,1,0,0:0:0:0:
384,144,127594,2,0,L|448:80,1,75.000000298023,0|4,0:0|0:0,0:0:0:0:
400,272,128754,1,8,0:0:0:0:
400,272,128947,1,8,0:0:0:0:
128,48,131076,6,2,B|192:48|192:48|240:128,1,150.000000596046
128,112,131657,2,2,B|176:192|176:192|240:192,1,150.000000596046
240,192,132431,1,0,0:0:0:0:
244,191,132625,1,0,0:0:0:0:
384,48,134173,6,2,B|320:48|320:48|272:128,1,150.000000596046
384,112,134754,2,2,B|336:192|336:192|272:192,1,150.000000596046
277,193,135528,1,0,0:0:0:0:
160,320,136108,1,0,0:0:0:0:
64,256,136496,54,4,B|32:160|32:160|96:192|96:192|272:-16|416:192|416:192|480:160|480:160|448:288|448:288,1,750.00000298023
408,304,138625,5,0,0:0:0:0:
328,160,138818,1,0,0:0:0:0:
304,328,139012,1,0,0:0:0:0:
416,200,139205,1,0,0:0:0:0:
248,232,139399,1,0,0:0:0:0:
408,304,139592,1,0,0:0:0:0:
336,240,139786,1,0,0:0:0:0:
320,160,139979,2,2,B|317:43|317:43|288:0|253:43|253:43|221:139|221:139|189:171|125:75|125:75|93:11|29:75|64:192,1,600.000002384184
64,288,141915,1,0,0:0:0:0:
128,288,142108,1,0,0:0:0:0:
456,48,143463,6,0,B|360:48|360:48|288:128,1,194.999991848469
293,277,144237,1,0,0:0:0:0:
214,277,144431,1,0,0:0:0:0:
208,192,144625,2,2,L|312:192,2,97.4999959242343
117,102,145350,1,10,0:0:0:0:
292,102,145786,1,0,0:0:0:0:
213,102,145981,1,10,0:0:0:0:
368,102,146367,2,2,L|472:102,2,97.4999959242343
250,102,146947,1,0,0:0:0:0:
96,224,147431,6,4,B|120:288|120:288|176:184|176:184|176:352|176:352|216:240|328:208,1,536.249977583289
104,80,149076,2,2,P|144:53|152:67,6,48.7499979621171
214,190,150044,1,0,0:0:0:0:
268,135,150237,1,0,0:0:0:0:
288,208,150431,1,4,0:0:0:0:
372,123,150818,2,0,P|409:152|409:192,3,75.000000298023,0|4|0|4,0:0|0:0|0:0|0:0,0:0:0:0:
416,208,151496,1,12,0:0:0:0:
416,298,151786,1,0,0:0:0:0:
356,298,151979,1,0,0:0:0:0:
304,160,152463,6,0,B|304:56|304:56|224:32,1,187.500000745057
224,32,153915,2,0,B|160:112|160:112|200:232,1,225.000000894069
378,228,155076,1,0,0:0:0:0:
152,296,155850,2,0,B|152:208|152:208|200:192,1,150.000000596046
331,188,156625,1,0,0:0:0:0:
390,188,156818,1,0,0:0:0:0:
390,68,157205,1,0,0:0:0:0:
347,110,157399,1,0,0:0:0:0:
262,194,157786,1,0,0:0:0:0:
352,280,158173,2,2,P|391:271|414:214,2,75.000000298023
352,280,158754,6,2,P|344:240|288:216,2,75.000000298023
231,280,159528,1,0,0:0:0:0:
231,339,159721,1,0,0:0:0:0:
170,339,159915,1,0,0:0:0:0:
96,256,160108,1,0,0:0:0:0:
352,224,160496,1,0,0:0:0:0:
96,160,160883,1,0,0:0:0:0:
352,128,161270,1,8,0:0:0:0:
448,64,161657,6,0,B|448:128|448:128|384:192,1,150.000000596046
320,192,162237,1,8,0:0:0:0:
84,36,163157,1,0,0:0:0:0:
203,36,163544,1,0,0:0:0:0:
245,78,163737,1,0,0:0:0:0:
480,192,164368,6,2,P|448:288|256:288,1,300.000001192092,2|10,0:0|0:0,0:0:0:0:
256,128,165528,1,0,0:0:0:0:
416,64,165915,2,2,L|416:192,1,104.999997212887
320,256,166496,2,2,L|320:128,1,104.999997212887
160,128,167076,1,0,0:0:0:0:
327,128,167463,1,0,0:0:0:0:
386,187,167657,1,0,0:0:0:0:
267,305,168044,2,2,L|139:305,1,104.999997212887
43,186,168625,1,0,0:0:0:0:
43,102,168818,5,4,0:0:0:0:
224,320,169302,6,4,L|176:272,2,52.4999986064433
348,292,169786,1,0,0:0:0:0:
288,232,169979,1,0,0:0:0:0:
228,172,170173,1,0,0:0:0:0:
112,56,170947,6,2,L|240:56,2,104.999997212887
112,288,171721,2,2,L|240:288,2,104.999997212887
208,64,172496,2,2,L|336:64,2,104.999997212887
128,112,173076,1,2,0:0:0:0:
96,192,173270,1,2,0:0:0:0:
112,272,173463,1,2,0:0:0:0:
192,320,173657,5,4,0:0:0:0:
352,320,174044,1,0,0:0:0:0:
480,192,174625,1,0,0:0:0:0:
128,192,175447,1,0,0:0:0:0:
336,192,175931,1,0,0:0:0:0:
240,144,176173,2,2,B|356:60|356:60|472:204,1,314.99999163866
144,304,177528,2,2,P|96:208|142:113,1,209.999994425773
223,209,178254,1,0,0:0:0:0:
349,209,178496,1,2,0:0:0:0:
84,44,178883,6,0,B|144:48|144:48|96:128|96:128|176:96|176:96|128:176|128:176,1,314.99999163866
240,288,179850,1,0,0:0:0:0:
272,256,180044,1,0,0:0:0:0:
368,288,180431,1,0,0:0:0:0:
400,256,180625,1,0,0:0:0:0:
416,48,181012,1,8,0:0:0:0:
248,48,181399,1,8,0:0:0:0:
80,48,181786,6,0,L|200:48,1,104.999997212887
144,128,182173,6,0,L|264:128,1,104.999997212887
208,208,182560,6,0,L|328:208,1,104.999997212887
272,288,182947,6,0,L|392:288,1,104.999997212887
96,80,183334,6,2,P|256:32|416:80,1,337.499991041421,2|6,0:0|0:0,0:0:0:0:
256,192,184110,12,8,193207,0:0:0:0:
