osu file format v5

[General]
AudioFilename: Bouken desho desho (TV Size).mp3
AudioLeadIn: 0
PreviewTime: 46816
Countdown: 0
SampleSet: Soft
StackLeniency: 0.7
Mode: 0
LetterboxInBreaks: 1

[Editor]
Bookmarks: 14240,31816,34616,38216,40616,45033,46832,50432,60030,70828,72027,73440,75027,75040,78516,79226,81625,82425
DistanceSpacing: 1.70000004768372
BeatDivisor: 4
GridSize: 8

[Metadata]
Title:Bouken Desho Desho (TV Size)
Artist:Hirano Aya
Creator:Ryuukun
Version:Kyon-kun, denwa~!
Source:Suzumiya Haruhi no Yuuutsu
Tags:Anime, Haruhi

[Difficulty]
HPDrainRate:4
CircleSize:4
OverallDifficulty:4
SliderMultiplier:1.5
SliderTickRate:2

[Events]
//Background and Video events
Video,0,"Hirano Aya - Bouken Desho Desho.avi"
0,0,"Haurhi2.jpg"
//Break Periods
//Storyboard Layer 0 (Background)
//Storyboard Layer 1 (Fail)
//Storyboard Layer 2 (Pass)
//Storyboard Layer 3 (Foreground)
//Storyboard Sound Samples
//Background Colour Transformations
3,100,248,173,213

[TimingPoints]
11016,400,4,1,0,51,1,0
31816,-100,4,1,0,51,0,0
34616,-100,4,1,0,51,0,0
38216,-100,4,1,0,51,0,0
40616,-100,4,1,0,51,0,0
47840,-100,4,1,0,51,0,1
60016,-100,4,1,0,51,0,0
74816,-100,4,1,0,51,0,0
74816,-100,4,2,0,51,0,0
75216,-100,4,1,0,49,0,0
75216,-100,4,1,0,51,0,0
85216,-100,4,2,0,51,0,0

[Colours]
Combo1 : 198,180,226
Combo2 : 186,253,153
Combo3 : 167,188,243

[HitObjects]
256,192,11016,1,4
184,56,11416,1,8
152,120,11616,1,0
152,192,11816,1,8
256,304,12216,1,0
328,304,12416,2,0,B|408:264|392:168,3,150,2|2|2|2
256,192,14216,5,4
328,328,14616,1,8
360,264,14816,1,0
360,192,15016,1,8
256,80,15416,1,0
184,80,15616,2,0,B|104:120|120:216,3,150,2|2|2|2
256,192,17416,12,4,19016
376,72,19416,5,8
408,216,19816,1,0
336,216,20016,1,0
264,216,20216,1,8
192,216,20416,1,0
264,48,21016,1,8
192,48,21216,6,0,B|104:32|96:104|104:152,1,150
104,208,21816,1,8
104,280,22016,1,0
168,320,22216,1,0
256,200,22616,1,8
256,48,23016,1,0
328,48,23216,1,0
448,144,23616,5,0
488,288,24016,2,0,B|408:288,2,75,0|8|0
256,192,24816,12,0,25416
72,56,25816,5,8
40,200,26216,1,0
112,200,26416,1,0
184,200,26616,1,8
256,200,26816,1,0
440,200,27416,1,8
440,128,27616,6,0,B|416:40|296:56,1,150
248,56,28216,1,8
176,56,28416,1,0
104,56,28616,1,0
136,200,29016,1,8
240,312,29416,1,0
312,312,29616,1,0
464,312,30016,5,0
408,168,30416,2,0,B|480:248,2,75,0|8|0
405,79,31216,2,0,B|456:24,2,75,0|8|8
304,119,31816,6,0,B|304:280|304:280|304:208|304:208|184:208|184:208|184:288|184:288|184:120,1,600,0|8
104,120,33616,5,0
104,192,33816,1,2
104,344,34216,1,2
256,344,34616,1,0
456,112,35016,5,2
392,72,35216,1,0
328,112,35416,1,2
392,248,35816,1,2
256,184,36216,1,2
160,256,36616,5,8
96,296,36816,1,0
32,256,37016,1,8
96,112,37416,1,8
256,184,37816,1,8
304,72,38216,6,8,B|40:80|72:224|472:200|440:304|136:320,1,599.999999999999,8|8
88,320,40016,1,0
88,248,40216,1,2
88,96,40616,1,4
160,96,40816,6,0,B|240:40,2,75,0|0|4
384,56,41616,6,0,B|464:104,2,75,0|0|4
448,271,42416,6,0,B|377:319,2,75,0|0|4
224,312,43216,6,0,B|224:237,2,75,0|0|4
288,96,44016,5,0
176,96,44216,1,0
256,192,44416,12,4,46816
408,144,47216,6,0,B|472:88,2,75
320,96,47816,1,0
320,288,48216,1,8
320,96,48616,1,0
128,96,49016,5,0
48,152,49216,1,0
48,344,49616,2,0,B|128:344,2,75,0|8|0
240,344,50416,2,0,B|320:344,2,75,0|8|0
480,184,51416,5,8
288,184,51816,1,0
480,184,52216,1,0
424,96,52416,1,0
240,40,52816,2,0,B|165:40,2,75,0|8|0
80,152,53616,6,0,B|80:240,3,75,0|0|0|8
272,224,54616,1,0
80,224,55016,1,8
176,56,55416,1,0
264,88,55616,1,0
448,160,56016,2,0,B|357:125,2,75,0|8|0
384,344,56816,2,0,B|472:304,2,75,0|8|0
88,344,57816,5,0
88,152,58216,1,8
88,344,58616,1,0
168,296,58816,1,0
336,192,59216,2,0,B|280:120,2,75,0|8|0
256,192,60016,12,4,60616
440,80,61016,5,0
288,80,61416,1,0
136,80,61816,1,0
80,136,62016,1,0
24,272,62416,1,0
88,312,62616,1,0
160,312,62816,1,0
256,192,63216,1,0
432,56,63816,1,4
376,192,64216,5,0
320,56,64616,1,0
256,192,65016,1,0
208,136,65216,1,0
96,40,65616,1,0
40,88,65816,1,0
40,160,66016,1,0
40,312,66416,1,0
192,312,66816,1,4
152,88,67416,5,0
216,48,67616,1,0
280,88,67816,1,2
432,88,68216,1,0
432,240,68616,2,0,B|432:152,3,75,2|0|0|0
296,248,69616,6,0,B|368:312,2,75
216,248,70216,6,0,B|144:312,2,75,4|0|0
216,168,70816,6,0,B|152:104,2,75,4|0|0
296,168,71416,6,0,B|368:96,2,75,4|0|0
256,232,72016,6,0,B|256:312,3,75,4|0|0|0
256,152,73016,1,0
256,192,73416,12,2,75016
256,336,75416,5,0
464,192,75816,5,0
256,40,76216,5,0
48,192,76616,5,4
184,328,77016,1,8
152,264,77216,1,0
152,192,77416,1,8
256,80,77816,1,0
328,80,78016,2,0,B|408:120|392:216,3,150,2|2|2|2
256,192,79816,5,4
328,56,80216,1,8
360,120,80416,1,0
360,192,80616,1,8
256,304,81016,1,0
184,304,81216,2,0,B|104:264|120:168,3,150,2|2|2|2
256,192,83016,12,2,85516
