osu file format v5

[General]
AudioFilename: Bouken desho desho (TV Size).mp3
AudioLeadIn: 0
PreviewTime: 46816
Countdown: 0
SampleSet: Soft
StackLeniency: 0.2
Mode: 0
LetterboxInBreaks: 0

[Editor]
Bookmarks: 4416,11016,19016,25416,31816,38216,47816,54216,60616,67016,75016,83016
DistanceSpacing: 1.20000004768372
BeatDivisor: 4
GridSize: 32

[Metadata]
Title:Bouken Desho Desho (TV Size)
Artist:Hirano Aya
Creator:Ryuukun
Version:John Smith
Source:Suzumiya Haruhi no Yuuutsu
Tags:anime djpop

[Difficulty]
HPDrainRate:5
CircleSize:5
OverallDifficulty:8
SliderMultiplier:1.9
SliderTickRate:1

[Events]
//Background and Video events
Video,0,"Hirano Aya - Bouken Desho Desho.avi"
0,0,"Haurhi2.jpg"
//Break Periods
//Storyboard Layer 0 (Background)
//Storyboard Layer 1 (Fail)
//Storyboard Layer 2 (Pass)
//Storyboard Layer 3 (Foreground)
Sprite,Foreground,Centre,"DJPop-01.png",320,240 M,0,10516,11616,205,100,505,300 F,0,10516,11616,0,1 S,0,10516,11616,5,1 R,0,10516,11616,50,0 M,0,11616,18816,505,300,505,280 F,0,11616,18816,1 S,0,11616,18816,1 M,0,18816,19216,505,280,505,80 F,0,18816,19216,1,0 S,0,18816,19216,1,5
Sprite,Foreground,Centre,"DJPop-02.png",320,240 M,0,10516,11616,205,560,505,360 F,0,10516,11616,0,1 S,0,10516,11616,5,1 R,0,10516,11616,50,0 M,0,11616,18816,505,360,505,340 F,0,11616,18816,1 S,0,11616,18816,1 M,0,18816,19216,505,340 F,0,18816,19216,1,0 S,0,18816,19216,1,5
//Storyboard Sound Samples
//Background Colour Transformations
3,100,248,173,213

[TimingPoints]
1416,400,4,2,0,50,1,0
4216,-200,4,2,0,50,0,0
9816,-100,4,2,0,26,0,0
10316,-100,4,2,0,29,0,0
10416,-100,4,2,0,32,0,0
10516,-100,4,2,0,35,0,0
10616,-100,4,2,0,38,0,0
10716,-100,4,2,0,41,0,0
10816,-100,4,2,0,44,0,0
10916,-100,4,2,0,47,0,0
11016,-100,4,1,0,50,0,1
17316,-200,4,2,0,0,0,1
18116,-100,4,1,0,18,0,1
18316,-100,4,1,0,22,0,1
18416,-100,4,1,0,26,0,1
18516,-100,4,1,0,30,0,1
18616,-100,4,1,0,34,0,1
18716,-100,4,1,0,38,0,1
18816,-100,4,1,0,42,0,1
18916,-100,4,1,0,46,0,1
19016,-100,4,1,0,50,0,1
19216,-100,4,1,0,50,0,0
46016,-200,4,1,0,50,0,0
46616,-100,4,1,0,0,0,0
46716,-100,4,1,0,50,0,0
47816,-100,4,1,0,50,0,1
60616,-100,4,1,0,50,0,0
70216,-100,4,1,0,50,0,1
70815,-100,4,1,0,50,0,0
70816,-100,4,1,0,50,0,1
71415,-100,4,1,0,50,0,0
71416,-100,4,1,0,50,0,1
72015,-100,4,1,0,50,0,0
72016,-100,4,1,0,50,0,1
72615,-100,4,1,0,50,0,0
72616,-100,4,1,0,50,0,1
73015,-100,4,1,0,50,0,0
73016,-100,4,1,0,50,0,1
73415,-100,4,1,0,50,0,0
73416,-100,4,1,0,50,0,1
73516,-100,4,2,0,50,0,1
75216,-100,4,1,0,50,0,0
76616,-100,4,1,0,50,0,1
83016,-100,4,2,0,50,0,1

[Colours]
Combo1 : 198,180,226
Combo2 : 186,253,153
Combo3 : 167,188,243

[HitObjects]
32,32,4416,5,0
80,64,4616,1,2
128,96,4816,1,0
64,192,5216,1,0
128,288,5616,1,0
176,256,5816,1,0
224,288,6016,1,0
272,320,6216,5,2
336,224,6616,1,0
368,176,6816,2,0,B|394:170|400:144,1,47.5,0|2
368,96,7216,1,0
400,48,7416,1,0
448,80,7616,1,0
480,32,7816,1,2
256,192,7916,12,2,9416
256,32,10216,5,0
256,56,10316,1,0
256,80,10416,1,0
256,104,10516,1,0
256,128,10616,1,0
256,152,10716,1,0
256,176,10816,1,0
256,200,10916,1,0
256,224,11016,1,4
128,352,11416,5,8
160,288,11616,1,0
224,320,11816,1,0
288,320,12016,1,0
352,288,12216,1,8
384,352,12416,1,4
480,192,12816,5,0
416,160,13016,1,8
480,128,13216,1,4
320,32,13616,5,0
256,32,13816,2,0,B|256:224,1,190,8|4
384,352,14616,5,8
352,288,14816,1,0
288,320,15016,1,0
224,320,15216,1,0
160,288,15416,1,8
128,352,15616,1,4
32,192,16016,5,0
96,160,16216,1,8
32,128,16416,1,4
192,32,16816,5,0
256,32,17016,2,0,B|256:128,1,95,8|0
224,192,17416,2,0,B|224:248|255:270|288:248|288:192,1,142.5
256,128,18216,5,0
288,112,18316,1,0
304,80,18416,1,0
288,48,18516,1,0
256,32,18616,1,0
224,48,18716,1,0
208,80,18816,1,0
224,112,18916,1,0
256,128,19016,1,4
384,256,19416,5,8
224,352,19816,1,0
160,320,20016,1,0
96,288,20216,1,8
32,256,20416,2,0,B|32:138|160:160,1,190
192,224,21016,5,8
224,288,21216,2,0,B|342:288|320:160,1,190
288,96,21816,1,8
320,32,22016,1,0
352,96,22216,1,0
480,224,22616,5,8
352,352,23016,1,0
384,288,23216,2,0,B|331:274|320:224,1,95,0|8
256,256,23616,2,0,B|256:352|160:352|160:256,1,190
128,192,24216,1,8
96,256,24416,1,0
32,64,24816,5,0
64,48,24916,1,0
96,32,25016,1,12
128,48,25116,1,0
160,64,25216,1,0
96,96,25416,1,4
288,32,25816,5,8
224,224,26216,1,0
192,288,26416,1,0
224,352,26616,1,8
256,288,26816,2,0,B|352:320|320:192|416:224,1,190
480,192,27416,5,8
416,160,27616,2,0,B|320:192|352:64|256:96,1,190
224,160,28216,1,8
192,96,28416,1,0
224,32,28616,1,0
32,96,29016,5,8
96,288,29416,1,0
32,320,29616,2,0,B|32:224,1,95,0|8
96,192,30016,2,0,B|171:243|192:352,1,190,4|0
256,320,30616,1,8
320,288,30816,1,4
480,192,31216,5,8
448,208,31316,1,8
416,224,31416,1,8
384,208,31516,1,8
352,192,31616,1,0
416,160,31816,6,0,B|416:93|352:32|288:64,1,190,4|8
256,128,32416,1,0
224,64,32616,2,0,B|160:32|96:93|96:160,1,190,8|8
32,192,33216,2,0,B|45:244|96:256,1,95,0|8
128,320,33616,5,2
192,352,33816,2,0,B|192:296|257:276|320:296|320:352,1,190,10|10
384,320,34416,1,0
416,336,34516,1,0
448,352,34616,1,8
480,288,34816,6,0,B|512:256|481:224|448:224,1,95,0|8
384,192,35216,1,0
320,160,35416,2,0,B|320:216|255:236|192:216|192:160,1,190,10|10
128,192,36016,2,0,B|75:179|64:128,1,95,0|8
128,96,36416,2,0,B|143:42|192:32,1,95,0|8
224,96,36816,5,0
256,32,37016,1,8
288,96,37216,2,0,B|339:84|352:32,1,95,0|8
416,64,37616,1,2
448,128,37816,2,0,B|433:182|384:192,1,95,10|0
352,256,38216,6,0,B|288:256|272:240|288:208|304:176|288:160|224:160,1,190,4|8
160,192,38816,1,0
96,224,39016,2,0,B|96:288|112:304|144:288|176:272|192:288|192:352,1,190,8|8
256,320,39616,2,0,B|256:385|320:352,1,95,0|8
384,320,40016,5,2
448,288,40216,2,0,B|480:272|496:240|491:208|496:176|480:144|448:128,1,190,10|10
384,96,40816,5,0
320,64,41016,1,8
256,32,41216,1,4
128,160,41616,5,0
192,128,41816,1,8
256,96,42016,1,4
384,224,42416,5,0
320,192,42616,1,8
256,160,42816,1,4
128,288,43216,5,0
192,256,43416,1,8
256,224,43616,1,4
384,352,44016,5,0
320,320,44216,1,8
256,288,44416,1,4
256,32,44816,5,0
256,96,45016,1,8
64,32,45416,5,8
32,96,45616,1,0
64,160,45816,1,8
128,192,46016,2,0,B|152:216|193:234|232:216|256:192,1,142.5,4|0
256,192,46816,5,0
352,32,47216,1,0
416,64,47416,1,0
448,128,47616,1,0
416,192,47816,5,4
96,192,48216,5,8
416,192,48616,5,0
96,192,49016,5,8
160,224,49216,2,0,B|352:224,1,190
416,192,49816,5,8
352,160,50016,2,0,B|160:160,1,190
96,192,50616,5,8
160,192,50816,2,0,B|256:192,1,95
352,352,51416,5,8
480,224,51816,5,0
288,288,52216,5,8
256,352,52416,2,0,B|160:384|192:256|96:288,1,190
64,224,53016,5,8
32,160,53216,2,0,B|6:94|32:64|64:32|128:64,1,190
160,128,53816,5,8
224,96,54016,1,0
256,32,54216,5,4
256,352,54616,5,8
256,32,55016,5,0
256,352,55416,5,8
288,288,55616,2,0,B|288:96,1,190
256,32,56216,5,8
224,96,56416,2,0,B|224:288,1,190
256,352,57016,5,8
256,288,57216,2,0,B|256:192,1,95
384,64,57816,5,8
480,224,58216,5,0
352,352,58616,5,8
320,288,58816,2,0,B|368:256|375:209|368:160|320:128,1,190
256,96,59416,5,8
192,128,59616,2,0,B|144:160|137:207|144:256|192:288,1,190
224,304,60116,5,0
256,320,60216,1,8
288,304,60316,1,0
320,288,60416,1,0
336,256,60516,1,0
352,224,60616,6,0,B|320:128|448:160|416:64,3,190,4|8|0|8
352,32,62016,6,0,B|256:0|288:128|192:96,1,190
128,64,62616,1,8
192,32,62816,1,0
32,128,63216,5,0
64,192,63416,1,8
96,256,63616,1,0
128,272,63716,1,0
160,288,63816,6,0,B|256:256|224:384|320:352,3,190,4|8|0|8
384,320,65216,6,0,B|416:224|288:256|320:160,1,190
288,96,65816,1,8
256,160,66016,1,0
384,32,66416,6,0,B|432:41|448:96,1,95,0|8
480,160,66816,1,0
448,224,67016,6,0,B|472:350|352:352,1,190,4|8
288,320,67616,1,0
224,288,67816,2,0,B|32:288,2,190,0|8|0
288,256,68816,5,0
352,224,69016,1,8
288,192,69216,1,0
480,128,69616,5,0
416,96,69816,1,8
352,64,70016,1,0
288,32,70216,5,6
224,64,70416,1,0
160,96,70616,1,0
224,64,70816,5,6
256,128,71016,1,0
288,192,71216,1,0
256,128,71416,5,6
192,160,71616,1,0
128,192,71816,1,0
192,160,72016,5,6
224,224,72216,1,0
256,288,72416,1,0
224,224,72616,5,6
96,352,73016,1,2
32,160,73416,1,4
256,192,73516,12,2,75016
480,224,75416,5,0
416,32,75816,1,0
480,64,76016,1,0
416,96,76216,1,0
480,128,76416,1,0
416,160,76616,1,4
352,352,77016,5,8
320,288,77216,1,0
288,224,77416,1,0
224,224,77616,1,0
192,288,77816,1,8
160,352,78016,1,4
32,224,78416,5,0
96,192,78616,1,8
32,160,78816,1,4
160,32,79216,5,0
224,64,79416,1,8
288,64,79616,1,0
320,48,79716,1,0
352,32,79816,1,4
416,224,80216,5,8
352,192,80416,1,0
288,224,80616,1,0
224,224,80816,1,0
160,192,81016,1,8
96,224,81216,1,4
224,352,81616,5,0
256,288,81816,1,8
288,352,82016,1,4
256,128,82416,5,0
256,64,82616,1,8
256,192,83016,12,2,85466
