osu file format v5

[General]
AudioFilename: Bouken desho desho (TV Size).mp3
AudioLeadIn: 0
PreviewTime: 46816
Countdown: 0
SampleSet: Normal
StackLeniency: 0.7
Mode: 0
LetterboxInBreaks: 0

[Editor]
Bookmarks: 3816,7816
DistanceSpacing: 1
BeatDivisor: 4
GridSize: 8

[Metadata]
Title:Bouken Desho Desho (TV Size)
Artist:Hirano Aya
Creator:Ryuukun
Version:15,499 Loops
Source:Suzumiya Haruhi no Yuuutsu
Tags:Anime, Haruhi

[Difficulty]
HPDrainRate:8
CircleSize:4
OverallDifficulty:7
SliderMultiplier:2
SliderTickRate:0.5

[Events]
//Background and Video events
Video,0,"Hirano Aya - Bouken Desho Desho.avi"
0,0,"Haurhi2.jpg"
//Break Periods
//Storyboard Layer 0 (Background)
//Storyboard Layer 1 (Fail)
//Storyboard Layer 2 (Pass)
//Storyboard Layer 3 (Foreground)
Sprite,Foreground,Centre,"3warning.png",498,149 M,0,66216,,498,149 F,0,66216,66416,0,0.18 F,0,66416,66616,0.18,0 F,0,66616,66816,0,0.364 F,0,66816,67016,0.364,0 F,0,67016,67216,0,0.624 F,0,67216,67416,0.624,0 F,0,67416,67616,0,0.54 F,0,67616,67816,0.54,0.284 F,0,67816,68016,0.284,0.86 F,0,68016,68216,0.86,0.376 F,0,68216,68416,0.376,0 F,0,68416,68616,0,1 F,0,68616,68816,1,0 F,0,68816,69016,0,0.832 F,0,69016,69216,0.832,0 F,0,69216,69416,0,1 F,0,69416,69816,1 S,0,69416,69816,1,1.632 F,0,69816,69866,1,0 F,0,69866,69916,0,1 F,0,69916,69966,1,0 F,0,69966,70016,0,1 F,0,70016,70066,1,0 F,0,70066,70116,0,1 F,0,70116,70166,1,0 S,0,69816,70216,1.632 F,0,70166,70216,0,1 F,0,70216,70266,1 F,0,70216,70416,1,0
Sprite,Foreground,Centre,"acrd.png",320,240 V,0,12016,12116,1,1,1,0 M,0,12016,12216,440,208,440,238 V,0,12116,12216,1,0,0,1 V,0,12216,12316,0,1,1,1 F,0,12016,12416,0,1 M,0,12216,12416,440,238 V,0,12316,12416,1,1 M,0,12416,13816,440,238 F,0,12416,18616,1 S,0,12416,18616,0.4479999,0.3439999 F,0,18616,19016,1,0 S,0,18616,19016,0.3439999,1.568 R,0,18616,19016,0,0.2560005
//Storyboard Sound Samples
//Background Colour Transformations
3,100,248,173,213

[TimingPoints]
11016,400,4,1,0,51,1,0
13716,-100,4,2,0,51,0,0
14516,-100,4,1,0,51,0,0
17816,-100,4,1,0,1,0,0
18116,-100,4,2,0,51,0,0
19016,-100,4,1,0,51,0,0
19316,-100,4,1,0,51,0,0
40516,-100,4,2,0,51,0,0
40766,-100,4,1,0,51,0,0
46816,-100,4,1,0,51,0,0
47816,-100,4,1,0,51,0,1
60316,-100,4,1,0,51,0,0
61016,-200,4,1,0,40,0,0
69616,-50,4,1,0,51,0,0
70216,-100,4,1,0,51,0,0
74416,-100,4,1,0,1,0,0
74716,-100,4,2,0,51,0,0
75316,-100,4,1,0,51,0,0
85616,-100,4,2,0,30,0,0

[Colours]
Combo1 : 198,180,226
Combo2 : 186,253,153
Combo3 : 167,188,243

[HitObjects]
120,48,11016,1,0
320,48,11416,1,0
416,72,11616,1,0
456,160,11816,1,8
440,256,12016,1,0
352,296,12216,1,0
256,320,12416,2,8,B|120:328|80:240,1,200
24,48,13216,1,8
200,8,13616,1,8
296,16,13816,5,2
344,24,13916,1,2
384,48,14016,1,2
408,88,14116,1,2
408,136,14216,1,2
296,296,14616,5,0
200,328,14816,1,0
104,296,15016,1,8
48,208,15216,1,0
88,120,15416,1,0
176,72,15616,2,8,B|312:88|304:224,1,200
488,272,16416,1,8
296,336,16816,1,8
256,192,17016,12,8,17816
56,32,18216,5,2
64,80,18316,1,2
72,128,18416,1,2
80,176,18516,1,2
88,224,18616,1,2
96,272,18716,1,2
104,320,18816,1,2
144,288,18916,1,0
184,264,19016,1,4
488,264,19416,6,0,C|440:376|376:304,1,200
328,232,20016,1,0
264,152,20216,1,0
200,232,20416,1,4
56,288,21216,6,0,B|16:176|96:96,1,200
176,40,21816,1,0
272,8,22016,1,0
352,72,22216,1,8
176,200,22616,1,8
376,200,23016,1,0
456,144,23216,1,0
272,64,23616,2,0,B|208:48|168:96,2,100
248,160,24216,1,0
224,256,24416,2,0,B|128:304|48:248|48:184,1,200
40,112,25016,2,4,B|128:72|240:144,1,200,0|4
336,304,25816,5,0
432,128,26216,1,0
328,128,26416,1,0
224,128,26616,1,0
120,128,26816,2,0,B|24:216|72:312,1,200,8|0
272,304,27616,2,0,B|400:304|440:208,1,200
440,120,28216,1,0
352,40,28416,1,0
240,32,28616,2,0,B|136:32|48:128,1,200,8|0
112,304,29416,1,0
208,336,29616,1,0
400,296,30016,6,2,B|504:232|496:128,1,200
416,72,30616,1,0
320,32,30816,2,2,C|248:40|312:56|232:64,1,200
160,96,31416,1,0
72,144,31616,1,4
120,232,31816,6,4,B|216:328|424:328|488:224,1,400
256,32,33216,1,6
456,32,33616,1,2
488,128,33816,1,0
456,224,34016,1,2
344,224,34216,1,0
288,128,34416,1,2
344,32,34616,1,0
224,48,34816,6,0,B|96:56|104:224,1,200
192,224,35416,2,0,C|248:256|184:248|248:288,1,200
344,296,36016,1,0
488,152,36416,2,0,B|384:32|200:72,1,300
120,96,37216,1,0
296,184,37616,1,0
232,104,37816,1,4
432,88,38216,6,0,B|432:248|376:272|360:176,1,200
240,40,39016,2,0,B|120:24|72:136,1,200
72,216,39616,1,2
152,160,39816,1,0
232,104,40016,1,2
312,168,40216,1,0
384,104,40416,1,2
456,168,40616,1,2
456,168,40716,1,2
456,168,40816,6,0,B|472:240|400:248,2,100
288,48,41616,1,0
88,88,41816,1,0
288,112,42016,1,4
88,200,42416,5,0
288,240,42616,1,0
88,264,42816,1,4
288,352,43216,5,0
88,320,43416,1,0
288,288,43616,2,0,B|352:184|504:248,1,200,4|0
264,208,44216,1,0
272,104,44416,2,0,B|368:-16|448:88,1,200,4|0
440,184,45016,5,0
408,280,45216,1,0
312,296,45416,1,4
208,288,45616,2,0,B|208:176,2,100
144,72,46816,6,0,B|112:24|48:48,2,100,0|0|0
288,96,47416,1,0
120,200,47816,2,4,B|208:272|312:248,1,200
104,264,48616,2,4,B|208:248|328:344,1,200
384,272,49216,2,0,B|456:176|408:80,1,200
320,40,49816,1,0
216,40,50016,2,0,B|88:24|32:112,1,200
56,200,50616,1,2
136,256,50816,2,0,B|240:256,1,100,0|2
432,320,51416,6,0,B|376:360|328:336|368:200,1,200
472,32,52216,1,0
400,104,52416,1,2
200,64,52816,1,0
112,112,53016,1,2
24,160,53216,1,2
152,312,53616,5,0
232,256,53816,1,0
312,200,54016,1,0
392,144,54216,2,0,B|472:96|400:8|344:32|320:88,1,200,4|0
128,56,55016,1,4
56,240,55416,1,0
144,288,55616,2,2,B|232:216|344:256,1,200,2|0
424,208,56216,1,0
360,136,56416,2,2,B|272:200|160:160,1,200,2|2
64,144,57016,1,0
144,80,57216,2,0,B|128:200|304:40,1,200
376,72,57816,6,0,B|488:128|480:240,1,200,2|0
320,344,58616,1,0
224,320,58816,2,0,C|168:280|224:272|160:232,1,200,2|0
72,184,59416,1,0
40,88,59616,1,2
240,88,60016,2,6,B|184:144|240:232|360:184|296:88,1,200,2|2
312,132,60616,1,4
448,112,61016,6,0,B|400:208,1,100
288,40,61816,1,0
232,120,62016,2,0,B|192:152|192:152|160:104,1,100
80,64,62616,1,0
56,160,62816,2,0,B|40:216|40:216|96:248,1,100,0|4
296,320,64216,6,0,B|376:320|368:320|368:320|352:256,1,100
168,240,65016,1,0
256,192,65216,1,0
64,136,65616,1,0
144,80,65816,1,0
144,80,66016,2,0,B|216:72|216:72|200:104,1,100
312,96,66816,1,4
144,144,67416,5,0
232,104,67616,1,0
320,144,67816,1,0
232,328,68216,1,0
320,144,68616,1,0
232,104,68816,1,0
144,144,69016,1,0
232,192,69216,1,4
312,56,69616,5,2
312,56,69716,1,2
312,56,69816,2,0,B|312:264,1,200
232,256,70216,1,0
232,256,70416,1,2
152,256,70616,1,0
152,256,70816,1,2
80,216,71016,1,0
80,216,71216,1,2
48,144,71416,1,0
48,144,71616,1,2
104,88,71816,1,0
104,88,72016,1,2
184,72,72216,1,0
184,72,72416,1,2
296,72,72616,2,2,B|424:48|504:96,2,200,2|2|6
256,192,73616,12,2,74416
96,80,74816,5,0
96,80,74916,1,0
96,80,75016,1,2
256,80,75416,6,0,B|384:72|472:168,1,200
368,280,76216,2,0,B|280:336|136:240,1,200,0|4
64,152,77016,5,0
64,152,77216,1,0
136,120,77416,1,0
136,120,77616,1,0
208,88,77816,1,0
208,88,78016,1,0
400,24,78416,1,0
448,104,78616,6,0,B|504:200|456:304,1,200
304,336,79416,2,0,B|176:344|112:272,1,200,0|4
64,128,80216,5,0
64,128,80416,1,0
104,56,80616,1,0
104,56,80816,1,0
184,64,81016,1,0
184,64,81216,1,0
360,152,81616,1,0
424,72,81816,5,0
424,232,82216,2,0,B|344:328|240:232,1,200,0|0
248,80,83016,1,4
256,192,83216,12,2,85616
