osu file format v5

[General]
AudioFilename: Lucky Star [OP] - Motteke! Sailor Fuku.mp3
AudioLeadIn: 3000
PreviewTime: 14206
Countdown: 1
SampleSet: Normal
EditorBookmarks: 205484

[Metadata]
Title:Motteke! Sera-Fuku
Artist:Hirano Aya (Izumi Konata)
Creator:neo@lex
Version:Normal

[Difficulty]
HPDrainRate:4
CircleSize:2
OverallDifficulty:5
SliderMultiplier:1.4
SliderTickRate:1

[Events]
//Background and Video events
0,0,"luckystarkk0.jpg"
1,0,"rakisuta.avi"
//Break Periods
2,13503,25329
2,39084,44684
2,71084,82884
2,89883,95684
2,161065,172544
//Storyboard Layer 0 (Background)
//Storyboard Layer 1 (Failing)
//Storyboard Layer 2 (Passing)
//Storyboard Layer 3 (Foreground)
//Storyboard Sound Samples
//Background Colour Transformations
3,100,163,162,255

[TimingPoints]
884,400,4,1,0,100

[Colours]
Combo1 : 228,130,253
Combo2 : 215,0,215
Combo3 : 170,85,255
Combo4 : 255,255,138

[HitObjects]
192,96,884,1,0
256,96,1284,1,0
320,96,1684,1,0
256,192,2484,1,0
256,320,3484,1,2
384,256,4084,5,0
384,192,4484,1,0
384,128,4884,1,0
256,192,5684,1,0
96,192,6684,1,2
256,128,7284,5,2
256,256,8084,1,2
192,192,8884,1,2
256,192,9284,1,2
320,192,9684,1,2
256,64,10484,5,0
256,320,11284,1,0
160,192,12084,1,0
224,192,12484,1,0
288,192,12884,1,2
352,192,13284,1,2
64,96,26484,5,0
96,96,26684,1,0
128,96,26884,1,0
128,128,27084,1,0
128,160,27284,1,0
128,192,27484,1,0
128,288,27884,1,0
128,288,28084,1,0
128,352,28284,2,0,C|440:352,1,280
280,352,29684,5,0
312,352,29884,1,0
344,352,30084,1,0
384,352,30284,1,0
384,352,30484,1,0
384,352,30684,1,0
384,256,31084,1,0
384,256,31284,1,0
384,208,31484,2,0,C|72:240,1,280
64,96,32884,6,2,C|208:96,1,140
64,160,33684,2,2,C|208:160,1,140
64,224,34484,2,2,C|208:224,1,140
64,288,35284,2,2,C|208:288,1,140
256,256,36084,2,0,C|448:24,2,280
224,288,38484,1,0
224,288,38584,1,0
224,288,38684,1,0
224,288,38784,1,0
224,288,38884,1,0
192,288,45884,5,0
192,288,46084,1,0
320,288,46484,2,0,L|320:175,2,105
192,160,47484,5,0
192,160,47684,1,0
288,176,48084,2,0,C|288:288,2,105
384,160,49084,5,0
384,160,49284,1,0
480,320,49684,2,0,C|480:96,1,210
384,64,50684,5,0
384,64,50884,1,0
288,64,51284,2,0,C|288:280,1,210
192,288,52284,5,2
99,289,52884,2,0,L|184:64,3,210
256,96,55084,1,2
296,96,55284,2,2,C|296:168,14,70
352,288,58684,5,0
224,288,59084,2,0,C|152:288,1,70
64,288,59684,2,0,C|64:224|96:192|160:192|160:288|224:320|288:288|320:128|320:88,1,630
224,64,61884,2,0,C|128:64|128:184,1,210
160,256,63084,2,0,C|304:256,1,140
416,256,64284,5,0
416,256,64484,1,0
416,256,64684,1,0
409,152,65284,2,0,C|352:80,1,70
252,82,66084,2,0,C|152:256,2,175
320,96,67684,2,0,C|216:208,1,140
96,256,68484,2,2,C|96:160|408:104,1,420
416,160,70084,1,2
416,160,70284,1,2
416,160,70484,1,2
416,160,70684,1,2
416,160,70884,1,2
192,96,84084,5,0
256,96,84484,1,0
320,96,84884,1,0
256,192,85684,1,0
256,320,86684,1,2
96,128,87284,2,2,C|384:160,3,280
448,288,96884,5,0
416,288,97084,1,0
384,288,97284,1,0
384,256,97484,1,0
384,224,97684,1,0
384,192,97884,1,0
384,96,98284,1,0
384,96,98484,1,0
384,32,98684,2,0,C|72:32,1,280
232,32,100084,5,0
200,32,100284,1,0
168,32,100484,1,0
128,32,100684,1,0
128,32,100884,1,0
128,32,101084,1,0
128,128,101484,1,0
128,128,101684,1,0
128,176,101884,2,0,C|440:144,1,280
448,288,103284,6,2,C|304:288,1,140
448,224,104084,2,2,C|304:224,1,140
448,160,104884,2,2,C|304:160,1,140
448,96,105684,2,2,C|304:96,1,140
256,128,106484,2,0,C|64:360,2,280
288,96,108884,1,0
288,96,108984,1,0
288,96,109084,1,0
288,96,109184,1,0
288,96,109284,1,0
320,96,109884,5,0
320,96,110084,1,0
192,96,110484,2,0,L|192:209,2,105
320,224,111484,5,0
320,224,111684,1,0
224,208,112084,2,0,C|224:96,2,105
128,224,113084,5,0
128,224,113284,1,0
32,64,113684,2,0,C|32:280,1,210
128,320,114684,5,0
128,320,114884,1,0
224,320,115284,2,0,C|224:104,1,210
320,96,116284,5,2
413,95,116884,2,0,L|320:320,3,210
256,288,119084,1,2
216,288,119284,2,2,C|216:216,14,70
16,144,122684,6,2,C|483:155|117:336|256:32|400:346|112:224,1,1890
254,214,128684,2,0,C|251:157|347:157|347:317|123:317|123:93|379:29|433:133,1,1190
416,223,132484,1,0
384,224,132684,2,2,C|384:32|320:320,1,490
320,320,134284,1,2
320,320,134484,1,2
320,320,134684,1,2
320,320,134884,1,2
496,240,135484,6,2,C|29:229|395:48|256:352|112:38|336:112,1,1820
240,112,141084,6,2,L|64:122|157:309|240:144,4,560
104,104,148084,5,0
192,96,148484,1,0
280,88,148884,1,0
256,192,149684,1,0
256,320,150684,1,2
256,64,151284,5,0
256,320,152084,1,0
160,192,152884,1,0
224,192,153284,1,0
288,192,153684,1,2
352,192,154084,1,2
256,192,154484,12,0,157284
256,192,157684,12,0,160884
160,96,173684,2,0,L|411:296|412:96|91:299|96:96,4,1085
192,96,186684,5,0
192,96,186884,1,0
320,96,187284,2,0,L|320:209,2,105
192,160,188284,5,0
192,160,188484,1,0
288,208,188884,2,0,C|288:96,2,105
384,144,189884,5,0
384,144,190084,1,0
480,64,190484,2,0,C|480:289,1,210
384,320,191484,5,0
384,320,191684,1,0
288,320,192084,2,0,C|288:104,1,210
192,96,193084,5,2
99,95,193684,2,0,L|200:328,3,245
256,288,196084,2,2,C|256:208,14,70
496,144,199484,6,2,C|29:155|395:336|256:32|112:346|272:272,1,1750
80,192,205084,1,2
48,208,205284,1,2
16,240,205484,6,2,C|483:229|117:48|256:352|400:38|112:160,1,1890
256,144,211284,1,2
384,144,211684,1,2
496,144,212084,6,2,C|29:155|395:336|256:32|112:346|320:256,1,1820
96,192,217884,1,0
48,176,218084,1,0
16,144,218284,6,2,C|483:155|117:336|256:32|400:346|144:208,1,1890
256,192,224084,1,0
256,192,224284,1,0
256,192,224484,1,0
256,192,224884,2,2,L|256:160|320:160|352:192|320:224|288:256|224:256|160:192|224:96|288:96|416:192|288:320|224:320|96:192|224:32|288:32|480:192|384:192,1,1750
112,144,230684,1,0
64,144,230884,1,0
16,128,231084,6,2,C|496:132|58:339|256:32|464:344|80:176,1,2170
144,128,237684,5,0
208,128,238084,1,0
272,128,238484,1,0
256,192,239284,2,0,L|352:192|192:320|256:320,1,350
384,256,240884,5,0
384,192,241284,1,0
384,128,241684,1,0
256,192,242484,2,0,L|224:128|160:96|44:116|96:192,1,350
256,128,244084,5,2
256,256,244884,1,2
192,192,245684,1,2
256,192,246084,1,2
320,192,246484,1,2
256,32,247284,2,0,L|256:320,1,280
160,192,248884,1,0
224,192,249284,1,0
288,192,249684,1,2
352,192,250084,1,6
