osu file format v5

[General]
AudioFilename: Lucky Star [OP] - Motteke! Sailor Fuku.mp3
AudioLeadIn: 3000
PreviewTime: 14206
Countdown: 1
SampleSet: Normal

[Metadata]
Title:Motteke! Sera-Fuku
Artist:Hirano Aya (Izumi Konata)
Creator:neo@lex
Version:Hard

[Difficulty]
HPDrainRate:6
CircleSize:6
OverallDifficulty:6
SliderMultiplier:1
SliderTickRate:1

[Events]
//Background and Video events
0,0,"luckystarkk0.jpg"
1,0,"rakisuta.avi"
//Break Periods
2,13484,25434
2,39084,44684
2,71084,82884
2,90684,95834
2,161065,172544
//Storyboard Layer 0 (Background)
//Storyboard Layer 1 (Failing)
//Storyboard Layer 2 (Passing)
//Storyboard Layer 3 (Foreground)
//Storyboard Sound Samples
//Background Colour Transformations
3,100,163,162,255

[TimingPoints]
884,400,4,1,0,100

[Colours]
Combo1 : 228,130,253
Combo2 : 215,0,215
Combo3 : 170,85,255
Combo4 : 255,255,138

[HitObjects]
160,96,884,2,0,B|273:96,1,100
320,96,1684,1,0
320,96,1884,1,0
192,160,2284,1,0
224,160,2484,2,0,B|320:192,1,100
352,192,3084,1,0
416,192,3484,1,2
384,256,3884,5,0
384,256,4084,1,0
384,192,4484,1,0
384,128,4884,1,0
384,128,5084,1,0
320,128,5484,1,0
288,128,5684,2,0,B|192:160,1,100
160,160,6284,1,0
96,160,6684,1,2
96,96,7084,6,0,B|128:64|160:64,1,50
160,64,7484,1,0
224,96,7884,6,0,B|256:64|288:64,1,50
288,64,8284,1,0
352,64,8684,5,0
352,96,8884,2,0,B|352:320,1,200
288,288,10084,1,0
288,256,10284,5,0
288,224,10484,1,0
224,224,10884,1,2
224,256,11084,1,0
224,288,11284,1,0
160,288,11684,5,2
160,256,11884,1,2
160,224,12084,2,0,B|192:128,1,100
224,128,12684,1,0
256,128,12884,1,0
288,128,13084,1,0
320,128,13284,1,0
64,96,26484,5,0
96,96,26684,1,0
128,96,26884,1,0
128,128,27084,1,0
128,160,27284,1,0
128,192,27484,1,0
128,224,27684,1,0
128,288,27984,1,0
128,288,28084,1,0
128,320,28284,2,0,C|192:320,1,50
224,320,28684,1,0
256,320,28884,2,0,B|288:224,1,100
320,224,29484,1,0
352,224,29684,6,0,B|384:192|320:160|384:128,1,100
352,128,30284,2,0,B|288:128,1,50
288,96,30684,1,0
288,64,30884,2,0,B|224:64,1,50
224,96,31284,1,0
224,128,31484,2,0,B|192:160|160:224|160:256|288:224,1,200
352,224,32684,5,0
352,224,32884,2,0,B|352:128|320:64|224:64|128:96,1,300
96,128,34384,1,0
96,128,34484,2,0,B|160:128,1,50
224,128,35084,2,0,B|224:192,1,50
192,192,35484,1,0
192,224,35684,1,0
256,256,36084,6,0,C|352:192,2,100
256,288,37084,1,0
288,288,37284,1,0
320,288,37484,2,0,B|320:192|256:192|160:192,1,200
160,192,38484,1,0
160,192,38584,1,0
160,192,38684,1,0
160,192,38784,1,0
160,192,38884,1,0
192,288,45884,5,0
192,288,46084,1,0
256,288,46484,2,0,L|256:192,2,75
288,288,47284,1,0
320,288,47484,5,0
320,288,47684,1,0
320,224,48084,2,0,L|320:128,2,75
288,224,48884,1,0
256,224,49084,5,0
256,224,49284,1,0
192,224,49684,2,0,L|192:128,2,75
160,224,50484,1,0
128,224,50684,5,0
128,224,50884,1,0
64,224,51284,2,0,B|64:128|128:96,1,150
192,96,52284,5,2
256,128,52884,2,0,L|256:32,2,75
288,128,53684,1,0
320,128,53884,1,2
320,128,54084,1,0
320,192,54484,6,0,L|320:288,2,75
288,192,55284,2,0,B|224:192,1,50
224,160,55684,1,0
192,160,55884,2,0,B|192:96,2,50
192,192,56484,1,0
192,224,56684,1,0
256,192,56884,12,0,58084
384,288,58684,2,0,B|320:288,1,50
320,256,59084,1,0
320,224,59284,2,0,B|288:128,1,100
256,128,59884,2,0,B|256:64,5,50
192,64,61284,1,0
160,64,61484,2,0,B|96:64|96:128,1,100
96,160,62084,1,0
96,192,62284,2,0,B|96:256,1,50
128,256,62684,2,0,B|224:224,1,100
288,224,63484,2,0,B|352:224,1,50
416,224,64084,5,0
416,224,64284,1,0
416,224,64484,1,0
416,224,64684,1,0
384,128,65284,1,0
384,128,65484,1,0
288,128,66084,1,0
256,128,66284,2,0,B|160:160,3,100
160,192,67684,1,0
160,256,68084,1,0
224,256,68484,1,0
224,256,68684,2,0,B|320:224,1,100
416,128,69684,5,2
384,128,69884,1,2
352,128,70084,1,2
320,128,70284,1,2
288,128,70484,1,2
256,128,70684,1,2
224,128,70884,1,2
160,96,84084,6,0,B|273:96,1,100
320,96,84884,1,0
320,96,85084,1,0
320,160,85484,1,0
288,160,85684,2,0,B|192:192,1,100
160,192,86284,1,0
96,192,86684,1,2
96,128,87084,6,0,B|128:96|160:96,1,50
160,96,87484,1,0
192,128,87684,1,0
224,128,87884,6,0,B|256:96|288:96,1,50
288,96,88284,1,0
320,96,88484,1,0
256,192,88684,12,0,90484
448,96,96884,5,0
416,96,97084,1,0
384,96,97284,1,0
384,128,97484,1,0
384,160,97684,1,0
384,192,97884,1,0
384,224,98084,1,0
384,288,98384,1,0
384,288,98484,1,0
384,320,98684,2,0,C|320:320,1,50
288,320,99084,1,0
256,320,99284,2,0,B|224:224,1,100
192,224,99884,1,0
160,224,100084,6,0,B|128:192|192:160|128:128,1,100
160,128,100684,2,0,B|224:128,1,50
224,96,101084,1,0
224,64,101284,2,0,B|288:64,1,50
288,96,101684,1,0
288,128,101884,2,0,B|320:160|352:224|352:256|224:224,1,200
160,224,103084,5,0
128,224,103284,2,0,B|128:128|160:64|256:64|352:96,1,300
384,128,104784,1,0
384,128,104884,2,0,B|320:128,1,50
296,128,105284,1,0
288,192,105684,1,0
320,192,105884,1,0
320,224,106084,1,0
256,224,106484,6,0,C|160:160,2,100
221,311,107684,1,0
221,311,107784,1,0
160,288,108084,2,0,B|160:128,1,150
160,128,108884,1,0
160,128,108984,1,0
160,128,109084,1,0
160,128,109184,1,0
160,128,109284,1,0
192,64,109884,5,0
192,64,110084,1,0
256,96,110484,2,0,L|256:192,2,75
288,96,111284,1,0
320,96,111484,5,0
320,96,111684,1,0
320,160,112084,2,0,L|320:256,2,75
288,160,112884,1,0
256,160,113084,5,0
256,160,113284,1,0
192,160,113684,2,0,L|192:256,2,75
160,160,114484,1,0
128,160,114684,5,0
128,160,114884,1,0
64,160,115284,2,0,B|64:256|128:288,1,150
192,288,116284,5,2
256,256,116884,2,0,L|256:352,2,75
288,256,117684,1,0
320,256,117884,1,2
320,256,118084,1,0
320,192,118484,6,0,L|320:96,2,75
288,192,119284,2,0,B|224:192,1,50
224,224,119684,1,0
192,224,119884,2,0,B|192:288,2,50
192,192,120484,1,0
192,160,120684,1,0
256,192,120884,12,0,122084
352,96,122684,2,0,B|288:96,1,50
288,128,123084,1,0
288,160,123284,2,0,B|256:256,1,100
256,256,123884,2,0,B|256:320,5,50
192,320,125284,1,0
160,320,125484,2,0,B|96:320|96:256,1,100
96,224,126084,1,0
96,192,126284,2,0,B|96:128,1,50
128,128,126684,2,0,B|224:160,1,100
288,160,127484,2,0,B|352:160,1,50
416,160,128084,5,0
416,160,128284,1,0
416,160,128484,1,0
416,160,128684,1,0
384,256,129284,1,0
384,256,129484,1,0
288,256,130084,1,0
256,256,130284,2,0,B|160:224,3,100
160,192,131684,1,0
160,128,132084,1,0
224,128,132484,1,0
224,128,132684,2,0,B|320:160,1,100
416,256,133684,5,2
384,256,133884,1,2
352,256,134084,1,2
320,256,134284,1,2
288,256,134484,1,2
256,256,134684,1,2
224,256,134884,1,2
160,256,135484,5,2
160,224,135684,1,2
160,192,135884,1,2
160,160,136084,2,2,B|256:128,1,100
288,128,136684,1,2
352,128,137084,1,2
384,192,137484,2,2,B|384:256|352:288|224:288,1,200
160,288,138684,1,2
160,224,139084,1,2
160,192,139284,2,2,B|192:96,1,100
224,96,139884,1,2
288,96,140284,1,2
384,160,141084,5,0
384,160,141284,1,0
384,160,141484,1,0
384,256,142084,1,0
384,256,142284,1,0
288,256,142884,1,0
256,256,143084,2,0,B|160:224,3,100
160,192,144484,1,0
160,128,144884,1,0
224,128,145284,1,0
224,128,145484,2,0,B|320:160,1,100
256,192,146484,12,0,147684
352,96,148084,6,0,B|239:96,1,100
192,96,148884,1,0
192,96,149084,1,0
192,160,149484,1,0
224,160,149684,2,0,B|320:192,1,100
352,192,150284,1,0
416,192,150684,1,2
416,128,151084,6,0,B|384:96|352:96,1,50
352,96,151484,1,0
320,128,151684,1,0
288,128,151884,6,0,B|256:96|224:96,1,50
224,96,152284,1,0
192,96,152484,1,0
256,192,152684,12,0,154484
256,192,154884,12,0,157284
256,192,157684,12,0,160884
32,32,173684,2,0,L|480:32|480:352|32:352|32:96|416:96|416:288|96:288|96:160|352:160|352:256|160:256|160:224|288:224,1,3200
320,224,186684,1,0
352,224,186884,1,0
416,224,187284,2,2,B|417:85|320:128,1,150
320,128,188084,1,0
288,128,188284,6,0,B|224:128,1,50
192,192,188884,1,4
128,192,189184,1,4
128,128,189484,1,4
192,160,189884,5,0
160,160,190084,1,0
96,160,190484,2,2,B|95:299|192:256,1,150
192,256,191284,1,0
224,256,191484,6,0,B|288:256,1,50
320,192,192084,1,4
384,192,192384,1,4
384,256,192684,1,4
320,288,193084,5,6
224,288,193684,2,0,B|224:192,2,75
192,288,194484,1,0
160,288,194684,2,0,B|160:224,1,50
192,224,195084,1,0
224,224,195284,2,0,B|224:320,2,75
224,192,196084,1,0
224,160,196284,1,0
224,128,196484,1,0
224,96,196684,1,0
224,64,196884,1,0
224,32,197084,1,0
256,192,197284,12,0,198884
320,288,199484,1,2
288,288,199684,1,0
256,288,199884,2,2,B|192:288,1,50
192,256,200284,1,0
224,224,200484,2,2,B|288:224,2,50
192,224,201084,1,2
192,192,201284,1,2
224,192,201484,2,2,B|224:128,1,50
288,128,202084,6,2,B|288:64,1,50
320,64,202484,1,0
352,64,202684,2,2,B|352:128,1,50
352,160,203084,2,2,B|352:224,3,50
320,224,203884,2,2,B|256:256|224:224,1,100
224,192,204484,1,0
224,112,205084,1,0
256,128,205284,6,2,B|288:128|304:176,1,50
320,256,206084,1,0
288,256,206284,2,2,B|176:256,1,100
160,256,206884,1,0
128,256,207084,2,2,B|128:192|192:176,1,100
288,160,207884,1,2
288,224,208284,1,0
288,256,208484,1,2
224,256,208884,6,0,B|160:256|128:224|128:160,2,150
256,192,210484,12,0,211684
192,96,212284,1,2
224,96,212484,1,2
256,96,212684,2,2,B|320:96,1,50
320,128,213084,1,0
288,160,213284,2,2,B|224:160,2,50
320,160,213884,1,2
320,192,214084,1,2
288,192,214284,2,2,B|288:256,1,50
224,256,214884,6,2,B|224:320,1,50
192,320,215284,1,0
160,320,215484,2,2,B|160:256,1,50
160,224,215884,2,2,B|160:160,3,50
192,160,216684,2,2,B|256:128|288:160,1,100
288,192,217284,1,0
288,272,217884,1,0
256,256,218084,6,2,B|222:252|208:208,1,50
192,128,218884,1,0
224,128,219084,2,2,B|336:128,1,100
352,128,219684,1,0
384,128,219884,2,2,B|384:192|317:200|320:208,1,100
224,224,220684,1,2
224,160,221084,1,0
224,128,221284,1,2
288,128,221684,6,0,B|352:128|384:160|384:224,2,150
256,192,223284,12,0,224484
320,160,224684,2,4,B|320:96,1,50
320,96,225084,1,2
288,96,225284,1,0
256,96,225484,2,6,B|192:96,1,50
192,128,225884,1,0
224,160,226084,2,2,B|288:160,2,50
192,160,226684,1,6
192,192,226884,1,6
224,192,227084,2,6,B|224:256,1,50
256,256,227484,1,0
288,256,227684,6,2,B|288:320,1,50
320,320,228084,1,4
352,320,228284,2,2,B|352:256,1,50
352,224,228684,2,6,B|352:160,3,50
320,160,229484,2,2,B|256:128|224:160,1,100
224,192,230084,1,0
224,256,230484,1,4
256,256,230684,6,6,B|320:256|320:192,1,100
320,160,231284,1,4
320,128,231484,1,0
288,128,231684,2,2,B|224:128,1,50
192,128,232084,1,4
160,128,232284,1,0
128,128,232484,2,2,B|128:192|160:224|224:224,1,150
256,224,233284,1,4
288,224,233484,1,6
288,192,233684,1,4
288,160,233884,1,0
288,128,234084,1,2
224,128,234484,6,4,B|160:128|128:160|128:224,2,150
192,192,236084,5,0
224,192,236284,1,2
256,192,236484,1,2
288,192,236684,1,2
288,224,236884,1,2
320,224,237084,1,2
352,224,237284,1,2
352,288,237684,6,0,B|239:288,1,100
192,288,238484,1,0
192,288,238684,1,0
320,224,239084,1,0
288,224,239284,2,0,B|192:192,1,100
160,192,239884,1,0
96,192,240284,1,2
128,128,240684,5,0
128,128,240884,1,0
128,192,241284,1,0
128,256,241684,1,0
128,256,241884,1,0
192,256,242284,1,0
224,256,242484,2,0,B|320:224,1,100
352,224,243084,1,0
416,224,243484,1,2
416,288,243884,6,0,B|384:320|352:320,1,50
352,320,244284,1,0
288,288,244684,6,0,B|256:320|224:320,1,50
224,320,245084,1,0
160,320,245484,1,0
160,288,245684,2,0,B|160:64,1,200
224,96,246884,1,0
224,128,247084,5,0
224,160,247284,1,0
288,160,247684,1,2
288,128,247884,1,0
288,96,248084,1,0
352,96,248484,5,2
352,128,248684,1,2
352,160,248884,2,0,B|320:256,1,100
288,256,249484,1,0
256,256,249684,1,4
224,256,249884,1,4
192,256,250084,1,4
