osu file format v5

[General]
AudioFilename: Lucky Star [OP] - Motteke! Sailor Fuku.mp3
AudioLeadIn: 3000
PreviewTime: 14206
Countdown: 1
SampleSet: Normal
StackLeniency: 0.7
Mode: 0

[Metadata]
Title:Motteke! Sera-Fuku
Artist:Hirano Aya (Izumi Konata)
Creator:neo@lex
Version:Easy

[Difficulty]
HPDrainRate:4
CircleSize:2
OverallDifficulty:0
SliderMultiplier:1.4
SliderTickRate:1

[Events]
//Background and Video events
0,0,"luckystarkk0.jpg"
1,0,"rakisuta.avi"
//Break Periods
2,39084,44684
2,71084,82884
2,89883,95684
2,109484,121484
2,153884,172484
//Storyboard Layer 0 (Background)
//Storyboard Layer 1 (Failing)
//Storyboard Layer 2 (Passing)
//Storyboard Layer 3 (Foreground)
//Storyboard Sound Samples
//Background Colour Transformations
3,100,163,162,255

[TimingPoints]
884,400,4,1,0,100

[Colours]
Combo1 : 211,165,254
Combo2 : 0,0,255
Combo3 : 254,171,206
Combo4 : 255,255,138

[HitObjects]
192,32,13684,2,0,C|192:320,1,280
256,320,14884,1,0
320,320,15284,2,0,C|320:32,1,280
256,64,16484,1,0
192,32,16884,6,0,C|192:320,1,280
256,320,18084,1,0
256,192,18484,12,0,19684
256,320,21284,1,0
192,320,21684,2,0,C|192:32,1,280
256,64,22884,1,0
256,160,23284,2,4,C|158:313|417:288|384:32|128:128,1,980
64,96,26484,6,0,C|64:256,2,140
160,96,27684,1,0
160,96,28084,1,0
128,160,28484,2,0,C|440:160,1,280
448,96,29684,6,0,C|448:256,2,140
352,96,30884,1,0
352,256,31484,2,0,C|72:192,1,280
64,96,32884,2,0,C|512:96,1,420
448,192,34484,2,0,C|0:192,1,420
256,192,36084,12,0,38884
192,288,45884,6,0,C|192:192,1,70
192,128,46484,1,0
320,128,47084,1,0
320,64,47484,6,0,C|64:64|192:160,1,420
320,288,49084,6,0,C|320:192,1,70
320,128,49684,1,0
192,128,50284,1,0
192,64,50684,6,0,C|448:64|448:224,1,420
192,288,52284,5,2
99,289,52884,2,0,L|184:64,3,210
264,88,55084,1,0
256,192,55284,12,2,58084
128,160,59684,1,0
192,160,60084,1,0
256,160,60484,1,0
320,160,60884,1,0
352,256,61484,1,0
288,256,61884,2,0,C|64:256,1,210
32,192,63084,2,0,C|176:192,1,140
96,128,64684,1,0
256,128,65484,1,0
416,128,66284,1,0
416,192,66684,1,0
416,256,67084,1,0
320,320,67684,1,0
256,320,68084,2,0,C|57:205|384:128,1,560
256,192,70084,12,0,70884
192,96,84084,5,0
256,96,84484,1,0
320,96,84884,1,0
256,192,85684,1,0
256,320,86684,1,2
128,192,87284,2,2,C|416:224,3,280
448,96,96884,6,0,C|448:256,2,140
352,96,98084,1,0
352,96,98484,1,0
384,192,98884,2,0,C|72:192,1,280
64,96,100084,6,0,C|64:256,2,140
160,96,101284,1,0
144,256,101884,2,2,C|440:192,1,280
448,96,103284,2,4,C|0:96,1,420
64,192,104884,2,4,C|512:192,1,420
256,192,106484,12,4,109284
71,129,122684,6,2,C|426:143|132:319|257:50|398:315|25:135,1,1750
416,128,128684,1,0
256,128,129484,1,0
96,128,130284,1,0
96,192,130684,1,0
96,256,131084,1,0
192,320,131684,1,0
256,320,132084,2,0,C|455:205|128:128,1,560
256,192,134084,12,0,134884
320,192,136684,2,0,C|160:192,1,140
96,192,137684,1,0
96,96,138284,2,0,C|256:96,1,140
320,96,139284,1,0
256,128,139884,2,0,C|256:288,1,140
96,272,141084,6,0,L|96:112|240:112|240:288|160:288,4,560
96,128,148084,5,0
160,128,148484,1,0
224,128,148884,1,0
352,128,149684,1,0
352,256,150684,1,2
224,256,151684,1,0
128,256,152484,1,0
128,192,152884,2,0,C|416:192,1,280
96,64,173684,5,0
416,64,175284,1,0
416,288,176884,1,0
96,288,178484,1,0
128,96,180084,2,0,C|256:96,1,105
352,224,181284,2,0,C|192:224,1,140
160,224,182084,1,0
352,96,183284,1,0
352,256,183884,1,0
192,256,184484,1,0
192,96,185084,1,0
256,160,185684,1,0
256,256,186084,1,0
256,192,186484,12,0,187884
288,208,188884,2,0,C|288:96,2,105
256,192,189884,12,0,191084
288,320,192084,2,0,C|288:104,1,210
192,96,193084,5,2
99,95,193684,2,0,L|146:321,3,210
255,304,195884,1,0
256,192,196084,12,0,198884
432,236,199484,6,2,C|95:220|400:56|260:312|157:36|476:240,1,1680
69,238,205484,6,2,C|424:224|130:48|255:317|396:52|23:232,1,1750
256,192,211284,1,2
442,134,212084,6,2,C|87:148|381:324|256:55|115:320|488:140,1,1750
75,130,218284,6,2,C|430:144|136:320|261:51|402:316|29:136,1,1750
35,56,223684,1,0
188,149,224484,1,0
256,192,224884,5,0
352,192,225484,2,0,C|352:96,1,70
416,192,226484,2,0,C|416:32,2,140
256,192,228084,1,0
160,192,228684,2,0,C|160:96,1,70
96,192,229684,2,0,C|96:32,2,140
73,122,231084,6,2,C|428:136|134:312|259:43|400:308|27:128,1,1750
256,192,236484,12,0,237284
256,192,239284,2,0,L|352:192|192:320|256:320,1,350
256,192,242484,2,0,L|224:128|160:96|44:116|96:192,1,350
256,128,244084,5,2
256,256,244884,1,2
192,192,245684,1,2
256,192,246084,1,2
320,192,246484,1,2
256,32,247284,2,0,L|256:320,1,280
160,192,248884,5,0
224,192,249284,5,4
288,192,249684,5,2
352,192,250084,5,6
