osu file format v5

[General]
AudioFilename: Lost_My_Music.mp3
AudioLeadIn: 0
PreviewTime: -1
Countdown: 1
SampleSet: Normal
StackLeniency: 0.7
Mode: 0
LetterboxInBreaks: 1

[Metadata]
Title:Lost My Music
Artist:Hirano Aya (Haruhi Suzumiya)
Creator:AnimmeFann
Version:Insane
Source:
Tags:

[Difficulty]
HPDrainRate:5
CircleSize:5
OverallDifficulty:5
SliderMultiplier:1.4
SliderTickRate:1

[Events]
//Background and Video events
0,0,"Haruhi338.jpg"
//Break Periods
2,89375,98431
2,165081,193306
//Storyboard Layer 0 (Background)
//Storyboard Layer 1 (Failing)
//Storyboard Layer 2 (Passing)
//Storyboard Layer 3 (Foreground)
//Storyboard Sound Samples
//Background Colour Transformations
3,100,163,162,255

[TimingPoints]
0,300,4,1,0,100,1
89400,300,4,1,0,100,1
89506,300,4,1,0,100,1

[HitObjects]
32,128,22800,1,0
96,32,23100,1,0
160,128,23400,1,0
224,32,23700,1,0
288,128,24000,1,0
352,32,24300,1,0
416,128,24600,2,0,B|512:128,1,70,2|0
128,160,25575,1,0
192,224,25875,1,0
256,288,26175,1,0
320,224,26475,1,0
384,160,26775,1,0
320,128,27075,1,0
320,128,27150,1,0
128,128,27900,1,0
160,192,28200,1,0
192,128,28500,1,0
224,192,28800,2,0,B|320:192|352:192,1,105
384,192,29325,1,0
256,192,29700,1,0
224,160,32400,5,0
256,128,32700,1,0
288,160,33000,1,0
256,192,33300,1,0
320,224,33600,2,0,B|160:224,1,140
192,224,34200,2,0,B|224:64,1,140,0|0
224,96,35025,1,0
288,96,35400,1,0
64,160,36075,5,0
96,160,36375,1,0
128,160,36675,1,0
64,256,37500,1,0
96,256,37800,1,0
128,256,38100,1,0
160,288,38400,1,0
192,256,38700,1,0
224,288,39000,2,2,B|320:288,1,70,2|2
128,128,42000,5,0
128,160,42300,5,0
128,192,42600,1,0
128,224,42900,1,0
128,256,43200,2,0,B|288:256,1,140
268,256,43800,1,8
96,160,44775,1,8
160,160,45075,2,8,B|320:160,1,140
300,160,45675,2,8,B|288:320,1,140
289,299,46275,1,8
32,256,47175,1,8
96,128,47475,1,8
160,256,47775,1,8
224,128,48075,1,8
288,256,48375,1,8
352,128,48675,1,8
416,256,48975,2,8,B|480:256,1,35
64,288,51675,2,0,B|64:128,1,140
128,160,52200,2,0,B|128:320,1,140
192,288,52800,2,0,B|192:128,1,140
197,100,53325,2,0,B|517:324,1,385
480,320,54375,1,10
480,320,54675,1,10
53,166,55275,5,0
95,130,55575,1,0
138,102,55875,1,0
16,260,56700,1,0
47,313,57000,1,0
87,270,57300,1,0
132,326,57600,2,0,B|320:156|433:287|448:282,1,315,0|12
0,32,60075,5,0
64,160,60375,1,0
128,32,60675,2,0,B|480:224,1,385
416,320,61800,1,0
384,288,62100,1,0
352,320,62400,1,0
320,288,62700,1,0
288,320,63000,2,0,B|-32:32,1,420
64,32,64200,1,10
160,160,64875,1,8
224,96,65175,1,8
288,160,65475,1,8
224,224,65775,1,8
224,160,66075,1,8
160,96,66375,1,8
256,160,66675,2,8,B|384:64,1,140
448,320,67275,2,8,B|352:192,1,140
192,224,67875,2,10,B|64:320,1,140
32,160,69675,1,0
32,160,69975,1,0
32,96,70275,2,0,B|480:96,1,420
256,288,71475,1,0
384,288,71775,1,0
160,192,72075,1,0
32,64,72375,1,0
96,64,72675,2,0,B|512:64,1,385
478,64,73800,1,0
64,64,74475,1,0
128,224,74775,1,0
160,64,75075,1,0
224,224,75375,1,0
256,64,75675,1,0
320,224,75975,1,0
448,128,76275,2,0,B|288:128,1,140
192,128,76875,2,0,B|32:128,1,140
256,192,77475,12,0,78375
64,64,79875,5,0
64,64,80100,1,0
64,320,80400,1,0
64,320,80625,1,0
448,64,81000,1,0
448,192,81225,1,0
448,320,81450,1,0
256,320,81975,1,0
64,320,82275,1,0
64,96,82575,1,0
416,96,82875,1,0
416,320,83175,1,0
64,192,83475,2,0,B|192:192,1,105
192,192,84000,1,0
224,320,84600,1,0
64,192,84900,1,0
224,32,85200,1,0
384,192,85500,1,0
128,96,85800,1,0
128,288,86025,1,0
320,96,86325,1,0
320,288,86775,1,0
320,288,86850,1,8
320,96,87075,1,8
128,96,87375,1,8
128,288,87750,1,0
320,288,87975,1,0
256,192,88275,12,0,89175
96,128,99631,5,0
192,128,99931,1,0
288,128,100231,1,0
288,224,100531,1,0
192,224,100831,1,0
96,224,101131,2,8,B|96:64,1,140
96,96,102256,1,0
96,224,102556,1,0
256,224,102856,1,0
416,224,103156,1,0
416,96,103456,2,8,B|256:96,1,140
96,128,104731,1,8
192,288,105031,1,8
288,128,105331,1,8
416,288,105631,1,8
480,128,105931,2,8,B|320:128,1,140
256,128,106531,1,8
32,320,109231,2,0,B|32:160,1,140
128,192,109831,2,0,B|128:352,1,140
224,320,110431,2,0,B|224:160,1,140
352,224,111106,1,0
352,224,111931,1,0
352,224,112231,1,0
32,160,112906,1,0
96,96,113131,1,0
160,160,113431,2,0,B|320:160,1,140
352,96,114256,1,0
416,160,114631,1,0
352,224,114931,1,0
288,288,115231,1,0
224,320,115531,1,0
256,192,115981,12,8,116656
64,64,118831,5,0
256,64,119131,1,0
448,64,119431,1,0
64,288,119731,1,0
256,288,120031,1,0
448,288,120331,2,0,B|448:128,1,140
256,64,121531,1,0
192,128,121831,1,0
128,192,122131,1,0
192,256,122431,1,0
256,320,122731,1,0
256,192,123031,1,8
64,192,123931,5,8
96,160,124231,1,8
128,192,124531,1,8
160,160,124831,1,8
192,192,125131,1,8
192,192,125431,2,8,B|352:192,1,140
64,160,128506,5,0
448,160,128806,1,0
448,160,129106,1,0
64,160,129406,1,0
256,320,129706,1,0
256,64,130006,1,0
32,160,130306,2,0,B|352:160,1,315
416,160,131206,1,8
416,160,131506,1,8
128,64,131956,2,8,B|288:64,1,140
352,64,132556,1,8
352,160,133606,1,8
256,160,133831,2,8,B|96:160,1,140
128,256,134431,1,8
224,256,134731,2,8,B|416:256,1,175
64,192,136756,6,8,B|192:96,1,140
256,64,137356,2,0,B|384:224,1,175,0|0
448,320,138406,1,0
256,320,138631,1,0
96,320,138931,1,0
96,64,139231,1,0
256,64,139531,1,0
448,64,139831,1,0
160,128,140806,1,8
320,128,141106,1,8
32,288,141706,5,0
96,96,141931,1,0
160,288,142231,1,0
224,96,142531,1,0
320,288,142831,1,0
384,96,143131,1,0
448,192,143431,1,0
320,192,143656,1,0
160,192,143956,1,0
64,96,144256,1,0
160,96,144556,2,0,B|320:96,1,140
32,64,146356,2,0,B|192:64,1,140
256,64,147031,1,0
384,64,147931,1,0
64,192,148231,1,0
384,320,148531,1,0
224,192,148831,1,0
320,192,149056,1,0
224,192,149356,1,0
320,160,150256,1,8
160,160,150556,1,8
160,224,151306,1,0
320,224,151531,1,0
160,96,151831,1,0
320,96,152131,1,0
160,224,152431,1,0
320,96,152731,1,0
320,224,153031,1,0
160,96,153331,1,0
160,160,153631,1,0
320,160,153931,1,0
320,96,154231,1,0
256,192,154531,12,0,155431
64,160,156706,1,0
64,160,156931,1,0
416,160,157306,1,0
416,160,157531,1,0
224,64,157831,1,0
224,64,158131,2,0,B|224:256,1,175
224,239,158731,1,0
64,160,158956,1,0
64,160,159256,1,0
384,160,159631,1,0
384,160,159931,1,0
320,160,160231,1,0
320,160,160531,2,0,B|160:160,1,140
64,64,161506,5,0
64,64,161731,1,0
448,320,162106,1,0
448,320,162331,1,0
64,320,162631,2,0,B|192:320,1,105
169,320,163231,1,0
448,64,163456,1,0
448,64,163756,1,0
64,192,164131,1,0
448,192,164431,1,0
448,320,164656,1,0
448,320,164881,1,0
96,160,194506,5,0
160,96,194731,1,0
224,160,195031,1,0
288,96,195931,1,0
352,160,196231,1,0
416,224,196531,1,0
352,288,196831,1,0
256,224,197131,1,0
160,288,197431,1,0
64,224,198331,1,0
64,128,198631,1,0
64,64,199306,5,0
64,64,199531,1,0
224,64,199831,1,0
224,64,200056,1,0
64,192,200431,1,0
64,192,200731,1,0
224,192,201031,1,0
224,192,201256,1,0
384,192,201631,1,0
384,192,201931,1,0
384,320,202231,2,0,B|224:320,1,140
96,160,204106,5,0
96,160,204331,1,0
96,160,204631,1,0
96,64,205531,1,0
192,64,205831,2,0,B|352:64,1,140
352,64,206431,1,0
352,64,206731,1,0
352,192,207031,1,0
352,192,207856,2,0,B|192:192,1,140
32,64,208906,1,0
32,288,209131,1,0
224,64,209431,1,0
224,288,209731,1,0
32,160,210031,1,0
224,160,210331,1,0
128,288,210631,1,0
128,64,210931,1,0
32,256,211231,1,0
224,96,211456,1,0
256,192,211681,12,0,213031
64,160,213706,1,0
224,160,213931,1,0
384,160,214231,1,0
384,288,215131,1,0
384,288,215431,1,0
224,288,215731,1,0
64,288,216031,1,0
64,288,216331,1,0
64,96,216631,1,0
416,96,217531,1,0
64,96,217831,1,0
64,96,218506,6,0,B|64:224,1,105
160,224,219031,2,0,B|160:64,1,140
256,96,219631,2,0,B|256:256,1,140
64,96,220231,2,0,B|224:96,1,140
128,192,220831,2,0,B|288:192,1,140
192,288,221356,2,0,B|352:288,1,140
32,96,223231,6,0,B|288:96,1,245
242,96,224731,1,0
384,96,225031,1,0
384,96,225331,1,0
384,96,225631,1,0
256,96,225931,1,0
256,96,226231,1,0
96,96,227056,2,0,B|256:96,1,140
64,256,228031,5,0
128,192,228331,1,0
192,256,228631,1,0
256,192,228931,1,0
320,256,229231,1,0
384,192,229531,1,0
448,128,229831,1,0
384,64,230131,1,0
320,128,230431,1,0
256,64,230731,1,0
256,64,231031,2,0,B|96:64,1,140
256,96,233506,5,0
160,192,233731,1,0
256,288,234031,1,0
352,192,234256,1,0
160,96,234556,1,0
160,288,234781,1,0
352,96,235081,1,0
352,288,235606,1,0
160,192,235906,1,0
256,96,236131,1,0
352,192,236431,1,0
256,288,236656,1,0
160,192,236956,1,0
160,192,237181,2,0,B|320:192,1,140
64,64,238231,5,0
96,96,238456,1,0
160,64,238831,1,0
192,96,239056,1,0
288,64,239431,1,0
320,96,239656,1,0
352,64,239881,1,0
448,288,240406,1,0
448,288,240556,1,0
384,288,240706,1,0
320,288,240931,1,0
320,288,241231,1,0
256,288,241456,2,0,B|128:288,1,105
64,160,243106,5,8
64,160,243331,1,8
160,96,243631,1,8
160,96,243931,1,8
288,96,244231,1,8
288,96,244456,2,8,B|448:96,1,140
428,96,245131,1,8
448,320,245431,1,8
448,320,245656,1,8
320,320,246031,1,8
320,320,246331,1,8
192,320,246631,1,8
192,320,246856,2,8,B|32:320,1,140
32,32,247906,5,8
32,160,248131,1,8
128,32,248431,1,8
128,160,248731,1,8
224,160,248956,2,8,B|352:160,1,105
320,160,249556,1,8
448,160,249856,1,8
448,160,250006,1,8
448,256,250231,1,8
384,256,250531,1,8
320,256,250831,2,8,B|192:256,1,105
128,256,251281,1,8
256,192,251656,12,8,252406
