osu file format v5

[General]
AudioFilename: Ike Ike (TV Size).mp3
AudioLeadIn: 1004
PreviewTime: 1922
Countdown: 1
SampleSet: Normal
StackLeniency: 0.7
Mode: 0
LetterboxInBreaks: 1
EditorBookmarks: 47403

[Metadata]
Title:Ike Ike
Artist:Hinoi Team
Creator:jmaeshawn
Version:Strawberries
Source:
Tags:

[Difficulty]
HPDrainRate:4
CircleSize:3
OverallDifficulty:6
SliderMultiplier:1.4
SliderTickRate:2

[Events]
//Background and Video events
0,0,"background.jpg"
1,-300,"Ike Ike (TV Size).avi"
//Break Periods
//Storyboard Layer 0 (Background)
//Storyboard Layer 1 (Failing)
//Storyboard Layer 2 (Passing)
//Storyboard Layer 3 (Foreground)
//Storyboard Sound Samples
//Background Colour Transformations
3,100,163,162,255

[TimingPoints]
2976,384.615384615385,4,1,0,90,1

[Colours]
Combo1 : 235,206,1
Combo2 : 255,0,0
Combo3 : 255,255,0
Combo4 : 2,215,108

[HitObjects]
496,344,2022,5,0
496,280,2214,2,0,B|424:280,2,70
496,216,2791,2,0,B|424:216,1,70
496,136,3264,1,0
432,80,3552,6,0,B|400:54|360:80,1,70
368,136,3937,2,0,B|394:168|368:208,3,70
288,208,4802,1,0
256,192,5091,12,0,7879
8,352,8168,6,0,B|92:336|104:240,1,140
48,232,8745,2,0,B|62:152|144:128,1,140
224,128,9418,1,0
224,224,9706,6,0,B|240:308|336:320,1,140
376,320,10283,2,0,B|453:282|448:208,1,140
448,112,10956,1,0
368,56,11245,6,0,C|16:56,1,350
18,56,12495,1,0
16,136,12783,2,0,C|376:136,1,350
366,136,14033,5,0
456,136,14322,5,0
456,200,14514,5,0
456,328,14899,5,0
336,280,15283,6,0,B|424:280,2,70
376,96,16245,6,0,B|262:120|160:56,1,210,0|0
144,120,17014,2,0,B|112:184,1,70
88,240,17399,2,0,B|16:208,1,70
24,336,17976,1,0
24,208,18360,6,0,B|24:157|80:176,2,70,0|0|0
208,184,19322,6,0,B|152:256,2,70
264,208,19899,2,0,B|270:172|270:172|326:161|305:106|305:106|368:101|344:32,1,210
408,48,20668,1,0
280,48,21052,1,0
200,144,21437,6,0,C|144:208,4,70
96,296,22783,1,0
40,184,23168,1,0
40,56,23552,2,0,B|48:10|96:40,4,70
304,328,25476,6,8,B|352:327|376:288,2,70,8|8|8
176,328,26245,6,8,B|128:327|104:288,2,70,8|8|8
256,24,27591,6,4,B|256:168,1,140
192,168,28168,2,0,B|256:252|320:152,3,140
368,152,29514,1,0
224,96,30476,2,0,B|172:56|101:142|153:193|153:193|248:303|248:303|336:192|336:192|391:121|313:55|264:104,1,630,0|0
392,40,32591,5,4
264,40,32976,5,4
136,40,33360,5,4
112,168,33745,6,0,B|124:256|188:314|272:288,1,210
256,168,34706,6,0,B|297:168|354:137|360:72,1,140,0|0
480,88,35476,1,0
480,88,35668,1,0
256,192,36629,12,0,39322
392,296,39899,5,12
296,296,40187,5,4
200,296,40476,5,12
136,296,40668,5,4
136,232,40860,6,12,C|232:232,3,70,4|4|4|4
248,184,41629,6,0,B|213:112|128:88,1,140
72,200,42399,6,0,B|23:205|32:264,2,70
352,304,43168,2,0,B|352:280|352:280|320:280|320:280|328:248|328:248|296:248|296:248|288:208|288:208,1,140
168,224,43937,6,4,C|264:224,3,70
216,280,44706,5,0
272,312,44899,1,0
328,344,45091,1,0
368,224,45476,1,0
400,168,45668,1,0
336,168,45860,1,0
288,128,46052,2,4,B|224:56|152:144,3,140
352,264,47591,6,0,L|320:288|288:256,3,70
176,240,48552,1,0
120,208,48745,1,0
120,144,48937,1,0
224,72,49322,2,0,B|312:48|344:168,1,140
344,248,50091,5,0
344,312,50283,1,0
408,312,50476,1,0
472,312,50668,2,0,B|507:291|507:224|472:168,1,140
120,80,52206,5,4
256,208,52783,1,4
360,152,53168,6,4,C|360:248,3,70
352,264,53937,6,0,L|320:288|288:256,2,70
448,184,54706,6,0,L|424:152|456:120,2,70,0|0|0
320,184,55476,5,0
256,200,55668,1,0
192,176,55860,1,0
224,56,56245,6,4,C|320:56,3,70
352,64,57014,5,0
416,64,57206,1,0
480,64,57399,1,0
488,192,57783,1,0
424,192,57976,1,0
360,192,58168,1,0
296,192,58360,2,0,B|136:192,3,140
104,304,59899,6,0,B|40:240|168:160|64:88,1,210
208,104,60860,1,0
240,152,61052,1,0
304,152,61245,1,0
312,280,61629,1,0
376,280,61822,1,0
416,232,62019,1,0
416,104,62399,2,0,B|344:48,5,70,0|0|0|0|0|0
256,192,64514,12,0,65668
216,288,66057,6,4,C|312:288,3,70
16,344,67399,5,0
16,280,67591,2,0,B|88:280,2,70
16,216,68168,2,0,B|88:216,1,70,0|8
16,136,68649,1,8
80,80,68937,6,0,B|112:54|152:80,1,70
144,136,69322,2,0,B|118:168|144:208,3,70,0|0|0|8
224,208,70187,1,8
256,192,70427,12,8,73264
504,352,73552,6,0,B|420:336|408:240,1,140
472,256,74134,2,8,B|458:176|376:152,1,140,0|8
288,160,74802,1,8
288,256,75091,6,0,B|272:340|176:352,1,140
128,344,75668,2,8,B|51:306|56:232,1,140,0|8
56,136,76341,1,8
104,56,76629,6,8,C|456:56,1,350,0|8
456,56,77879,1,8
456,152,78168,2,8,C|96:152,1,350,0|8
56,232,79418,5,0
56,136,79706,5,8
56,72,79899,6,14,C|160:72,3,70,14|14|14|14
