osu file format v5

[General]
AudioFilename: Ore Wa Tokoton Tomaranai.mp3
AudioLeadIn: 0
PreviewTime: -1
Countdown: 1
SampleSet: Normal
StackLeniency: 0.7
Mode: 0
LetterboxInBreaks: 1

[Editor]
DistanceSpacing: 0.800000011920929
BeatDivisor: 4
GridSize: 32

[Metadata]
Title:Ore Wa Tokoton Tomaranai
Artist:Hinoboru Kageyama
Creator:AgumonDX
Version:Half-Saiyan
Source:Dragon Ball
Tags:Dragon Ball, Z, Budokai, 3

[Difficulty]
HPDrainRate:5
CircleSize:5
OverallDifficulty:5
SliderMultiplier:1.4
SliderTickRate:1

[Events]
//Background and Video events
0,0,"Foto+Dragon+Ball+Z +Budokai+3.jpg"
//Break Periods
2,12404,18115
2,20789,23269
//Storyboard Layer 0 (Background)
//Storyboard Layer 1 (Fail)
//Storyboard Layer 2 (Pass)
//Storyboard Layer 3 (Foreground)
//Storyboard Sound Samples
//Background Colour Transformations
3,100,163,162,255

[TimingPoints]
9127.89193602008,307.692307692308,4,1,0,100,1,0

[Colours]
Combo1 : 255,255,0
Combo2 : 255,0,0
Combo3 : 255,128,64
Combo4 : 255,255,255

[HitObjects]
96,96,2666,1,0
192,96,3589,1,0
192,96,3974,1,0
288,96,4589,1,0
416,256,8358,5,0
320,256,9666,1,0
224,256,11666,1,0
96,256,12050,1,0
96,256,12204,1,0
256,192,19435,12,0,20589
96,128,24589,5,0
160,128,25050,1,0
416,288,28512,5,0
320,288,28974,1,0
224,288,29435,1,0
128,288,29897,1,0
128,192,30358,1,0
256,192,30666,1,0
256,192,30974,1,0
416,96,33666,5,0
320,96,34281,1,0
224,96,34743,1,0
96,256,35512,5,0
192,256,35820,1,0
192,256,35974,1,0
416,64,38743,5,0
320,64,39435,1,0
256,64,39897,1,0
416,288,41666,5,0
352,288,41974,1,0
256,288,42281,1,0
160,288,42666,1,0
160,288,42820,1,0
64,288,43127,1,0
64,96,43897,5,0
192,96,44589,5,0
320,96,45127,5,0
256,192,49127,12,0,50281
64,96,51743,5,0
128,96,51974,1,0
224,96,52358,1,0
320,96,52666,1,0
416,288,54281,1,0
320,288,54897,1,0
224,256,55204,1,0
224,256,55358,1,0
256,192,56897,12,0,59127
96,128,60589,5,0
160,128,60897,1,0
160,128,61050,1,0
416,256,61974,5,0
320,256,62974,1,0
320,256,63281,1,0
256,256,63974,1,0
64,96,65897,5,0
160,96,66512,1,0
256,96,66820,1,0
256,96,66974,1,0
416,288,68435,5,0
352,288,68974,1,0
352,288,69435,1,0
64,160,70974,5,0
64,160,71204,1,0
64,160,71358,1,0
64,160,71512,1,0
416,224,73281,5,0
352,224,73666,1,0
288,224,74281,1,0
256,192,76204,12,0,80358
160,192,81974,5,0
256,192,82435,1,0
256,192,82512,1,0
