osu file format v10

[General]
AudioFilename: 03 - Dreamland Dub.mp3
AudioLeadIn: 0
PreviewTime: 123126
Countdown: 0
SampleSet: Soft
StackLeniency: 0.3
Mode: 0
LetterboxInBreaks: 0

[Editor]
DistanceSpacing: 1
BeatDivisor: 4
GridSize: 4

[Metadata]
Title:Dreamland Dub
TitleUnicode:Dreamland Dub
Artist:Hinkstep
ArtistUnicode:Hinkstep
Creator:Static Noise Bird
Version:Sleep
Source:
Tags:Omnitropic Ektoplazm Sunrise From The Treetops Swedish Dub
BeatmapID:169497
BeatmapSetID:53375

[Difficulty]
HPDrainRate:3
CircleSize:3
OverallDifficulty:3
ApproachRate:4
SliderMultiplier:1.2
SliderTickRate:1

[Events]
//Background and Video events
0,0,"00 - Hinkstep - Sunrise From The Treetops - Cover Art Crop.jpg"
//Break Periods
2,33326,34806
2,45326,46806
2,72325,73806
//Storyboard Layer 0 (Background)
//Storyboard Layer 1 (Fail)
//Storyboard Layer 2 (Pass)
//Storyboard Layer 3 (Foreground)
//Storyboard Sound Samples
//Background Colour Transformations
3,100,0,0,0

[TimingPoints]
24126,500,6,2,0,25,1,0
75126,-100,6,2,0,50,0,0
147126,-100,6,2,0,50,0,1
171126,-100,6,2,0,50,0,0

[Colours]
Combo1 : 234,255,159
Combo2 : 164,230,26
Combo3 : 221,198,34
Combo4 : 0,179,0

[HitObjects]
72,264,24126,2,0,P|112:184|216:196,1,180,0|2,0:0|0:0,0:0:0
364,244,25626,2,0,P|420:264|484:252,2,120,2|0|2,0:0|0:0|0:0,0:0:0
428,144,27126,2,0,P|388:64|284:76,1,180,0|2,0:0|0:0,0:0:0
136,124,28626,2,0,P|80:144|16:132,2,120,2|0|2,0:0|0:0|0:0,0:0:0
256,192,30126,12,0,33126,0:0:0
40,192,36126,5,0,0:0:0
192,96,36876,1,2,0:0:0
364,144,37626,2,0,P|420:164|452:212,2,120,2|0|2,0:0|0:0|0:0,0:0:0
280,232,39126,5,0,0:0:0
208,68,39876,1,2,0:0:0
92,208,40626,2,0,P|60:256|92:328,2,120,2|0|2,0:0|0:0|0:0,0:0:0
256,192,42126,12,0,45126,0:0:0
84,184,48126,6,0,B|160:132|228:144|248:156|256:156|256:156|264:156|284:144|348:132|428:184,1,360,0|2,0:0|0:0,0:0:0
316,228,50126,1,0,0:0:0
196,228,50626,1,2,0:0:0
244,336,51126,6,0,P|112:312|76:224,1,240,0|2,0:0|0:0,0:0:0
144,124,52626,2,0,P|276:148|312:236,1,240,0|2,0:0|0:0,0:0:0
432,244,54126,6,0,P|428:148|496:132,2,180,0|2|2,0:0|0:0|0:0,0:0:0
392,360,56126,1,0,0:0:0
308,276,56626,1,2,0:0:0
304,156,57126,5,0,0:0:0
172,32,57876,1,2,0:0:0
40,156,58626,1,2,0:0:0
72,272,59126,2,0,P|116:304|180:308,1,120,0|2,0:0|0:0,0:0:0
160,192,60126,6,0,B|104:136|160:80|160:80|216:80,2,180,0|2|2,0:0|0:0|0:0,0:0:0
280,192,62126,1,0,0:0:0
400,192,62626,1,2,0:0:0
344,296,63126,6,0,B|304:336|304:336|240:336|212:340|184:356|184:356|156:340|128:336|68:336|68:336|24:292,1,360,0|2,0:0|0:0,0:0:0
124,228,65126,2,0,B|252:228,1,120,0|2,0:0|0:0,0:0:0
184,124,66126,6,0,B|152:68|208:40|252:36|284:48|296:64|296:64|308:48|340:36|384:40|436:68|404:128,1,360,0|2,0:0|0:0,0:0:0
300,184,68126,1,0,0:0:0
300,304,68626,1,2,0:0:0
200,240,69126,6,0,B|176:272|120:280|96:248|96:248|96:172,1,180,0|2,0:0|0:0,0:0:0
68,68,70376,2,0,B|148:68,1,60,0|2,0:0|0:0,0:0:0
248,68,71126,2,0,B|328:60|356:128,2,120,0|2|0,0:0|0:0|0:0,0:0:0
412,192,75126,5,4,0:0:0
292,192,75626,2,0,B|248:192|216:224|216:268,1,120,8|0,0:0|0:0,0:0:0
216,328,76376,2,0,B|240:368|296:380|320:368|320:368|384:380|384:380,1,180
440,276,77626,1,8,0:0:0
456,220,77876,1,0,0:0:0
492,172,78126,5,0,0:0:0
412,84,78626,2,0,B|372:44|372:44|308:44,1,120,8|0,0:0|0:0,0:0:0
248,48,79376,2,0,B|184:40|140:88|140:88|84:108,1,180
52,160,80376,2,0,B|24:192|24:216,2,60,0|8|2,0:0|0:0|0:0,0:0:0
112,172,81126,5,0,0:0:0
184,268,81626,1,8,0:0:0
216,320,81876,2,0,B|276:308|328:352|328:352|400:352,1,180
396,292,82876,1,8,0:0:0
404,232,83126,2,0,B|388:152|456:104,2,120,0|8|0,0:0|0:0|0:0,0:0:0
288,200,84626,6,0,B|276:140|276:140|204:132|188:72|188:72|108:72,1,240,8|0,0:0|0:0,0:0:0
72,88,85876,1,8,0:0:0
32,132,86126,1,0,0:0:0
148,160,86626,2,0,P|172:184|200:200,2,60,0|8|0,0:0|0:0|0:0,0:0:0
84,220,87626,5,8,0:0:0
84,220,87876,2,0,B|56:204|8:220|4:256|8:292|56:308|84:296,1,180
144,312,88876,1,8,0:0:0
192,276,89126,2,0,P|240:284|300:320,1,120,0|8,0:0|0:0,0:0:0
352,288,89876,1,0,0:0:0
412,304,90126,5,0,0:0:0
432,184,90626,2,0,B|432:124|432:124|388:124|356:92|356:48|356:48|268:48,1,240,8|0,0:0|0:0,0:0:0
236,48,91876,2,0,P|204:48|168:64,1,60,8|0,0:0|0:0,0:0:0
160,116,92376,2,0,P|173:145|202:171,1,60,0|8,0:0|0:0,0:0:0
252,172,92876,1,2,0:0:0
292,128,93126,6,0,B|336:80|400:80|400:80|452:120,1,180
432,232,94376,2,0,B|421:287|421:287|361:307,1,120,0|8,0:0|0:0,0:0:0
300,316,95126,2,0,B|236:320|192:372,1,120,0|8,0:0|0:0,0:0:0
172,244,96126,6,0,B|112:208|120:144|120:144|168:104,1,180
280,72,97376,2,0,B|340:48|396:72,1,120,0|8,0:0|0:0,0:0:0
432,120,98126,1,0,0:0:0
493,222,98626,1,8,0:0:0
390,284,99126,5,4,0:0:0
358,233,99376,1,0,0:0:0
329,181,99626,1,8,0:0:0
216,228,100126,1,0,0:0:0
156,224,100376,2,0,B|84:204|84:136,2,120,0|8|0,0:0|0:0|0:0,0:0:0
216,228,101626,1,8,0:0:0
268,196,101876,1,0,0:0:0
284,140,102126,5,0,0:0:0
404,116,102626,2,0,B|476:132|480:204,1,120,8|0,0:0|0:0,0:0:0
452,252,103376,2,0,B|396:300|336:262,1,120,0|8,0:0|0:0,0:0:0
284,252,104126,2,0,B|220:264,1,60,0|0,0:0|0:0,0:0:0
172,232,104626,2,0,B|108:244,1,60,8|0,0:0|0:0,0:0:0
68,204,105126,5,0,0:0:0
88,84,105626,2,0,B|124:48|172:64|172:64|220:48|256:84,1,180,8|0,0:0|0:0,0:0:0
312,100,106626,1,0,0:0:0
368,120,106876,2,0,B|436:137|436:220,1,120,8|0,0:0|0:0,0:0:0
348,204,107626,2,0,B|288:240,1,60,8|0,0:0|0:0,0:0:0
244,204,108126,5,0,0:0:0
124,188,108626,2,0,P|64:156|56:104,1,120,8|0,0:0|0:0,0:0:0
128,116,109376,2,0,P|184:104|244:116,1,120,0|8,0:0|0:0,0:0:0
268,172,110126,2,0,B|279:203|306:216,1,60
360,244,110626,2,0,B|383:227|389:193,1,60,0|8,0:0|0:0,0:0:0
416,140,111126,6,0,B|452:116|464:76|452:36,2,120,0|8|0,0:0|0:0|0:0,0:0:0
364,172,112376,2,0,B|336:200|336:224|336:224|312:224|284:252,1,120,0|8,0:0|0:0,0:0:0
224,252,113126,2,0,B|196:224|172:224|172:224|172:200|144:172,2,120,0|8|0,0:0|0:0|0:0,0:0:0
256,140,114626,6,0,B|296:100|296:100|360:92,1,120,8|0,0:0|0:0,0:0:0
420,120,115376,2,0,B|460:160|460:160|468:224,2,120,0|8|2,0:0|0:0|0:0,0:0:0
380,76,116626,2,0,B|336:32,1,60,8|2,0:0|0:0,0:0:0
276,40,117126,5,0,0:0:0
160,68,117626,2,0,B|116:68|88:104,1,60,8|0,0:0|0:0,0:0:0
60,132,118126,1,0,0:0:0
68,192,118376,2,0,B|48:220|8:220,2,60,0|0|8,0:0|0:0|0:0,0:0:0
116,228,119126,2,0,B|144:248|144:288,2,60,0|0|8,0:0|0:0|0:0,0:0:0
132,172,119876,1,0,0:0:0
256,192,120126,12,0,122376,0:0:0
152,192,123126,6,0,P|176:216|224:216|364:120|302:64|210:64|148:120|288:216|332:216|360:192,2,360,4|8|0,0:0|0:0|0:0,0:0:0
44,136,126626,2,0,B|8:192|44:248,2,120,0|0|8,0:0|0:0|0:0,0:0:0
160,112,128126,2,0,B|148:52,2,60
280,100,129126,6,0,B|348:80|384:92|420:132|436:156|436:156|420:180|384:220|348:232|280:220,1,360,0|8,0:0|0:0,0:0:0
176,164,131126,1,0,0:0:0
281,220,131626,1,0,0:0:0
178,284,132126,6,0,B|110:304|74:292|38:252|22:228|22:228|38:204|74:164|110:148|178:164,1,360,0|8,0:0|0:0,0:0:0
248,260,134126,2,0,B|284:260|308:228,2,60,0|0|8,0:0|0:0|0:0,0:0:0
288,148,135126,6,0,P|228:80|144:88,2,180,0|0|8,0:0|0:0|0:0,0:0:0
352,248,137126,1,0,0:0:0
232,248,137626,1,0,0:0:0
288,352,138126,6,0,P|184:352|120:284,2,180,0|0|8,0:0|0:0|0:0,0:0:0
376,268,140126,2,0,B|412:220,1,60,0|8,0:0|0:0,0:0:0
392,164,140626,2,0,B|408:104,1,60
376,56,141126,1,0,0:0:0
320,76,141376,6,0,B|280:28|208:44,2,120
320,136,142626,1,8,0:0:0
312,196,142876,2,0,B|249:190|210:252,1,120
128,164,143876,2,0,P|104:104,2,60
136,40,144876,2,0,B|76:36|76:36|36:80,1,120
36,140,145626,5,8,0:0:0
136,208,146126,2,0,B|196:196,1,60,8|8,0:0|0:0,0:0:0
292,128,146876,1,8,0:0:0
344,156,147126,5,4,0:0:0
164,156,147876,2,0,B|96:140|40:184|44:260,2,180,0|8|0,0:0|0:0|0:0,0:0:0
348,156,150126,6,0,B|416:140|472:184|468:260,2,180,0|0|8,0:0|0:0|0:0,0:0:0
224,160,152126,2,0,B|192:148|164:160,1,60
116,192,152626,2,0,B|89:203|57:191,1,60
8,156,153126,5,4,0:0:0
196,96,153876,1,0,0:0:0
380,156,154626,1,8,0:0:0
428,276,155126,2,0,B|348:256,1,60
356,320,155626,2,0,B|292:276,1,60
256,320,156126,5,0,0:0:0
140,288,156626,1,0,0:0:0
180,240,156876,1,0,0:0:0
232,212,157126,2,0,B|296:200|344:248,1,120,0|8,0:0|0:0,0:0:0
368,140,158126,2,0,B|380:80,1,60
320,80,158626,2,0,B|304:12,1,60
252,52,159126,5,4,0:0:0
92,92,159876,2,0,B|92:180|92:180|100:232|156:240,1,180,0|8,0:0|0:0,0:0:0
324,240,161376,1,0,0:0:0
424,92,162126,5,0,0:0:0
244,88,162876,2,0,B|191:76|145:122|152:168,1,120
228,164,163626,1,8,0:0:0
400,152,164376,2,0,B|436:208|400:264,1,120,8|0,0:0|0:0,0:0:0
340,272,165126,6,0,B|280:288|220:268|220:268|232:212|216:168|168:144|128:144|128:144|84:100,2,360,4|8|0,0:0|0:0|0:0,0:0:0
256,192,168626,12,4,171126,0:0:0
