osu file format v10

[General]
AudioFilename: 03 - Dreamland Dub.mp3
AudioLeadIn: 0
PreviewTime: 123126
Countdown: 0
SampleSet: Soft
StackLeniency: 0.3
Mode: 0
LetterboxInBreaks: 0

[Editor]
DistanceSpacing: 1
BeatDivisor: 4
GridSize: 4

[Metadata]
Title:Dreamland Dub
TitleUnicode:Dreamland Dub
Artist:Hinkstep
ArtistUnicode:Hinkstep
Creator:Static Noise Bird
Version:Dream
Source:
Tags:Omnitropic Ektoplazm Sunrise From The Treetops Swedish Dub
BeatmapID:162694
BeatmapSetID:53375

[Difficulty]
HPDrainRate:5
CircleSize:4
OverallDifficulty:6
ApproachRate:7
SliderMultiplier:2
SliderTickRate:1

[Events]
//Background and Video events
0,0,"00 - Hinkstep - Sunrise From The Treetops - Cover Art Crop.jpg"
//Break Periods
2,45326,47226
2,72325,74226
//Storyboard Layer 0 (Background)
//Storyboard Layer 1 (Fail)
//Storyboard Layer 2 (Pass)
//Storyboard Layer 3 (Foreground)
//Storyboard Sound Samples
//Background Colour Transformations
3,100,0,0,0

[TimingPoints]
24126,500,6,2,0,25,1,0
75126,-100,6,2,0,50,0,0
147126,-100,6,2,0,50,0,1
171126,-100,6,2,0,50,0,0

[Colours]
Combo1 : 234,255,159
Combo2 : 164,230,26
Combo3 : 221,198,34
Combo4 : 0,179,0

[HitObjects]
84,192,24126,1,0,0:0:0
264,280,24626,1,0,0:0:0
168,304,24876,1,2,0:0:0
360,252,25376,1,0,0:0:0
456,228,25626,1,2,0:0:0
316,88,26126,1,0,0:0:0
264,280,26626,1,2,0:0:0
116,148,27126,5,0,0:0:0
316,132,27626,2,0,P|368:136|396:172,1,100,0|2,0:0|0:0,0:0:0
284,336,28376,2,0,P|232:332|204:296,1,100,0|2,0:0|0:0,0:0:0
395,171,29126,1,0,0:0:0
284,336,29626,1,2,0:0:0
92,280,30126,6,0,P|36:172|268:260,2,600,0|2|0,0:0|0:0|0:0,0:0:0
220,164,33626,2,0,P|256:311|347:151,2,400,0|2|0,0:0|0:0|0:0,0:0:0
428,52,36126,5,0,0:0:0
228,52,36626,1,0,0:0:0
128,52,36876,1,2,0:0:0
280,180,37376,1,0,0:0:0
380,180,37626,1,2,0:0:0
228,312,38126,2,0,P|164:268|148:148,1,200,0|2,0:0|0:0,0:0:0
328,68,39126,6,0,P|404:104|432:224,1,200
448,308,39876,2,0,P|372:272|344:152,1,200,2|0,0:0|0:0,0:0:0
240,164,40626,1,2,0:0:0
44,196,41126,1,0,0:0:0
176,344,41626,1,2,0:0:0
256,192,42126,12,0,45126,0:0:0
72,192,48126,6,0,B|72:144|92:112|128:88|176:88,1,150
272,192,48876,2,0,B|272:240|252:272|216:296|168:296,1,150,2|0,0:0|0:0,0:0:0
172,192,49626,1,2,0:0:0
64,24,50126,2,0,P|112:80|64:200,1,200
32,112,50876,1,2,0:0:0
77,191,51126,1,0,0:0:0
220,104,51626,6,0,B|272:100|312:136,1,100,0|2,0:0|0:0,0:0:0
476,252,52376,2,0,B|424:256|384:220,1,100,0|2,0:0|0:0,0:0:0
220,104,53126,2,0,B|92:104|80:224,1,200,0|2,0:0|0:0,0:0:0
264,296,54126,5,2,0:0:0
322,106,54501,1,0,0:0:0
384,296,54876,1,2,0:0:0
225,179,55251,1,0,0:0:0
419,179,55626,1,2,0:0:0
284,328,56126,6,0,P|212:288|284:248,1,200,0|2,0:0|0:0,0:0:0
488,236,57126,1,0,0:0:0
292,192,57626,6,0,B|240:172|196:208,1,100,0|2,0:0|0:0,0:0:0
20,300,58376,2,0,B|72:320|116:284,1,100,0|2,0:0|0:0,0:0:0
292,192,59126,2,0,B|346:178|361:123,2,100,0|0|2,0:0|0:0|0:0,0:0:0
216,128,59876,1,0,0:0:0
256,36,60126,5,0,0:0:0
124,89,60501,1,0,0:0:0
134,230,60876,1,2,0:0:0
271,264,61251,1,0,0:0:0
344,144,61626,2,0,B|388:120|388:120|440:124,1,100,2|0,0:0|0:0,0:0:0
440,224,62126,2,0,P|472:312|384:356,1,200,0|2,0:0|0:0,0:0:0
196,368,63126,1,0,0:0:0
13,264,63626,6,0,B|21:224|45:200|81:192,1,100,0|2,0:0|0:0,0:0:0
272,120,64376,2,0,B|264:160|240:184|204:192,1,100,0|2,0:0|0:0,0:0:0
84,344,65126,2,0,B|40:324|4:284|0:228|12:172,1,200,0|2,0:0|0:0,0:0:0
256,96,66126,5,0,0:0:0
84,344,66501,1,0,0:0:0
324,160,66876,1,2,0:0:0
40,260,67251,1,0,0:0:0
340,240,67626,1,2,0:0:0
32,168,68126,2,0,B|22:110|67:54|135:49|183:75,1,200,0|2,0:0|0:0,0:0:0
364,84,69126,1,0,0:0:0
220,220,69626,6,0,B|252:256|252:256|308:256,1,100,0|2,0:0|0:0,0:0:0
500,292,70376,2,0,B|468:256|468:256|412:256,1,100,0|2,0:0|0:0,0:0:0
200,304,71126,2,0,B|144:288|112:224|136:160|196:144,2,200,0|2|0,0:0|0:0|0:0,0:0:0
372,92,75126,5,4,0:0:0
180,148,75626,1,8,0:0:0
104,216,75876,2,0,B|80:240|80:268,2,50
200,244,76376,2,0,B|236:276|236:276|288:296,1,100
288,196,76876,1,8,0:0:0
388,196,77126,2,0,B|416:196|436:184,2,50
388,40,77626,1,8,0:0:0
288,40,77876,1,0,0:0:0
200,88,78126,5,0,0:0:0
8,148,78626,1,8,0:0:0
36,244,78876,1,0,0:0:0
64,284,79001,1,0,0:0:0
112,300,79126,1,0,0:0:0
128,200,79376,1,0,0:0:0
168,108,79626,1,0,0:0:0
252,52,79876,1,8,0:0:0
336,104,80126,2,0,B|352:124|380:128,2,50
252,164,80626,1,8,0:0:0
188,240,80876,1,0,0:0:0
224,332,81126,5,0,0:0:0
424,332,81626,1,8,0:0:0
484,252,81876,1,0,0:0:0
500,204,82001,1,0,0:0:0
484,156,82126,1,0,0:0:0
396,204,82376,2,0,B|368:188|332:224|300:204,1,100
252,116,82876,1,8,0:0:0
152,116,83126,2,0,P|72:148|60:252,1,200,0|8,0:0|0:0,0:0:0
124,328,83876,1,0,0:0:0
224,344,84126,5,0,0:0:0
316,164,84626,1,8,0:0:0
216,180,84876,2,0,B|136:204,2,50
288,252,85376,2,0,B|298:295|331:317|351:320|355:318|355:318|355:324|364:340|393:354|421:361|457:355,1,200,0|8,0:0|0:0,0:0:0
480,264,86126,2,0,P|460:180|356:188,1,200
276,236,86876,1,8,0:0:0
176,252,87126,5,0,0:0:0
32,144,87626,1,8,0:0:0
96,72,87876,2,0,B|120:48|148:48,1,50
188,48,88126,1,0,0:0:0
288,56,88376,2,0,B|348:52|372:104,2,100,0|0|8,0:0|0:0|0:0,0:0:0
188,48,89126,2,0,B|152:48|136:64,1,50
96,72,89376,2,0,B|48:108|72:188,2,100,0|8|0,0:0|0:0|0:0,0:0:0
164,144,90126,5,0,0:0:0
12,276,90626,1,8,0:0:0
112,296,90876,2,0,B|144:304|188:272,2,50
76,200,91376,2,0,B|80:140|120:120|164:120,1,100
232,116,91876,1,8,0:0:0
332,132,92126,1,0,0:0:0
376,156,92251,1,0,0:0:0
408,192,92376,1,0,0:0:0
468,272,92626,1,8,0:0:0
420,360,92876,1,0,0:0:0
328,324,93126,6,0,B|248:330|208:244|248:184,1,200,0|8,0:0|0:0,0:0:0
320,236,93876,2,0,B|360:176|324:96|244:93,1,200
140,96,94626,2,0,B|80:98|54:167,1,100,0|8,0:0|0:0,0:0:0
149,189,95126,2,0,B|209:189|248:237,1,100,0|0,0:0|0:0,0:0:0
359,348,95626,2,0,B|299:348|260:300,1,100,8|0,0:0|0:0,0:0:0
356,228,96126,6,0,B|396:188|404:140|404:140|380:100|324:84,1,200,0|8,0:0|0:0,0:0:0
272,168,96876,2,0,B|232:208|224:256|224:256|248:296|304:312,1,200
356,228,97626,2,0,B|400:200|452:228,1,100,0|8,0:0|0:0,0:0:0
396,305,98126,2,0,B|348:337|302:312,1,100
116,316,98626,2,0,B|164:284|210:309,1,100,0|8,0:0|0:0,0:0:0
232,212,99126,6,0,B|172:184|184:116|232:96,1,150,4|0,0:0|0:0,0:0:0
284,96,99626,1,8,0:0:0
384,116,99876,1,0,0:0:0
421,150,100001,1,0,0:0:0
441,196,100126,1,0,0:0:0
425,294,100376,1,0,0:0:0
344,353,100626,5,0,0:0:0
245,336,100876,1,8,0:0:0
144,348,101126,2,0,B|84:360,1,50
48,344,101376,1,0,0:0:0
56,244,101626,2,0,B|60:192|112:140,1,100,8|0,0:0|0:0,0:0:0
164,80,102126,5,0,0:0:0
256,40,102376,1,0,0:0:0
356,48,102626,1,8,0:0:0
426,106,102876,1,0,0:0:0
444,152,103001,1,0,0:0:0
448,204,103126,1,0,0:0:0
348,208,103376,6,0,B|280:240|304:328,2,100,0|0|8,0:0|0:0|0:0,0:0:0
352,108,104126,1,0,0:0:0
336,60,104251,1,0,0:0:0
296,32,104376,1,2,0:0:0
244,120,104626,1,8,0:0:0
156,172,104876,1,2,0:0:0
84,244,105126,6,0,B|44:308,1,50
84,328,105376,1,0,0:0:0
176,288,105626,1,8,0:0:0
232,204,105876,1,0,0:0:0
276,180,106001,1,0,0:0:0
328,172,106126,1,0,0:0:0
412,220,106376,6,0,B|364:232|416:300|416:300|336:292|352:348,1,200,0|8,0:0|0:0,0:0:0
268,300,107126,1,0,0:0:0
392,144,107376,1,0,0:0:0
216,236,107626,1,8,0:0:0
412,220,107876,1,0,0:0:0
220,160,108126,5,0,0:0:0
276,68,108376,1,0,0:0:0
380,40,108626,2,0,B|408:68|408:152|380:180,2,150,8|0|0,0:0|0:0|0:0,0:0:0
228,112,109626,5,0,0:0:0
188,200,109876,1,8,0:0:0
228,288,110126,1,0,0:0:0
312,336,110376,1,0,0:0:0
400,288,110626,1,0,0:0:0
420,240,110751,1,0,0:0:0
412,192,110876,1,8,0:0:0
380,152,111001,1,0,0:0:0
336,128,111126,5,0,0:0:0
228,112,111376,1,0,0:0:0
140,160,111626,1,8,0:0:0
128,260,111876,1,0,0:0:0
148,304,112001,1,0,0:0:0
196,320,112126,1,0,0:0:0
292,284,112376,6,0,B|344:284|380:308|384:316|384:316|388:308|424:288|480:288,2,200,0|8|0,0:0|0:0|0:0,0:0:0
384,204,113626,1,8,0:0:0
372,104,113876,1,0,0:0:0
276,72,114126,5,0,0:0:0
180,96,114376,1,0,0:0:0
168,196,114626,1,8,0:0:0
108,276,114876,1,0,0:0:0
120,324,115001,1,0,0:0:0
164,348,115126,1,0,0:0:0
268,328,115376,5,0,0:0:0
372,348,115626,1,0,0:0:0
416,324,115751,1,0,0:0:0
428,276,115876,1,8,0:0:0
416,176,116126,1,0,0:0:0
348,101,116376,1,0,0:0:0
249,97,116626,1,8,0:0:0
174,163,116876,1,0,0:0:0
193,261,117126,6,0,B|212:328|132:356,1,100
88,272,117626,1,8,0:0:0
80,172,117876,2,0,B|32:132,2,50
160,112,118376,6,0,B|132:64|160:16,1,100
260,20,118876,2,0,B|288:68|260:116,1,100,8|0,0:0|0:0,0:0:0
60,112,119376,2,0,B|32:64|60:16,1,100,0|8,0:0|0:0,0:0:0
360,20,119876,2,0,B|388:68|360:116,1,100,0|2,0:0|0:0,0:0:0
284,180,120376,6,0,B|220:220|216:304|288:344,1,200
184,348,121126,2,0,B|156:300|108:284,1,100
68,192,121626,1,8,0:0:0
84,144,121751,1,8,0:0:0
208,60,122126,1,8,0:0:0
296,104,122376,1,8,0:0:0
244,196,122626,2,0,P|197:221|181:273,1,100
252,340,123126,6,0,P|324:304|240:280,1,200,4|0,0:0|0:0,0:0:0
176,332,123876,2,0,B|136:324|112:300|116:252,1,100
244,124,124376,2,0,B|280:128|304:160|304:192,1,100,0|8,0:0|0:0,0:0:0
280,284,124876,1,0,0:0:0
304,192,125126,2,0,B|344:200|368:224|372:272,2,100
280,284,125876,1,0,0:0:0
200,348,126126,5,0,0:0:0
100,348,126376,2,0,B|28:276,1,100
28,176,126876,1,0,0:0:0
100,104,127126,2,0,B|56:60,2,50
180,40,127626,1,8,0:0:0
164,208,128126,6,0,B|212:220|212:220|236:264,1,100
440,164,128627,2,0,B|392:152|392:152|368:108,1,100
300,184,129126,1,0,0:0:0
220,120,129376,1,0,0:0:0
124,140,129626,2,0,B|76:172|89:237,1,100
0,276,130126,2,0,B|22:334|86:330,1,100
172,304,130626,1,8,0:0:0
352,192,131126,6,0,B|400:172|412:210|448:192,2,100
256,192,131876,1,0,0:0:0
156,192,132126,1,0,0:0:0
64,232,132376,1,0,0:0:0
20,320,132626,1,0,0:0:0
120,312,132876,1,0,0:0:0
204,368,133126,1,0,0:0:0
300,340,133376,1,0,0:0:0
224,276,133626,1,8,0:0:0
220,176,133876,6,0,B|184:112|112:136|112:136,2,100
308,220,134626,2,0,B|344:284|416:260|416:260,1,100
388,164,135126,2,0,B|460:116|456:45|380:-7|312:13|292:97,1,300
252,188,136126,2,0,B|212:236|152:248,1,100
156,144,136626,1,8,0:0:0
312,20,137126,6,0,B|356:52|340:116,1,100
300,200,137626,2,0,B|284:228|256:240,2,50
396,168,138126,2,0,B|444:168|484:208|484:208|484:268|448:304,1,200
356,268,138876,2,0,B|308:268|268:228|268:228|268:168|304:132,1,200
364,56,139626,1,8,0:0:0
264,56,139876,1,0,0:0:0
216,76,140001,1,0,0:0:0
196,120,140126,1,0,0:0:0
188,220,140376,1,8,0:0:0
188,220,140626,1,8,0:0:0
220,320,141126,5,0,0:0:0
124,296,141376,1,0,0:0:0
92,200,141626,1,0,0:0:0
160,124,141876,1,0,0:0:0
260,144,142126,2,0,B|316:164|360:128,2,100,0|0|8,0:0|0:0|0:0,0:0:0
116,184,143126,5,0,0:0:0
116,184,143376,2,0,B|80:223|112:255|99:278|99:278|125:274|144:315|194:295,1,200
224,200,144126,1,0,0:0:0
268,180,144251,1,0,0:0:0
316,200,144376,1,0,0:0:0
268,288,144626,1,0,0:0:0
220,376,144876,1,0,0:0:0
320,376,145126,2,0,B|368:360,1,50
416,364,145376,2,0,B|440:320,1,50
460,276,145626,5,8,0:0:0
460,276,145751,1,8,0:0:0
500,152,146126,5,8,0:0:0
424,84,146376,1,8,0:0:0
324,80,146626,5,0,0:0:0
236,128,146876,1,8,0:0:0
168,200,147126,6,0,B|127:236|127:284|151:316|183:336|232:324,1,200,4|0,0:0|0:0,0:0:0
328,336,147876,2,0,B|428:280,2,100,2|0|0,0:0|0:0|0:0,0:0:0
280,248,148626,1,8,0:0:0
184,220,148876,2,0,B|136:220|136:220|104:220|92:243,1,100
44,152,149376,1,2,0:0:0
144,152,149626,2,0,B|192:152|192:152|224:152|235:128,1,100,0|2,0:0|0:0,0:0:0
332,108,150126,6,0,B|384:108|424:124|448:160|456:212|436:256,1,200
456,336,150876,2,0,B|404:336|364:320|340:284|332:232|352:188,1,200,2|0,0:0|0:0,0:0:0
256,164,151626,2,0,B|156:112,1,100,8|0,0:0|0:0,0:0:0
80,72,152126,2,0,B|80:172,1,100,0|2,0:0|0:0,0:0:0
80,272,152626,2,0,B|172:216,1,100,0|2,0:0|0:0,0:0:0
264,228,153126,6,0,B|316:224|344:244|360:268,2,100,4|0|0,0:0|0:0|0:0,0:0:0
288,92,153876,2,0,B|236:96|208:76|192:52,2,100,2|0|0,0:0|0:0|0:0,0:0:0
388,92,154626,1,8,0:0:0
176,184,155126,5,0,0:0:0
335,303,155376,1,2,0:0:0
276,113,155626,1,0,0:0:0
210,302,155876,1,2,0:0:0
376,188,156126,6,0,B|416:134|487:149,1,100,0|0,0:0|0:0,0:0:0
458,246,156626,2,0,B|417:299|346:284,1,100,0|2,0:0|0:0,0:0:0
242,304,157126,1,0,0:0:0
64,216,157376,1,0,0:0:0
252,144,157626,1,8,0:0:0
64,72,157876,1,0,0:0:0
64,72,158126,5,0,0:0:0
252,144,158376,1,2,0:0:0
64,216,158626,1,0,0:0:0
242,304,158876,1,2,0:0:0
428,372,159126,6,0,P|492:300|432:200,1,200
512,112,159876,2,0,P|424:100|344:168,1,200,2|0,0:0|0:0,0:0:0
336,268,160626,2,0,B|284:264|284:264|252:224,2,100,8|0|0,0:0|0:0|0:0,0:0:0
136,264,161376,2,0,B|188:268|188:268|220:308,2,100,2|0|2,0:0|0:0|0:0,0:0:0
180,176,162126,6,0,B|194:116|157:68|95:57|41:93|38:153,1,200
40,208,162876,2,0,B|76:256|40:248|80:300,2,100,2|0|0,0:0|0:0|0:0,0:0:0
212,312,163626,1,8,0:0:0
160,228,163876,1,0,0:0:0
128,188,164001,1,0,0:0:0
136,140,164126,1,2,0:0:0
232,164,164376,1,8,0:0:0
292,84,164626,2,0,B|324:108|336:140|332:192,1,100,0|2,0:0|0:0,0:0:0
288,268,165126,6,0,B|264:304|280:352|344:352,1,100,4|0,0:0|0:0,0:0:0
180,224,165626,2,0,B|144:200|96:216|96:280,1,100
224,116,166126,2,0,B|248:80|232:32|168:32,1,100,2|0,0:0|0:0,0:0:0
332,160,166626,2,0,B|368:184|416:168|416:104,1,100,8|0,0:0|0:0,0:0:0
288,268,167126,5,0,0:0:0
180,224,167376,1,0,0:0:0
224,116,167626,1,2,0:0:0
332,160,167876,1,0,0:0:0
256,192,168126,5,0,0:0:0
256,192,168376,12,4,171126,0:0:0
