osu file format v14

[General]
AudioFilename: Chocolate Smile.mp3
AudioLeadIn: 0
PreviewTime: 48469
Countdown: 0
SampleSet: Normal
StackLeniency: 0.7
Mode: 1
LetterboxInBreaks: 0
WidescreenStoryboard: 0

[Editor]
DistanceSpacing: 0.9
BeatDivisor: 8
GridSize: 32
TimelineZoom: 1.9

[Metadata]
Title:Chocolate Smile
TitleUnicode:チョコレートスマイル
Artist:Hinatabi Bitter Sweets & Coconatsu
ArtistUnicode:日向美ビタースイーツ♪ & ここなつ
Creator:OzzyOzrock
Version:Oni
Source:BeatStream
Tags:Marika Yamagata Rina Hidaka Sakiko Kasuga Megumi Yamaguchi Ibuki Izumi Minami Tsuda Meu Meu Hiromi Igarashi), Rin Shimotsuki Kaoru Mizuhara Natsuhi Shinonome Yuri Hinami Cocona Shinonome Ari Ozawa
BeatmapID:1434160
BeatmapSetID:678252

[Difficulty]
HPDrainRate:6
CircleSize:5
OverallDifficulty:6
ApproachRate:6
SliderMultiplier:1.4
SliderTickRate:1

[Events]
//Background and Video events
0,0,"chocolate smile.jpg",0,-132
//Break Periods
//Storyboard Layer 0 (Background)
//Storyboard Layer 1 (Fail)
//Storyboard Layer 2 (Pass)
//Storyboard Layer 3 (Foreground)
//Storyboard Sound Samples

[TimingPoints]
753,306.122448979592,4,1,0,80,1,0
48508,-100,4,1,0,80,0,1
68099,-100,4,1,0,80,0,0
93814,-100,4,1,0,80,0,1
113406,-100,4,1,0,80,0,0
122130,-50,4,1,0,80,0,0

[HitObjects]
384,128,753,5,12,0:0:0:0:
192,256,906,1,0,0:0:0:0:
448,96,1059,1,12,0:0:0:0:
128,256,1212,1,0,0:0:0:0:
352,128,1365,1,12,0:0:0:0:
352,128,1518,1,12,0:0:0:0:
192,256,1671,1,0,0:0:0:0:
320,96,1824,1,12,0:0:0:0:
384,288,2130,1,8,0:0:0:0:
384,288,2207,1,8,0:0:0:0:
192,288,2283,1,0,0:0:0:0:
192,288,2360,1,0,0:0:0:0:
192,288,2436,1,0,0:0:0:0:
128,320,2589,1,0,0:0:0:0:
352,64,2742,1,12,0:0:0:0:
384,128,3201,1,12,0:0:0:0:
192,256,3354,1,0,0:0:0:0:
448,96,3507,1,12,0:0:0:0:
128,256,3660,1,0,0:0:0:0:
352,128,3813,1,12,0:0:0:0:
352,128,3966,1,12,0:0:0:0:
192,256,4119,1,0,0:0:0:0:
160,96,4272,1,4,0:0:0:0:
352,256,4426,1,8,0:0:0:0:
160,160,4579,1,4,0:0:0:0:
352,256,4732,1,8,0:0:0:0:
320,96,4885,1,12,0:0:0:0:
416,288,5191,1,8,0:0:0:0:
192,288,5344,1,0,0:0:0:0:
192,288,5421,1,0,0:0:0:0:
192,288,5497,1,0,0:0:0:0:
192,160,5650,1,4,0:0:0:0:
384,288,5804,1,8,0:0:0:0:
160,96,5957,1,4,0:0:0:0:
352,256,6110,1,8,0:0:0:0:
192,160,6263,1,4,0:0:0:0:
192,160,6416,1,4,0:0:0:0:
384,288,6569,1,8,0:0:0:0:
192,160,6722,1,4,0:0:0:0:
192,288,7028,1,0,0:0:0:0:
384,160,7181,1,12,0:0:0:0:
224,256,7334,1,0,0:0:0:0:
384,160,7487,1,12,0:0:0:0:
384,160,7640,1,12,0:0:0:0:
160,288,7793,1,0,0:0:0:0:
160,128,7946,1,4,0:0:0:0:
192,320,8252,1,0,0:0:0:0:
160,224,8559,1,0,0:0:0:0:
416,288,8712,1,8,0:0:0:0:
416,288,8788,1,8,0:0:0:0:
160,320,8865,1,0,0:0:0:0:
352,288,9018,1,8,0:0:0:0:
320,320,9171,1,8,0:0:0:0:
128,288,9324,1,0,0:0:0:0:
352,96,9477,1,8,0:0:0:0:
352,96,9783,1,8,0:0:0:0:
352,96,9936,1,8,0:0:0:0:
128,128,10548,1,4,0:0:0:0:
416,256,10855,1,8,0:0:0:0:
160,288,11161,1,0,0:0:0:0:
160,288,11314,1,0,0:0:0:0:
416,256,11467,1,8,0:0:0:0:
160,288,11773,1,0,0:0:0:0:
416,256,12079,1,8,0:0:0:0:
320,224,12232,1,8,0:0:0:0:
192,288,12385,1,0,0:0:0:0:
192,288,12538,1,0,0:0:0:0:
384,256,12691,1,8,0:0:0:0:
160,288,12997,1,0,0:0:0:0:
320,256,13304,1,8,0:0:0:0:
192,288,13610,1,0,0:0:0:0:
192,288,13763,1,0,0:0:0:0:
384,256,13916,1,8,0:0:0:0:
320,256,14222,1,8,0:0:0:0:
384,288,14375,1,8,0:0:0:0:
192,288,14528,1,0,0:0:0:0:
192,288,14681,1,0,0:0:0:0:
352,288,14834,1,8,0:0:0:0:
352,288,14987,1,8,0:0:0:0:
192,320,15140,1,0,0:0:0:0:
192,320,15293,1,0,0:0:0:0:
320,256,15446,1,8,0:0:0:0:
352,256,15753,1,8,0:0:0:0:
128,320,16059,1,0,0:0:0:0:
320,288,16212,1,8,0:0:0:0:
384,288,16365,1,8,0:0:0:0:
96,320,16671,1,0,0:0:0:0:
384,256,16977,1,8,0:0:0:0:
160,320,17130,1,0,0:0:0:0:
160,320,17283,1,0,0:0:0:0:
160,320,17436,1,0,0:0:0:0:
352,288,17589,1,8,0:0:0:0:
96,288,17895,1,0,0:0:0:0:
352,256,18201,1,8,0:0:0:0:
160,320,18508,1,0,0:0:0:0:
352,320,18661,1,8,0:0:0:0:
416,256,18814,1,8,0:0:0:0:
160,320,19120,1,0,0:0:0:0:
160,320,19273,1,0,0:0:0:0:
352,288,19426,1,8,0:0:0:0:
192,320,19579,1,0,0:0:0:0:
384,288,19732,1,8,0:0:0:0:
160,320,19885,1,0,0:0:0:0:
384,256,20038,1,8,0:0:0:0:
384,256,20115,1,8,0:0:0:0:
320,288,20191,1,8,0:0:0:0:
224,128,20344,1,4,0:0:0:0:
384,256,20650,1,8,0:0:0:0:
224,320,20957,1,0,0:0:0:0:
160,320,21110,1,0,0:0:0:0:
416,288,21263,1,8,0:0:0:0:
384,256,21416,1,8,0:0:0:0:
160,288,21569,1,0,0:0:0:0:
416,256,21875,1,8,0:0:0:0:
96,288,22181,1,0,0:0:0:0:
128,288,22334,1,0,0:0:0:0:
512,288,22487,1,8,0:0:0:0:
448,288,22640,1,8,0:0:0:0:
384,288,22717,1,8,0:0:0:0:
160,288,22793,1,0,0:0:0:0:
416,256,23099,1,8,0:0:0:0:
96,256,23406,1,0,0:0:0:0:
96,256,23559,1,0,0:0:0:0:
448,256,23712,1,8,0:0:0:0:
448,256,23865,1,8,0:0:0:0:
128,288,24018,1,0,0:0:0:0:
128,288,24094,1,0,0:0:0:0:
128,288,24171,1,0,0:0:0:0:
352,256,24324,1,8,0:0:0:0:
160,288,24477,1,0,0:0:0:0:
352,288,24630,1,8,0:0:0:0:
352,288,24707,1,8,0:0:0:0:
352,288,24783,1,8,0:0:0:0:
128,288,24936,1,0,0:0:0:0:
320,288,25089,1,8,0:0:0:0:
160,288,25242,1,0,0:0:0:0:
320,288,25548,1,8,0:0:0:0:
160,224,25855,1,0,0:0:0:0:
352,256,26008,1,8,0:0:0:0:
352,256,26161,1,8,0:0:0:0:
352,256,26314,1,8,0:0:0:0:
128,256,26467,1,0,0:0:0:0:
320,256,26773,1,8,0:0:0:0:
160,288,27079,1,0,0:0:0:0:
352,256,27232,1,8,0:0:0:0:
352,256,27385,1,8,0:0:0:0:
160,288,27538,1,0,0:0:0:0:
96,288,27615,1,0,0:0:0:0:
128,288,27691,1,0,0:0:0:0:
96,256,27844,1,0,0:0:0:0:
320,256,27997,1,8,0:0:0:0:
320,256,28074,1,8,0:0:0:0:
128,288,28150,1,0,0:0:0:0:
288,256,28304,1,8,0:0:0:0:
32,256,28457,1,0,0:0:0:0:
320,224,28610,1,8,0:0:0:0:
320,224,28686,1,8,0:0:0:0:
160,288,28763,1,0,0:0:0:0:
352,96,28916,1,12,0:0:0:0:
128,256,29069,1,0,0:0:0:0:
384,96,29222,1,12,0:0:0:0:
192,256,29375,1,0,0:0:0:0:
352,96,29528,1,12,0:0:0:0:
192,224,29681,1,0,0:0:0:0:
352,128,29834,1,12,0:0:0:0:
160,320,29987,1,0,0:0:0:0:
128,128,30293,1,4,0:0:0:0:
128,128,30446,1,4,0:0:0:0:
128,128,30599,1,4,0:0:0:0:
128,128,30753,1,4,0:0:0:0:
448,256,30906,1,8,0:0:0:0:
96,320,31059,1,0,0:0:0:0:
96,320,31212,1,0,0:0:0:0:
384,96,31365,1,12,0:0:0:0:
128,288,31671,1,0,0:0:0:0:
384,256,31824,1,8,0:0:0:0:
128,288,31977,1,0,0:0:0:0:
384,256,32283,1,8,0:0:0:0:
96,256,32436,1,0,0:0:0:0:
96,256,32742,1,0,0:0:0:0:
352,256,33048,1,8,0:0:0:0:
128,288,33201,1,0,0:0:0:0:
288,256,33355,1,8,0:0:0:0:
352,256,33508,1,8,0:0:0:0:
128,288,33814,1,0,0:0:0:0:
352,288,34120,1,8,0:0:0:0:
128,288,34273,1,0,0:0:0:0:
128,288,34426,1,0,0:0:0:0:
320,256,34732,1,8,0:0:0:0:
128,288,34885,1,0,0:0:0:0:
352,288,35191,1,8,0:0:0:0:
96,256,35497,1,0,0:0:0:0:
128,288,35650,1,0,0:0:0:0:
352,256,35804,1,8,0:0:0:0:
352,256,35957,1,8,0:0:0:0:
160,96,36263,1,4,0:0:0:0:
352,288,36569,1,8,0:0:0:0:
352,256,36722,1,8,0:0:0:0:
192,288,36875,1,0,0:0:0:0:
352,288,37181,1,8,0:0:0:0:
224,288,37334,1,0,0:0:0:0:
320,288,37640,1,8,0:0:0:0:
352,256,37946,1,8,0:0:0:0:
224,288,38099,1,0,0:0:0:0:
384,288,38253,1,8,0:0:0:0:
352,256,38406,1,8,0:0:0:0:
160,256,38712,1,0,0:0:0:0:
416,288,39018,1,8,0:0:0:0:
192,288,39171,1,0,0:0:0:0:
192,320,39324,1,0,0:0:0:0:
192,320,39477,1,0,0:0:0:0:
384,256,39630,1,8,0:0:0:0:
128,288,39783,1,0,0:0:0:0:
352,256,39936,1,8,0:0:0:0:
352,256,40089,1,8,0:0:0:0:
352,256,40242,1,8,0:0:0:0:
128,320,40395,1,0,0:0:0:0:
352,256,40701,1,8,0:0:0:0:
352,256,40854,1,8,0:0:0:0:
352,96,41161,1,12,0:0:0:0:
160,320,41467,1,0,0:0:0:0:
384,256,41620,1,8,0:0:0:0:
128,320,41773,1,0,0:0:0:0:
416,288,42079,1,8,0:0:0:0:
160,256,42232,1,0,0:0:0:0:
160,288,42538,1,0,0:0:0:0:
416,288,42844,1,8,0:0:0:0:
160,288,42997,1,0,0:0:0:0:
352,288,43150,1,8,0:0:0:0:
352,288,43304,1,8,0:0:0:0:
96,256,43457,1,0,0:0:0:0:
352,128,43610,1,12,0:0:0:0:
160,288,43763,1,0,0:0:0:0:
416,96,43916,1,12,0:0:0:0:
192,288,44069,1,0,0:0:0:0:
384,288,44222,1,8,0:0:0:0:
384,288,44298,1,8,0:0:0:0:
160,320,44375,1,0,0:0:0:0:
352,320,44528,1,8,0:0:0:0:
352,320,44605,1,8,0:0:0:0:
192,320,44681,1,0,0:0:0:0:
384,128,44834,1,12,0:0:0:0:
160,288,44987,1,0,0:0:0:0:
448,128,45140,1,12,0:0:0:0:
128,288,45293,1,0,0:0:0:0:
384,288,45446,1,8,0:0:0:0:
352,320,45523,1,8,0:0:0:0:
128,352,45599,1,0,0:0:0:0:
128,352,45676,1,0,0:0:0:0:
384,320,45753,1,8,0:0:0:0:
160,160,45906,1,4,0:0:0:0:
160,160,46212,1,4,0:0:0:0:
352,128,46365,1,12,0:0:0:0:
128,160,46518,1,4,0:0:0:0:
384,128,46671,1,12,0:0:0:0:
160,160,46824,1,4,0:0:0:0:
320,160,46977,1,12,0:0:0:0:
352,128,47130,1,12,0:0:0:0:
160,320,47895,1,0,0:0:0:0:
384,320,48048,1,8,0:0:0:0:
384,320,48125,1,8,0:0:0:0:
384,320,48201,1,8,0:0:0:0:
384,320,48278,1,8,0:0:0:0:
384,320,48355,1,8,0:0:0:0:
352,288,48431,1,8,0:0:0:0:
96,160,48508,1,0,0:0:0:0:
384,288,48661,1,8,0:0:0:0:
128,288,48814,1,0,0:0:0:0:
96,288,48890,1,0,0:0:0:0:
128,320,48967,1,0,0:0:0:0:
320,288,49120,1,8,0:0:0:0:
128,320,49273,1,0,0:0:0:0:
128,288,49426,1,0,0:0:0:0:
320,288,49579,1,8,0:0:0:0:
352,288,49656,1,8,0:0:0:0:
128,320,49732,1,0,0:0:0:0:
128,288,49809,1,0,0:0:0:0:
320,288,49885,1,8,0:0:0:0:
128,288,50038,1,0,0:0:0:0:
128,288,50191,1,0,0:0:0:0:
128,288,50268,1,0,0:0:0:0:
320,288,50344,1,8,0:0:0:0:
128,288,50497,1,0,0:0:0:0:
352,288,50650,1,8,0:0:0:0:
352,288,50804,1,8,0:0:0:0:
64,288,50957,1,0,0:0:0:0:
384,256,51110,1,8,0:0:0:0:
128,288,51263,1,0,0:0:0:0:
128,288,51339,1,0,0:0:0:0:
128,288,51416,1,0,0:0:0:0:
352,256,51569,1,8,0:0:0:0:
128,288,51722,1,0,0:0:0:0:
160,288,51875,1,0,0:0:0:0:
384,256,52028,1,8,0:0:0:0:
96,288,52105,1,0,0:0:0:0:
352,256,52181,1,8,0:0:0:0:
352,256,52258,1,8,0:0:0:0:
160,288,52334,1,0,0:0:0:0:
320,256,52487,1,8,0:0:0:0:
128,288,52640,1,0,0:0:0:0:
320,256,52793,1,8,0:0:0:0:
320,256,52870,1,8,0:0:0:0:
320,256,52946,1,8,0:0:0:0:
128,288,53099,1,0,0:0:0:0:
288,288,53253,1,8,0:0:0:0:
128,128,53406,1,0,0:0:0:0:
288,224,53712,1,8,0:0:0:0:
96,288,53865,1,0,0:0:0:0:
96,288,53941,1,0,0:0:0:0:
128,256,54018,1,0,0:0:0:0:
352,256,54171,1,8,0:0:0:0:
128,256,54324,1,0,0:0:0:0:
352,288,54477,1,8,0:0:0:0:
128,288,54630,1,0,0:0:0:0:
128,224,54783,1,0,0:0:0:0:
128,288,54860,1,0,0:0:0:0:
416,256,54936,1,8,0:0:0:0:
128,288,55089,1,0,0:0:0:0:
128,288,55242,1,8,0:0:0:0:
320,320,55395,1,8,0:0:0:0:
128,288,55548,1,0,0:0:0:0:
320,320,55701,1,8,0:0:0:0:
128,288,55854,1,0,0:0:0:0:
128,288,55931,1,0,0:0:0:0:
160,288,56008,1,0,0:0:0:0:
352,128,56161,1,12,0:0:0:0:
96,288,56314,1,0,0:0:0:0:
352,288,56466,1,8,0:0:0:0:
384,320,56620,1,8,0:0:0:0:
384,320,56696,1,8,0:0:0:0:
192,288,56773,1,0,0:0:0:0:
192,288,56849,1,0,0:0:0:0:
352,288,56926,1,8,0:0:0:0:
288,96,57079,1,12,0:0:0:0:
160,128,57232,1,4,0:0:0:0:
384,96,57385,1,12,0:0:0:0:
384,96,57538,1,12,0:0:0:0:
160,288,57844,1,0,0:0:0:0:
160,288,57921,1,0,0:0:0:0:
288,256,57997,1,8,0:0:0:0:
288,256,58074,1,8,0:0:0:0:
288,256,58150,1,8,0:0:0:0:
352,256,58227,1,8,0:0:0:0:
160,320,58304,1,0,0:0:0:0:
352,288,58457,1,8,0:0:0:0:
192,288,58610,1,0,0:0:0:0:
192,320,58686,1,0,0:0:0:0:
192,320,58763,1,0,0:0:0:0:
320,256,58916,1,8,0:0:0:0:
160,320,59069,1,0,0:0:0:0:
224,320,59222,1,0,0:0:0:0:
224,288,59298,1,0,0:0:0:0:
320,256,59375,1,8,0:0:0:0:
320,256,59452,1,8,0:0:0:0:
192,288,59528,1,0,0:0:0:0:
384,256,59681,1,8,0:0:0:0:
160,320,59834,1,0,0:0:0:0:
448,288,59987,1,8,0:0:0:0:
352,320,60064,1,8,0:0:0:0:
448,288,60140,1,8,0:0:0:0:
96,288,60293,1,0,0:0:0:0:
384,320,60446,1,8,0:0:0:0:
384,288,60599,1,8,0:0:0:0:
128,288,60753,1,0,0:0:0:0:
384,320,60906,1,8,0:0:0:0:
128,320,61059,1,0,0:0:0:0:
128,320,61135,1,0,0:0:0:0:
128,288,61212,1,0,0:0:0:0:
384,320,61365,1,8,0:0:0:0:
128,288,61518,1,0,0:0:0:0:
320,288,61671,1,8,0:0:0:0:
160,288,61747,1,0,0:0:0:0:
160,288,61824,1,0,0:0:0:0:
160,288,61900,1,0,0:0:0:0:
384,320,61977,1,8,0:0:0:0:
160,288,62130,1,0,0:0:0:0:
352,128,62283,1,12,0:0:0:0:
128,288,62436,1,0,0:0:0:0:
384,288,62589,1,8,0:0:0:0:
320,256,62666,1,8,0:0:0:0:
128,288,62742,1,0,0:0:0:0:
320,128,62895,1,12,0:0:0:0:
384,288,63048,1,8,0:0:0:0:
160,256,63201,1,0,0:0:0:0:
320,256,63508,1,8,0:0:0:0:
160,256,63661,1,0,0:0:0:0:
160,256,63737,1,0,0:0:0:0:
160,256,63814,1,0,0:0:0:0:
352,256,63967,1,8,0:0:0:0:
160,256,64120,1,0,0:0:0:0:
288,288,64273,1,8,0:0:0:0:
160,256,64426,1,0,0:0:0:0:
160,256,64579,1,0,0:0:0:0:
160,256,64656,1,0,0:0:0:0:
320,256,64732,1,8,0:0:0:0:
128,256,64885,1,0,0:0:0:0:
320,288,65038,1,8,0:0:0:0:
320,256,65191,1,8,0:0:0:0:
128,256,65344,1,0,0:0:0:0:
320,288,65497,1,8,0:0:0:0:
128,288,65650,1,0,0:0:0:0:
160,288,65727,1,0,0:0:0:0:
128,288,65804,1,0,0:0:0:0:
352,256,65957,1,8,0:0:0:0:
192,288,66110,1,0,0:0:0:0:
160,288,66263,1,0,0:0:0:0:
128,288,66339,1,0,0:0:0:0:
192,288,66416,1,0,0:0:0:0:
192,288,66492,1,0,0:0:0:0:
352,256,66569,1,8,0:0:0:0:
128,256,66722,1,0,0:0:0:0:
384,288,66875,1,8,0:0:0:0:
384,288,67028,1,8,0:0:0:0:
192,288,67181,1,0,0:0:0:0:
384,256,67334,1,8,0:0:0:0:
192,288,67487,1,0,0:0:0:0:
384,288,67640,1,8,0:0:0:0:
384,256,67793,1,8,0:0:0:0:
352,288,67946,1,8,0:0:0:0:
128,128,68099,1,0,0:0:0:0:
352,256,68406,1,8,0:0:0:0:
224,320,68559,1,0,0:0:0:0:
224,288,68712,1,0,0:0:0:0:
416,256,68865,1,8,0:0:0:0:
352,256,69018,1,8,0:0:0:0:
352,256,69171,1,8,0:0:0:0:
224,288,69324,1,0,0:0:0:0:
384,256,69630,1,8,0:0:0:0:
224,320,69783,1,0,0:0:0:0:
384,256,69936,1,8,0:0:0:0:
352,256,70089,1,8,0:0:0:0:
384,256,70242,1,8,0:0:0:0:
384,256,70395,1,8,0:0:0:0:
192,320,70548,1,0,0:0:0:0:
384,256,70855,1,8,0:0:0:0:
192,288,71008,1,0,0:0:0:0:
192,288,71161,1,0,0:0:0:0:
320,256,71314,1,8,0:0:0:0:
384,256,71467,1,8,0:0:0:0:
224,288,71620,1,0,0:0:0:0:
320,256,71773,1,8,0:0:0:0:
352,256,71849,1,8,0:0:0:0:
192,288,71926,1,0,0:0:0:0:
352,256,72079,1,8,0:0:0:0:
224,288,72232,1,0,0:0:0:0:
384,256,72385,1,8,0:0:0:0:
384,256,72462,1,8,0:0:0:0:
384,256,72538,1,8,0:0:0:0:
224,288,72691,1,0,0:0:0:0:
352,256,72844,1,8,0:0:0:0:
160,320,72997,1,0,0:0:0:0:
384,256,73304,1,8,0:0:0:0:
192,256,73457,1,0,0:0:0:0:
192,256,73610,1,0,0:0:0:0:
192,256,73763,1,0,0:0:0:0:
384,288,73916,1,8,0:0:0:0:
384,256,74069,1,8,0:0:0:0:
192,288,74222,1,0,0:0:0:0:
384,288,74528,1,8,0:0:0:0:
224,288,74681,1,0,0:0:0:0:
384,256,74834,1,8,0:0:0:0:
384,256,74911,1,8,0:0:0:0:
384,256,74987,1,8,0:0:0:0:
384,256,75064,1,8,0:0:0:0:
128,288,75140,1,0,0:0:0:0:
128,288,75217,1,0,0:0:0:0:
128,288,75293,1,0,0:0:0:0:
320,96,75446,1,12,0:0:0:0:
160,96,76518,1,4,0:0:0:0:
384,256,76977,1,8,0:0:0:0:
192,320,77436,1,0,0:0:0:0:
384,288,77589,1,8,0:0:0:0:
384,288,77666,1,8,0:0:0:0:
224,288,77742,1,0,0:0:0:0:
128,96,77895,1,4,0:0:0:0:
192,320,78355,1,0,0:0:0:0:
192,320,78508,1,0,0:0:0:0:
384,288,78661,1,8,0:0:0:0:
192,320,78967,1,0,0:0:0:0:
416,256,79273,1,8,0:0:0:0:
256,288,79426,1,0,0:0:0:0:
416,288,79579,1,8,0:0:0:0:
352,224,79885,1,8,0:0:0:0:
384,256,80191,1,8,0:0:0:0:
192,320,80497,1,0,0:0:0:0:
192,320,80574,1,0,0:0:0:0:
192,320,80650,1,0,0:0:0:0:
416,256,80804,1,8,0:0:0:0:
384,288,81110,1,8,0:0:0:0:
384,288,81186,1,8,0:0:0:0:
384,288,81263,1,8,0:0:0:0:
192,320,81416,1,0,0:0:0:0:
416,256,81569,1,8,0:0:0:0:
416,256,81722,1,8,0:0:0:0:
192,320,81875,1,0,0:0:0:0:
416,256,82028,1,8,0:0:0:0:
416,256,82181,1,8,0:0:0:0:
160,320,82334,1,0,0:0:0:0:
160,320,82411,1,0,0:0:0:0:
416,288,82487,1,8,0:0:0:0:
224,288,82640,1,0,0:0:0:0:
416,128,82793,1,12,0:0:0:0:
416,128,82946,1,12,0:0:0:0:
192,288,83099,1,0,0:0:0:0:
416,128,83253,1,12,0:0:0:0:
192,320,83559,1,0,0:0:0:0:
384,288,83712,1,8,0:0:0:0:
416,288,83865,1,8,0:0:0:0:
416,288,83941,1,8,0:0:0:0:
224,288,84018,1,0,0:0:0:0:
416,288,85242,1,8,0:0:0:0:
416,288,86467,1,0,0:0:0:0:
416,288,87691,1,8,0:0:0:0:
160,288,88304,1,0,0:0:0:0:
352,256,88916,1,8,0:0:0:0:
320,224,89834,1,8,0:0:0:0:
192,256,90140,1,0,0:0:0:0:
384,224,91059,1,8,0:0:0:0:
160,96,91365,1,4,0:0:0:0:
128,288,91671,1,0,0:0:0:0:
384,288,91977,1,8,0:0:0:0:
128,288,92130,1,0,0:0:0:0:
384,320,92283,1,8,0:0:0:0:
384,320,92436,1,8,0:0:0:0:
160,96,92589,1,4,0:0:0:0:
320,96,92742,1,12,0:0:0:0:
160,96,92895,1,4,0:0:0:0:
352,128,93048,1,12,0:0:0:0:
128,256,93355,1,0,0:0:0:0:
128,256,93431,1,0,0:0:0:0:
480,288,93508,1,8,0:0:0:0:
448,288,93661,1,8,0:0:0:0:
416,256,93737,1,8,0:0:0:0:
128,256,93814,5,0,0:0:0:0:
128,256,93967,1,0,0:0:0:0:
416,224,94120,1,8,0:0:0:0:
128,256,94273,1,0,0:0:0:0:
128,256,94349,1,0,0:0:0:0:
384,256,94426,1,8,0:0:0:0:
128,256,94579,1,0,0:0:0:0:
352,256,94732,1,8,0:0:0:0:
128,256,94809,1,0,0:0:0:0:
320,256,94885,1,8,0:0:0:0:
320,256,94962,1,8,0:0:0:0:
128,256,95038,1,0,0:0:0:0:
96,256,95191,1,0,0:0:0:0:
448,288,95344,1,8,0:0:0:0:
96,224,95497,1,0,0:0:0:0:
32,224,95574,1,0,0:0:0:0:
384,256,95650,1,8,0:0:0:0:
384,256,95804,1,8,0:0:0:0:
96,288,95957,1,0,0:0:0:0:
128,288,96033,1,0,0:0:0:0:
384,256,96110,1,8,0:0:0:0:
384,256,96186,1,8,0:0:0:0:
96,256,96263,1,0,0:0:0:0:
32,256,96416,1,0,0:0:0:0:
352,256,96569,1,8,0:0:0:0:
128,256,96722,1,0,0:0:0:0:
192,288,96798,1,0,0:0:0:0:
416,256,96875,1,8,0:0:0:0:
96,288,97028,1,0,0:0:0:0:
416,256,97181,1,8,0:0:0:0:
416,288,97258,1,8,0:0:0:0:
160,288,97334,1,0,0:0:0:0:
352,256,97487,1,8,0:0:0:0:
160,288,97564,1,0,0:0:0:0:
160,288,97640,1,0,0:0:0:0:
160,288,97717,1,0,0:0:0:0:
352,256,97793,1,8,0:0:0:0:
160,288,97946,1,0,0:0:0:0:
352,256,98099,1,8,0:0:0:0:
352,256,98176,1,8,0:0:0:0:
160,288,98253,1,0,0:0:0:0:
160,288,98329,1,0,0:0:0:0:
320,256,98406,1,8,0:0:0:0:
128,288,98559,1,0,0:0:0:0:
352,256,98712,1,8,0:0:0:0:
352,256,98788,1,8,0:0:0:0:
352,256,98865,1,8,0:0:0:0:
352,288,99018,1,8,0:0:0:0:
192,256,99171,1,0,0:0:0:0:
192,256,99324,1,0,0:0:0:0:
192,256,99400,1,0,0:0:0:0:
384,256,99477,1,8,0:0:0:0:
192,288,99630,1,0,0:0:0:0:
352,256,99783,1,8,0:0:0:0:
352,256,99860,1,8,0:0:0:0:
192,288,99936,1,0,0:0:0:0:
352,256,100089,1,8,0:0:0:0:
128,288,100242,1,0,0:0:0:0:
352,256,100395,1,8,0:0:0:0:
128,288,100472,1,0,0:0:0:0:
352,256,100548,1,8,0:0:0:0:
128,288,100625,1,0,0:0:0:0:
352,256,100701,1,8,0:0:0:0:
192,320,100855,1,0,0:0:0:0:
320,256,101008,1,8,0:0:0:0:
352,256,101161,1,8,0:0:0:0:
352,256,101237,1,8,0:0:0:0:
224,288,101314,1,0,0:0:0:0:
320,256,101467,1,8,0:0:0:0:
96,288,101620,1,0,0:0:0:0:
352,256,101773,1,8,0:0:0:0:
352,256,101849,1,8,0:0:0:0:
160,288,101926,1,0,0:0:0:0:
160,288,102002,1,0,0:0:0:0:
320,288,102079,1,8,0:0:0:0:
160,288,102232,1,0,0:0:0:0:
352,256,102385,1,8,0:0:0:0:
128,288,102538,1,0,0:0:0:0:
448,128,102691,1,12,0:0:0:0:
384,288,102844,1,8,0:0:0:0:
128,288,102997,1,0,0:0:0:0:
128,288,103150,1,0,0:0:0:0:
128,288,103227,1,0,0:0:0:0:
384,256,103304,1,8,0:0:0:0:
160,288,103457,1,0,0:0:0:0:
384,96,103610,1,12,0:0:0:0:
352,224,103916,1,8,0:0:0:0:
128,288,104069,1,0,0:0:0:0:
352,224,104222,1,8,0:0:0:0:
160,288,104375,1,0,0:0:0:0:
160,288,104451,1,0,0:0:0:0:
352,256,104528,1,8,0:0:0:0:
384,288,104681,1,8,0:0:0:0:
352,256,104834,1,8,0:0:0:0:
192,256,104987,1,0,0:0:0:0:
320,256,105140,1,8,0:0:0:0:
160,256,105293,1,0,0:0:0:0:
320,256,105446,1,8,0:0:0:0:
160,256,105599,1,0,0:0:0:0:
160,256,105676,1,0,0:0:0:0:
320,256,105753,1,8,0:0:0:0:
160,256,105906,1,0,0:0:0:0:
192,288,105982,1,0,0:0:0:0:
320,256,106059,1,8,0:0:0:0:
96,256,106212,1,0,0:0:0:0:
320,256,106365,1,8,0:0:0:0:
128,256,106518,1,0,0:0:0:0:
320,288,106671,1,8,0:0:0:0:
160,288,106824,1,0,0:0:0:0:
160,288,106900,1,0,0:0:0:0:
320,256,106977,1,8,0:0:0:0:
320,256,107130,1,8,0:0:0:0:
320,256,107283,1,8,0:0:0:0:
96,256,107436,1,0,0:0:0:0:
256,256,107589,1,8,0:0:0:0:
128,256,107742,1,0,0:0:0:0:
288,256,107895,1,8,0:0:0:0:
288,256,107972,1,8,0:0:0:0:
128,288,108048,1,0,0:0:0:0:
288,256,108201,1,8,0:0:0:0:
288,256,108278,1,8,0:0:0:0:
160,288,108355,1,0,0:0:0:0:
288,256,108508,1,8,0:0:0:0:
32,288,108661,1,0,0:0:0:0:
320,256,108814,1,8,0:0:0:0:
128,256,108967,1,0,0:0:0:0:
352,256,109120,1,8,0:0:0:0:
160,256,109273,1,0,0:0:0:0:
160,256,109349,1,0,0:0:0:0:
320,256,109426,1,8,0:0:0:0:
160,288,109579,1,0,0:0:0:0:
128,288,109656,1,0,0:0:0:0:
352,256,109732,1,8,0:0:0:0:
32,288,109885,1,0,0:0:0:0:
288,256,110038,1,8,0:0:0:0:
96,256,110191,1,0,0:0:0:0:
160,288,110344,1,0,0:0:0:0:
128,288,110421,1,0,0:0:0:0:
128,288,110497,1,0,0:0:0:0:
128,288,110574,1,0,0:0:0:0:
288,256,110650,1,8,0:0:0:0:
288,256,110727,1,8,0:0:0:0:
96,288,110804,1,0,0:0:0:0:
192,96,110957,1,4,0:0:0:0:
32,224,111875,5,0,0:0:0:0:
384,128,112028,1,12,0:0:0:0:
160,288,112334,1,0,0:0:0:0:
384,288,112487,1,8,0:0:0:0:
160,288,112640,1,0,0:0:0:0:
352,288,112793,1,8,0:0:0:0:
128,288,112946,1,0,0:0:0:0:
128,288,113023,1,0,0:0:0:0:
320,288,113099,1,8,0:0:0:0:
320,288,113176,1,8,0:0:0:0:
128,288,113253,1,0,0:0:0:0:
320,96,113406,5,12,0:0:0:0:
160,320,113559,1,0,0:0:0:0:
352,96,113712,1,12,0:0:0:0:
192,320,113865,1,0,0:0:0:0:
352,128,114018,1,12,0:0:0:0:
352,96,114171,1,12,0:0:0:0:
224,288,114324,1,0,0:0:0:0:
352,128,114477,1,12,0:0:0:0:
384,288,114783,1,8,0:0:0:0:
384,288,114860,1,8,0:0:0:0:
256,288,114936,1,0,0:0:0:0:
384,288,115013,1,8,0:0:0:0:
160,320,115089,1,0,0:0:0:0:
160,320,115166,1,0,0:0:0:0:
160,320,115242,1,0,0:0:0:0:
352,96,115395,1,12,0:0:0:0:
128,96,115855,1,4,0:0:0:0:
320,256,116008,1,8,0:0:0:0:
192,160,116161,1,4,0:0:0:0:
416,288,116314,1,8,0:0:0:0:
192,160,116467,1,4,0:0:0:0:
192,160,116620,1,4,0:0:0:0:
352,256,116773,1,8,0:0:0:0:
352,128,116926,1,12,0:0:0:0:
128,320,117079,1,0,0:0:0:0:
448,128,117232,1,12,0:0:0:0:
128,320,117385,1,0,0:0:0:0:
416,128,117538,1,12,0:0:0:0:
96,320,117691,1,0,0:0:0:0:
384,288,117844,1,8,0:0:0:0:
128,288,117921,1,0,0:0:0:0:
128,288,117997,1,0,0:0:0:0:
128,288,118074,1,0,0:0:0:0:
128,288,118150,1,0,0:0:0:0:
416,128,118304,1,12,0:0:0:0:
192,256,118457,1,0,0:0:0:0:
352,96,118610,1,12,0:0:0:0:
160,256,118763,1,0,0:0:0:0:
384,128,118916,1,12,0:0:0:0:
160,128,119069,1,4,0:0:0:0:
384,288,119222,1,8,0:0:0:0:
160,128,119375,1,4,0:0:0:0:
64,256,119681,1,0,0:0:0:0:
352,128,119834,1,12,0:0:0:0:
128,288,119987,1,0,0:0:0:0:
352,128,120140,1,12,0:0:0:0:
384,128,120293,1,12,0:0:0:0:
128,320,120446,1,0,0:0:0:0:
224,160,120599,1,4,0:0:0:0:
160,320,120906,1,0,0:0:0:0:
352,224,121059,1,8,0:0:0:0:
192,288,121212,1,0,0:0:0:0:
352,288,121365,1,8,0:0:0:0:
352,288,121441,1,8,0:0:0:0:
128,320,121518,1,0,0:0:0:0:
352,288,121671,1,8,0:0:0:0:
480,288,121824,1,8,0:0:0:0:
160,96,122130,1,4,0:0:0:0:
160,96,122436,1,4,0:0:0:0:
160,96,122589,1,4,0:0:0:0:
