osu file format v12

[General]
AudioFilename: 13..mp3
AudioLeadIn: 0
PreviewTime: 4985
Countdown: 0
SampleSet: Normal
StackLeniency: 0.7
Mode: 0
LetterboxInBreaks: 0
WidescreenStoryboard: 0

[Editor]
DistanceSpacing: 1.2
BeatDivisor: 4
GridSize: 8
TimelineZoom: 1

[Metadata]
Title:Nyanhou no Outa
TitleUnicode:娘包のおうた
Artist:Hinata Ichigo
ArtistUnicode:日向苺
Creator:kamisamaaa
Version:Normal
Source:Cure Girl
Tags:visual novel eroge Yamada galgame curegirl Noesis sammy711 yf_bmp
BeatmapID:372011
BeatmapSetID:150565

[Difficulty]
HPDrainRate:4
CircleSize:3
OverallDifficulty:4
ApproachRate:5
SliderMultiplier:1.2
SliderTickRate:1

[Events]
//Background and Video events
0,0,"01.png",0,0
//Break Periods
2,18722,20673
//Storyboard Layer 0 (Background)
//Storyboard Layer 1 (Fail)
//Storyboard Layer 2 (Pass)
//Storyboard Layer 3 (Foreground)
//Storyboard Sound Samples
//Background Colour Transformations
3,100,163,162,255

[TimingPoints]
1734,419.58041958042,4,1,1,30,1,0
4461,-100,4,1,2,50,0,0
5090,-100,4,1,1,40,0,0
18517,-100,4,1,2,30,0,0
25230,-100,4,1,1,40,0,0
38657,-100,4,1,2,30,0,0

[Colours]
Combo1 : 255,255,149
Combo2 : 128,255,128
Combo3 : 255,128,128
Combo4 : 24,117,167

[HitObjects]
114,121,1734,5,2,0:0:0:0:
248,70,2153,2,0,L|302:41,2,60,8|2|2,0:0|0:0|0:0,0:0:0:0:
379,128,2992,2,0,L|439:166,1,60,8|2,0:0|0:0,0:0:0:0:
505,283,3622,2,0,L|454:315,1,60,2|8,0:0|0:0,0:0:0:0:
386,340,4041,1,2,0:0:0:0:
315,324,4251,1,2,0:0:0:0:
259,278,4461,2,0,L|191:277,2,60,0|8|0,0:0|0:0|0:0,0:0:0:0:
303,221,5090,6,0,P|345:169|361:107,1,120,6|8,0:0|0:0,0:0:0:0:
248,27,5929,1,2,0:0:0:0:
104,41,6349,2,0,L|60:87,1,60,8|2,0:0|0:0,0:0:0:0:
127,213,6978,2,0,P|142:273|134:338,1,120,2|2,0:0|0:0,0:0:0:0:
201,361,7608,2,0,P|260:367|318:352,1,120,2|8,0:0|0:0,0:0:0:0:
416,246,8447,6,0,P|448:298|458:363,1,120,6|8,0:0|0:0,0:0:0:0:
339,273,9286,2,0,P|307:222|296:163,1,120,2|8,0:0|0:0,0:0:0:0:
303,92,9915,2,0,P|346:50|401:28,2,120,2|2|2,0:0|0:0|0:0,0:0:0:0:
238,124,10964,2,0,P|176:141|104:146,1,120,2|8,0:0|0:0,0:0:0:0:
45,269,11803,5,2,0:0:0:0:
116,284,12013,2,0,P|178:297|241:288,1,120,0|2,0:0|0:0,0:0:0:0:
306,282,12643,1,2,0:0:0:0:
448,261,13062,2,0,L|486:215,1,60,8|2,0:0|0:0,0:0:0:0:
480,70,13692,2,0,L|402:80,1,60,2|8,0:0|0:0,0:0:0:0:
349,84,14111,1,2,0:0:0:0:
278,94,14321,2,0,P|260:160|278:214,1,120,2|8,0:0|0:0,0:0:0:0:
408,156,15160,5,2,0:0:0:0:
278,94,15580,2,0,P|229:68|156:60,1,120,8|2,0:0|0:0,0:0:0:0:
22,70,16419,1,8,0:0:0:0:
15,141,16629,2,0,P|27:204|57:257,1,120,2|2,0:0|0:0,0:0:0:0:
107,300,17258,2,0,P|136:328|167:344,2,60,8|2|6,0:0|0:0|0:0,0:0:0:0:
182,177,18097,2,0,P|231:145|299:166,1,120,8|0,0:0|0:0,0:0:0:0:
256,192,21873,12,0,24391,0:0:0:0:
236,237,25230,6,0,P|194:289|177:349,1,120,6|8,0:0|0:0,0:0:0:0:
323,358,26069,1,2,0:0:0:0:
462,319,26489,2,0,L|506:273,1,60,8|2,0:0|0:0,0:0:0:0:
375,211,27118,2,0,P|360:151|368:86,1,120,2|2,0:0|0:0,0:0:0:0:
324,34,27748,2,0,P|265:28|207:43,1,120,2|8,0:0|0:0,0:0:0:0:
96,140,28587,6,0,P|64:88|63:18,1,120,6|8,0:0|0:0,0:0:0:0:
178,113,29426,2,0,P|210:165|211:235,1,120,2|8,0:0|0:0,0:0:0:0:
204,294,30055,2,0,P|161:336|106:358,2,120,2|2|2,0:0|0:0|0:0,0:0:0:0:
275,288,31104,2,0,P|339:284|406:302,1,120,2|8,0:0|0:0,0:0:0:0:
465,171,31943,5,2,0:0:0:0:
438,103,32153,2,0,P|376:87|313:94,1,120,0|2,0:0|0:0,0:0:0:0:
251,113,32783,1,2,0:0:0:0:
120,173,33202,2,0,L|85:221,1,60,8|2,0:0|0:0,0:0:0:0:
21,350,33832,2,0,L|99:340,1,60,2|8,0:0|0:0,0:0:0:0:
152,336,34251,1,2,0:0:0:0:
223,320,34461,2,0,P|255:277|265:210,1,120,2|8,0:0|0:0,0:0:0:0:
120,173,35300,5,2,0:0:0:0:
191,47,35720,2,0,P|252:47|317:67,1,120,8|2,0:0|0:0,0:0:0:0:
425,146,36559,1,8,0:0:0:0:
414,216,36769,2,0,P|383:273|338:315,1,120,2|2,0:0|0:0,0:0:0:0:
274,329,37398,2,0,P|252:352|216:369,2,60,8|2|6,0:0|0:0|0:0,0:0:0:0:
168,250,38237,1,8,0:0:0:0:
271,147,38657,6,0,B|335:131|379:95|379:95|431:131|495:147,2,240,2|8|2,0:0|0:0|0:0,0:0:0:0:
168,45,40754,2,0,P|131:96|123:156,1,120,2|8,0:0|0:0,0:0:0:0:
129,295,41594,1,0,0:0:0:0:
271,273,42013,6,0,B|335:289|379:325|379:325|431:289|495:273,2,240,2|8|2,0:0|0:0|0:0,0:0:0:0:
168,375,44111,2,0,P|131:324|122:269,1,120,2|8,0:0|0:0,0:0:0:0:
129,125,44950,1,0,0:0:0:0:
259,63,45370,6,0,B|382:29|370:125|496:92,2,240,2|8|2,0:0|0:0|0:0,0:0:0:0:
116,34,47468,1,2,0:0:0:0:
69,170,47887,2,0,P|46:235|6:288,1,120,8|0,0:0|0:0,0:0:0:0:
154,320,48727,6,0,B|277:280|270:376|385:339,2,240,2|8|2,0:0|0:0|0:0,0:0:0:0:
15,359,50824,1,2,0:0:0:0:
110,251,51244,2,0,P|145:204|158:145,1,120,8|0,0:0|0:0,0:0:0:0:
276,62,52083,6,0,P|337:58|406:64,1,120,2|0,0:0|0:0,0:0:0:0:
488,172,52922,2,0,P|427:176|358:170,1,120,8|0,0:0|0:0,0:0:0:0:
225,189,53761,1,2,0:0:0:0:
134,76,54181,1,2,0:0:0:0:
15,157,54601,2,0,P|13:221|19:282,1,120,8|0,0:0|0:0,0:0:0:0:
142,350,55440,6,0,P|205:347|263:355,1,120,2|0,0:0|0:0,0:0:0:0:
337,232,56279,2,0,P|379:278|410:327,1,120,8|0,0:0|0:0,0:0:0:0:
483,201,57118,1,2,0:0:0:0:
440,63,57538,1,2,0:0:0:0:
305,113,57957,2,0,P|242:118|177:111,1,120,8|0,0:0|0:0,0:0:0:0:
60,41,58796,5,2,0:0:0:0:
28,181,59216,1,0,0:0:0:0:
133,279,59636,1,8,0:0:0:0:
180,144,60056,1,2,0:0:0:0:
285,46,60475,2,0,P|349:42|418:52,1,120,2|2,0:0|0:0,0:0:0:0:
502,152,61314,2,0,P|438:156|369:146,1,120,8|0,0:0|0:0,0:0:0:0:
242,116,62153,6,0,L|271:235,1,120,2|0,0:0|0:0,0:0:0:0:
400,170,62992,2,0,L|429:289,1,120,8|0,0:0|0:0,0:0:0:0:
303,358,63831,6,0,L|243:377,1,60,2|0,0:0|0:0,0:0:0:0:
219,308,64251,2,0,L|159:327,1,60,8|0,0:0|0:0,0:0:0:0:
104,281,64671,6,0,L|60:235,1,60,2|0,0:0|0:0,0:0:0:0:
112,183,65091,2,0,L|68:137,1,60,8|0,0:0|0:0,0:0:0:0:
37,75,65510,5,2,0:0:0:0:
37,75,65720,1,8,0:0:0:0:
108,65,65929,2,0,L|172:59,1,60,8|8,0:0|0:0,0:0:0:0:
