osu file format v12

[General]
AudioFilename: 13..mp3
AudioLeadIn: 0
PreviewTime: 4985
Countdown: 0
SampleSet: Normal
StackLeniency: 0.7
Mode: 0
LetterboxInBreaks: 0
WidescreenStoryboard: 0

[Editor]
DistanceSpacing: 2
BeatDivisor: 4
GridSize: 8
TimelineZoom: 1.8

[Metadata]
Title:Nyanhou no Outa
TitleUnicode:娘包のおうた
Artist:Hinata Ichigo
ArtistUnicode:日向苺
Creator:kamisamaaa
Version:Cucumber
Source:Cure Girl
Tags:visual novel eroge Yamada galgame curegirl Noesis sammy711 yf_bmp
BeatmapID:371490
BeatmapSetID:150565

[Difficulty]
HPDrainRate:6
CircleSize:4
OverallDifficulty:7
ApproachRate:8
SliderMultiplier:1.8
SliderTickRate:1

[Events]
//Background and Video events
0,0,"01.png",0,0
//Break Periods
//Storyboard Layer 0 (Background)
//Storyboard Layer 1 (Fail)
//Storyboard Layer 2 (Pass)
//Storyboard Layer 3 (Foreground)
//Storyboard Sound Samples
//Background Colour Transformations
3,100,163,162,255

[TimingPoints]
1734,419.58041958042,4,1,1,30,1,0
4461,-100,4,1,2,50,0,0
5090,-100,4,1,1,40,0,0
18517,-100,4,1,2,30,0,0
25230,-100,4,1,1,40,0,0
38657,-100,4,1,2,30,0,0

[Colours]
Combo1 : 255,255,149
Combo2 : 128,255,128
Combo3 : 255,128,128
Combo4 : 24,117,167

[HitObjects]
104,144,1734,5,2,0:0:0:0:
256,48,2153,1,8,0:0:0:0:
307,136,2363,1,2,0:0:0:0:
367,50,2573,2,0,P|432:125|455:207,1,180,2|8,0:0|0:0,0:0:0:0:
307,136,3202,2,0,P|239:208|219:295,1,180,2|2,0:0|0:0,0:0:0:0:
409,279,3831,2,0,P|364:290|318:278,1,90,8|2,0:0|0:0,0:0:0:0:
307,136,4251,1,2,0:0:0:0:
114,237,4461,5,8,0:0:0:0:
103,250,4671,1,8,0:0:0:0:
92,263,4880,1,8,0:0:0:0:
138,60,5090,5,6,0:0:0:0:
0,135,5300,1,0,0:0:0:0:
0,135,5405,1,0,0:0:0:0:
0,135,5510,1,8,0:0:0:0:
114,237,5720,1,2,0:0:0:0:
213,105,5929,2,0,P|193:182|106:238,1,180,2|8,0:0|0:0,0:0:0:0:
288,289,6559,5,2,0:0:0:0:
359,42,6978,2,0,P|405:40|449:46,1,90,2|8,0:0|0:0,0:0:0:0:
399,199,7398,1,2,0:0:0:0:
213,105,7608,2,0,P|127:83|31:105,1,180,2|8,0:0|0:0,0:0:0:0:
399,199,8447,5,6,0:0:0:0:
230,228,8657,1,0,0:0:0:0:
230,228,8761,1,0,0:0:0:0:
230,228,8866,2,0,L|209:330,1,90,8|2,0:0|0:0,0:0:0:0:
213,105,9286,2,0,P|266:111|306:128,1,90,2|0,0:0|0:0,0:0:0:0:
434,58,9706,1,8,0:0:0:0:
473,228,9915,5,2,0:0:0:0:
473,228,10335,2,0,P|484:279|486:332,1,90,2|8,0:0|0:0,0:0:0:0:
381,384,10754,1,2,0:0:0:0:
248,218,10964,2,0,P|293:211|340:219,1,90,2|0,0:0|0:0,0:0:0:0:
295,310,11279,1,0,0:0:0:0:
295,310,11384,2,0,P|250:316|206:309,1,90,8|0,0:0|0:0,0:0:0:0:
63,215,11803,5,6,0:0:0:0:
181,70,12013,2,0,P|176:120|178:171,1,90,0|8,0:0|0:0,0:0:0:0:
286,59,12433,1,2,0:0:0:0:
63,36,12643,2,0,P|53:122|64:219,1,180,2|8,0:0|0:0,0:0:0:0:
337,218,13272,5,2,0:0:0:0:
337,218,13692,2,0,P|291:223|242:216,1,90,2|8,0:0|0:0,0:0:0:0:
286,59,14111,1,2,0:0:0:0:
476,181,14321,2,0,P|482:231|476:277,2,90,2|0|8,0:0|0:0|0:0,0:0:0:0:
41,234,15160,5,2,0:0:0:0:
41,234,15580,2,0,P|36:286|40:332,1,90,8|2,0:0|0:0,0:0:0:0:
181,70,15999,1,2,0:0:0:0:
181,70,16419,1,8,0:0:0:0:
287,307,16629,5,2,0:0:0:0:
287,307,17048,2,0,P|241:328|196:338,1,90,2|8,0:0|0:0,0:0:0:0:
183,155,17468,1,2,0:0:0:0:
359,86,17678,2,0,P|407:83|464:101,1,90,4|2,0:0|0:0,0:0:0:0:
183,155,18097,1,8,0:0:0:0:
447,93,18517,5,2,0:0:0:0:
375,147,18727,1,0,0:0:0:0:
331,224,18936,1,8,0:0:0:0:
320,313,19146,1,2,0:0:0:0:
155,221,19356,5,2,0:0:0:0:
243,204,19566,1,0,0:0:0:0:
331,224,19775,1,8,0:0:0:0:
404,275,19985,1,2,0:0:0:0:
267,55,20195,5,0,0:0:0:0:
284,146,20405,1,2,0:0:0:0:
331,224,20614,1,8,0:0:0:0:
404,275,20824,1,2,0:0:0:0:
474,51,21034,5,2,0:0:0:0:
404,275,21454,1,8,0:0:0:0:
234,49,21873,5,2,0:0:0:0:
144,49,22083,1,0,0:0:0:0:
145,137,22293,1,8,0:0:0:0:
233,137,22503,1,2,0:0:0:0:
63,172,22713,5,2,0:0:0:0:
145,137,22922,1,0,0:0:0:0:
178,218,23132,1,8,0:0:0:0:
98,252,23342,1,2,0:0:0:0:
144,49,23552,5,0,0:0:0:0:
145,137,23761,1,2,0:0:0:0:
178,218,23971,1,8,0:0:0:0:
237,286,24181,1,2,0:0:0:0:
441,69,24391,5,2,0:0:0:0:
318,336,24810,1,8,0:0:0:0:
370,162,25020,1,0,0:0:0:0:
370,162,25125,1,0,0:0:0:0:
370,162,25230,6,0,P|375:213|358:258,1,90,6|0,0:0|0:0,0:0:0:0:
283,110,25650,2,0,P|271:154|275:198,1,90,8|2,0:0|0:0,0:0:0:0:
441,69,26069,2,0,P|456:161|447:258,1,180,2|8,0:0|0:0,0:0:0:0:
324,345,26699,5,2,0:0:0:0:
324,345,27118,2,0,P|272:363|226:367,1,90,2|8,0:0|0:0,0:0:0:0:
129,297,27538,1,2,0:0:0:0:
266,101,27748,2,0,P|363:99|448:107,1,180,2|8,0:0|0:0,0:0:0:0:
138,125,28587,5,6,0:0:0:0:
47,31,28797,1,0,0:0:0:0:
47,31,28901,1,0,0:0:0:0:
47,31,29006,2,0,L|3:131,1,90,8|2,0:0|0:0,0:0:0:0:
295,212,29426,2,0,P|246:218|202:213,1,90,2|0,0:0|0:0,0:0:0:0:
138,125,29846,1,8,0:0:0:0:
306,323,30055,5,2,0:0:0:0:
306,323,30475,2,0,P|355:317|399:322,1,90,2|8,0:0|0:0,0:0:0:0:
148,334,30894,1,2,0:0:0:0:
305,150,31104,2,0,L|305:239,1,90,2|0,0:0|0:0,0:0:0:0:
226,210,31419,1,0,0:0:0:0:
226,210,31524,2,0,L|225:301,1,90,10|0,0:0|0:0,0:0:0:0:
379,105,31943,5,6,0:0:0:0:
226,30,32153,2,0,P|181:23|136:25,1,90,0|8,0:0|0:0,0:0:0:0:
379,105,32573,1,2,0:0:0:0:
212,118,32783,2,0,P|123:140|132:226,1,180,2|8,0:0|0:0,0:0:0:0:
355,258,33412,5,2,0:0:0:0:
355,258,33832,2,0,P|315:261|253:254,1,90,2|8,0:0|0:0,0:0:0:0:
172,315,34251,1,2,0:0:0:0:
406,178,34461,2,0,P|441:158|473:120,2,90,2|0|8,0:0|0:0|0:0,0:0:0:0:
225,33,35300,5,2,0:0:0:0:
60,280,35720,2,0,P|38:329|29:364,1,90,8|2,0:0|0:0,0:0:0:0:
12,139,36139,1,2,0:0:0:0:
12,139,36559,1,8,0:0:0:0:
225,49,36769,5,2,0:0:0:0:
227,64,37188,2,0,P|272:68|318:66,1,90,2|8,0:0|0:0,0:0:0:0:
490,67,37608,1,2,0:0:0:0:
400,224,37818,2,0,P|407:281|406:323,1,90,4|2,0:0|0:0,0:0:0:0:
400,224,38237,1,8,0:0:0:0:
200,27,38657,5,2,0:0:0:0:
130,68,38866,1,0,0:0:0:0:
81,132,39076,1,0,0:0:0:0:
58,209,39286,1,0,0:0:0:0:
138,198,39496,5,8,0:0:0:0:
215,223,39705,1,0,0:0:0:0:
276,275,39915,1,0,0:0:0:0:
315,345,40125,1,2,0:0:0:0:
372,151,40335,5,2,0:0:0:0:
372,151,40754,2,0,P|374:195|381:248,1,90,2|0,0:0|0:0,0:0:0:0:
469,121,41174,2,0,P|467:77|460:24,1,90,8|0,0:0|0:0,0:0:0:0:
359,42,41594,2,0,P|315:44|262:51,1,90,0|0,0:0|0:0,0:0:0:0:
106,39,42013,5,2,0:0:0:0:
20,57,42223,1,0,0:0:0:0:
12,143,42433,1,0,0:0:0:0:
94,178,42643,1,0,0:0:0:0:
148,115,42852,5,8,0:0:0:0:
20,57,43062,1,0,0:0:0:0:
94,178,43272,1,0,0:0:0:0:
106,39,43482,1,2,0:0:0:0:
12,143,43692,5,2,0:0:0:0:
12,143,44111,2,0,P|10:198|14:248,1,90,2|0,0:0|0:0,0:0:0:0:
106,366,44531,2,0,P|108:321|106:276,1,90,8|0,0:0|0:0,0:0:0:0:
210,330,44950,2,0,P|254:327|299:330,1,90
390,335,45370,5,2,0:0:0:0:
477,355,45580,1,0,0:0:0:0:
458,267,45789,1,0,0:0:0:0:
469,177,45999,1,0,0:0:0:0:
272,81,46209,5,8,0:0:0:0:
348,33,46419,1,0,0:0:0:0:
351,123,46629,2,0,P|356:175|352:217,1,90,0|2,0:0|0:0,0:0:0:0:
192,36,47048,5,2,0:0:0:0:
192,36,47468,2,0,P|158:67|133:105,1,90,2|0,0:0|0:0,0:0:0:0:
158,197,47887,2,0,P|113:193|70:181,1,90,8|0,0:0|0:0,0:0:0:0:
220,130,48307,2,0,P|239:170|249:215,1,90
298,318,48727,6,0,P|248:324|202:317,1,90,2|0,0:0|0:0,0:0:0:0:
330,242,49146,2,0,P|373:235|418:240,1,90,0|0,0:0|0:0,0:0:0:0:
468,101,49566,1,8,0:0:0:0:
498,185,49775,1,0,0:0:0:0:
501,275,49985,1,0,0:0:0:0:
467,358,50195,1,2,0:0:0:0:
330,242,50405,5,2,0:0:0:0:
330,242,50824,2,0,P|285:221|258:192,1,90,2|0,0:0|0:0,0:0:0:0:
213,89,51244,1,8,0:0:0:0:
135,195,51454,1,0,0:0:0:0:
119,64,51664,1,0,0:0:0:0:
135,195,51874,1,0,0:0:0:0:
8,275,52083,5,2,0:0:0:0:
100,364,52293,1,0,0:0:0:0:
108,374,52398,1,0,0:0:0:0:
116,384,52503,2,0,L|186:304,1,90
246,217,52922,2,0,P|256:267|262:313,1,90,8|0,0:0|0:0,0:0:0:0:
213,89,53342,1,0,0:0:0:0:
340,90,53552,1,2,0:0:0:0:
246,217,53761,5,2,0:0:0:0:
340,90,53971,1,0,0:0:0:0:
354,88,54076,1,0,0:0:0:0:
369,85,54181,2,0,L|468:103,1,90,2|0,0:0|0:0,0:0:0:0:
388,191,54601,2,0,L|465:255,1,90,8|0,0:0|0:0,0:0:0:0:
330,281,55020,2,0,L|364:375,1,90,0|0,0:0|0:0,0:0:0:0:
246,217,55440,5,2,0:0:0:0:
183,310,55650,1,0,0:0:0:0:
177,321,55754,1,0,0:0:0:0:
171,332,55859,2,0,L|95:283,1,90
97,108,56279,1,8,0:0:0:0:
37,194,56489,1,0,0:0:0:0:
97,108,56699,2,0,P|147:101|194:101,1,90,0|2,0:0|0:0,0:0:0:0:
295,33,57118,5,2,0:0:0:0:
430,61,57328,1,0,0:0:0:0:
434,72,57433,1,0,0:0:0:0:
439,84,57538,2,0,L|393:162,1,90,2|0,0:0|0:0,0:0:0:0:
293,144,57957,1,8,0:0:0:0:
464,216,58167,1,0,0:0:0:0:
290,239,58377,1,0,0:0:0:0:
461,311,58587,1,0,0:0:0:0:
339,356,58796,6,0,P|283:365|241:357,1,90,2|0,0:0|0:0,0:0:0:0:
195,285,59111,1,0,0:0:0:0:
195,285,59216,2,0,L|145:364,1,90
49,203,59636,2,0,L|97:300,1,90,8|0,0:0|0:0,0:0:0:0:
163,155,60055,1,0,0:0:0:0:
49,203,60265,1,2,0:0:0:0:
219,41,60475,5,2,0:0:0:0:
283,166,60685,1,0,0:0:0:0:
287,178,60789,1,0,0:0:0:0:
292,192,60894,2,0,P|296:245|293:293,1,90,2|0,0:0|0:0,0:0:0:0:
165,264,61314,1,8,0:0:0:0:
283,166,61524,1,0,0:0:0:0:
165,264,61734,1,0,0:0:0:0:
209,118,61943,1,0,0:0:0:0:
392,27,62153,6,0,L|483:61,1,90,2|0,0:0|0:0,0:0:0:0:
421,140,62468,1,0,0:0:0:0:
421,140,62573,2,0,L|512:174,1,90,0|0,0:0|0:0,0:0:0:0:
323,104,62992,2,0,L|278:182,1,90,8|0,0:0|0:0,0:0:0:0:
209,118,63412,2,0,L|164:196,1,90,0|2,0:0|0:0,0:0:0:0:
31,224,63831,5,2,0:0:0:0:
114,290,64041,1,0,0:0:0:0:
114,290,64146,1,0,0:0:0:0:
114,290,64251,2,0,L|136:381,1,90,8|0,0:0|0:0,0:0:0:0:
209,118,64671,5,2,0:0:0:0:
392,255,64881,1,2,0:0:0:0:
392,255,64986,1,0,0:0:0:0:
392,255,65091,2,0,L|414:346,1,90,8|0,0:0|0:0,0:0:0:0:
367,172,65510,5,2,0:0:0:0:
199,197,65720,1,8,0:0:0:0:
262,17,65929,1,8,0:0:0:0:
303,351,66139,1,8,0:0:0:0:
