osu file format v5

[General]
AudioFilename: 38535535009640.mp3
AudioLeadIn: 1048
PreviewTime: -1
Countdown: 1
SampleSet: Normal

[Metadata]
Title:CANDY POP SWEET HEART
Artist:Himesama Goyoujin
Creator:xy1904312
Version:Hard

[Difficulty]
HPDrainRate:7
CircleSize:4
OverallDifficulty:5
SliderMultiplier:1.4
SliderTickRate:1

[Events]
//Background and Video events
//Break Periods
2,47000,51825
2,95000,105675
2,143000,155775
2,201950,207310
//Storyboard Layer 0 (Background)
//Storyboard Layer 1 (Failing)
//Storyboard Layer 2 (Passing)
//Storyboard Layer 3 (Foreground)
//Storyboard Sound Samples
//Background Colour Transformations
3,100,163,162,255

[TimingPoints]
6000,600,4,1,0,100
181680,600,4,1,0,0
204310,600,4,1,0,100

[HitObjects]
128,64,7650,1,4
256,160,10575,1,0
448,96,13575,1,4
288,224,16500,2,0,B|256:160,3,70
128,160,18075,5,0
192,128,18825,1,0
256,128,19575,1,0
320,160,20100,1,0
320,160,20475,1,0
128,224,20775,1,0
192,224,21000,1,0
256,224,21375,1,0
320,224,21525,1,0
288,256,21900,1,0
224,256,22200,1,0
160,256,22425,2,0,B|160:192,2,52.5
160,288,22950,2,0,B|288:288,1,122.5
96,96,23925,6,0,B|160:96,2,52.5
192,64,24600,1,0
192,64,24750,1,0
224,96,24975,1,0
224,96,25125,1,0
256,64,25350,1,0
256,64,25500,1,0
288,96,25725,1,0
288,96,25875,1,0
320,128,26250,1,0
288,160,26625,1,0
256,192,26850,1,0
224,160,27000,1,0
224,160,27150,1,0
192,192,27375,1,0
192,192,27750,1,0
160,160,28050,1,0
160,160,28275,2,0,B|160:64,1,87.5
256,64,28800,1,0
256,64,28950,1,0
256,64,29175,1,0
256,64,29325,1,0
160,288,29700,6,0,B|320:192|160:64|0:192|96:352|384:320|416:64|288:64|256:32,1,560
96,160,32625,2,0,B|146:88|197:314|192:320|192:64|320:-32|264:62|377:232|384:256,1,472.5
383,253,34800,1,0
383,253,34950,1,0
128,64,35550,5,0
256,64,35850,2,0,B|288:64,3,17.5
128,160,36300,1,0
128,160,36525,1,0
128,160,36675,1,0
128,160,36825,1,0
256,160,36975,2,0,B|288:160,3,17.5
256,224,37350,2,0,B|288:224,2,17.5
128,224,37725,1,0
128,224,37875,1,0
128,320,38250,1,0
224,320,38475,1,0
224,256,38625,1,0
224,192,38850,1,0
224,192,39000,1,0
224,128,39375,1,0
224,64,39750,2,0,B|224:160,2,87.5
128,160,41400,5,0
224,160,41700,2,0,B|288:160,2,52.5
384,160,42600,1,0
288,160,42750,2,0,B|224:160,2,52.5
128,160,43725,1,0
128,160,43875,1,0
128,160,44025,1,0
224,160,44250,2,0,B|313:68|293:218|376:268|387:94|480:160,2,280
224,160,46800,1,0
192,256,53025,5,0
320,128,53325,1,0
192,128,53700,1,0
320,256,54075,1,0
160,160,54450,5,0
160,160,54825,1,0
256,160,55200,2,0,B|352:160,2,87.5
160,160,56250,1,0
160,160,56475,1,0
256,160,56850,2,0,B|320:160,2,52.5
320,160,57675,1,0
384,128,57900,2,0,B|416:64,3,70
416,64,59025,1,0
96,192,60075,5,0
160,192,60450,2,0,B|384:192,1,210
256,32,61500,1,0
256,96,61875,2,0,B|256:320,1,210
128,128,63000,5,0
192,128,63375,2,0,B|224:96,2,35
128,192,63900,1,0
192,192,64275,2,0,B|224:160,2,35
128,256,65175,1,0
192,256,65325,2,0,B|256:256,2,52.5
128,256,66075,5,0
192,224,66450,1,0
256,192,66825,1,0
320,160,67200,1,0
384,128,67575,2,0,B|288:96|356:42|168:-12|295:210|128:128|141:111|128:128,1,280
139,123,69000,1,0
192,128,69375,2,0,B|238:63|302:44|352:96,1,175
352,160,70275,2,0,B|293:243|256:224|192:192,1,175
192,192,71775,6,0,B|256:192,1,52.5
320,192,72225,1,0
320,192,72375,1,0
320,192,72600,1,0
384,192,73125,6,0,B|448:192,1,52.5
384,256,73500,2,0,B|448:256,1,52.5
416,256,73875,1,0
320,256,74025,2,0,B|256:256,1,52.5
320,192,74625,1,0
320,192,75000,2,0,B|256:192,1,52.5
267,192,75375,1,0
267,192,75525,1,0
224,192,76050,6,0,B|224:288,3,87.5
128,288,77550,1,0
160,288,77925,1,0
256,288,78075,1,0
288,288,78300,1,0
320,288,78450,1,0
352,288,78975,5,0
320,224,79350,2,0,B|224:224,1,87.5
160,288,79950,1,0
192,224,80100,2,0,B|288:224,1,87.5
352,288,81750,5,0
256,288,82125,2,0,B|96:288,3,157.5
256,32,84900,6,0,B|256:384,1,332.5
128,192,86475,2,0,B|416:192,1,280
384,96,87900,2,0,B|160:288,1,280
160,96,89325,2,0,B|416:288,1,315
480,224,90825,2,0,B|456:115|404:59|325:100|276:194|280:184|280:184,1,280
256,224,92250,2,0,B|253:282|209:352|148:348|123:332|86:292|96:256,1,262.5
160,224,93600,2,0,B|192:192,2,35
256,192,94125,1,0
256,192,94275,1,0
256,192,94500,1,0
256,192,94650,1,0
256,192,94800,1,0
128,96,106875,5,0
256,192,107550,1,0
384,288,108300,1,0
256,288,108975,2,0,B|192:288,2,52.5
96,288,109725,1,0
256,192,110475,1,0
416,96,111225,1,0
256,96,111900,2,0,B|192:96,2,52.5
320,96,112650,5,0
320,192,112950,1,0
320,192,113025,1,0
224,192,113325,1,0
128,192,113625,1,0
128,192,113700,1,0
128,288,114000,1,0
224,288,114375,1,0
320,288,114825,1,0
320,288,114975,1,0
288,224,115350,1,0
288,160,115500,2,0,B|352:160,2,52.5
288,96,116100,2,0,B|224:96,2,52.5
320,96,116775,2,0,B|333:52|364:22|416:14|476:36|512:128|427:194|344:192|329:127|352:96,1,350
256,192,118425,5,0
224,192,118800,2,0,B|160:192,2,52.5
256,192,119400,1,0
256,224,119550,2,0,B|288:256,2,35
256,192,120075,1,0
288,160,120225,2,0,B|320:128,2,35
256,192,120825,1,0
256,192,120975,1,0
256,192,121125,1,0
256,96,121350,2,0,B|192:128,1,70
160,192,121725,2,0,B|192:256,1,70
256,288,122100,2,0,B|320:256,1,70
352,192,122475,2,0,B|320:128,1,70
320,128,122850,1,0
256,192,123150,1,0
256,192,123300,1,0
256,192,123750,6,0,B|288:160,2,35
256,192,124275,2,0,B|224:224,6,35
256,192,125325,2,0,B|224:160,2,35
256,192,125700,2,0,B|288:224,4,35
256,192,126675,1,0
256,192,126825,1,0
256,192,126975,1,0
256,192,127200,5,0
224,192,127500,2,0,B|288:192,2,52.5
256,224,128100,2,0,B|256:160,6,52.5
32,192,130050,5,0
192,192,130425,1,0
320,192,130800,1,0
480,192,131175,1,0
480,192,131625,6,0,B|480:96,1,87.5
320,192,132300,2,0,B|320:288,1,87.5
192,192,132975,2,0,B|192:96,1,87.5
32,192,133500,2,0,B|32:288,1,87.5
256,192,134175,12,0,136500
128,128,137175,5,0
224,160,137475,2,0,B|416:256,1,210
448,288,138600,2,0,B|128:288,1,315
128,288,140100,1,0
96,256,140475,1,0
128,224,140625,1,0
96,192,141000,1,0
128,160,141375,2,0,B|224:96,2,105
128,160,142425,1,0
96,128,142800,1,0
256,160,156975,5,0
256,224,157200,1,0
256,192,157575,1,0
256,0,159150,5,0
96,96,159525,1,0
416,96,159900,1,0
384,288,160275,1,0
128,288,160650,1,0
128,288,162075,6,0,B|422:94|422:94|94:94|94:94|386:288|386:288|256:0|256:0|128:288,1,1645
255,194,170625,5,0
256,192,171000,12,0,182205
111,174,183900,5,0
388,38,185400,1,0
194,279,186825,1,0
253,108,188100,1,0
253,108,188475,1,0
265,150,189525,1,0
265,150,189900,1,0
275,192,190950,1,0
275,192,191325,1,0
184,174,192600,2,0,B|174:128|318:173|348:222|355:244|356:129|296:88|250:239,2,315
141,308,195525,5,0
188,275,195900,1,0
236,236,196275,1,0
288,205,196650,1,0
329,176,197025,1,0
371,149,197400,2,0,B|440:85,2,87.5
128,261,198450,1,0
168,221,198750,1,0
202,190,198900,1,0
182,315,199725,1,0
277,236,200175,1,0
266,339,200850,2,0,B|365:287,2,105
48,148,208585,5,0
123,198,208960,1,0
183,132,209335,1,0
250,63,209710,1,0
326,48,210085,2,0,B|373:40|395:54|397:109|374:127,2,122.5
252,87,211360,1,0
339,120,211585,2,0,B|388:117|414:89|318:43,2,122.5
269,144,212785,1,0
185,174,213235,1,0
108,148,214285,5,0
172,152,214585,2,0,B|248:153,3,70
166,225,215710,2,0,B|169:72,2,140
219,226,217135,2,0,B|222:112,2,105
189,254,218110,2,0,B|250:341,1,105
272,351,218635,2,0,B|458:290,1,192.5
454,262,219535,2,0,B|380:216,1,70
394,226,219910,1,0
176,168,220285,5,0
206,137,220660,1,0
246,167,221035,1,0
283,145,221410,1,0
314,171,221710,1,0
359,141,222085,1,0
359,138,222235,1,0
391,170,222610,1,0
425,150,222985,1,0
426,151,223135,1,0
466,173,223510,1,0
465,174,223735,1,0
448,222,224110,2,0,B|373:265,2,70
99,313,225910,5,0
159,276,226210,1,0
182,206,226435,1,0
152,140,226585,1,0
87,114,226810,1,0
146,65,227335,2,0,B|471:63,1,315
436,136,228835,5,0
372,169,229135,1,0
324,219,229285,1,0
339,286,229510,1,0
387,329,229660,1,0
312,346,230260,2,0,B|44:345,1,262.5
59,300,231760,6,0,B|84:248,1,52.5
102,229,232060,1,0
147,229,232210,2,0,B|199:223,1,35
201,206,232435,1,0
232,188,232585,2,0,B|358:164,1,122.5
363,140,233185,2,0,B|329:63,1,70
307,59,233560,1,0
265,77,233710,2,0,B|220:84,1,35
192,109,233935,1,0
152,135,234085,1,0
121,156,234235,2,0,B|181:238,1,87.5
191,252,234685,2,0,B|277:284|284:210|301:196|333:240,2,157.5
49,126,236260,5,0
164,24,236635,1,0
375,50,237010,1,0
447,205,237310,1,0
375,355,237685,1,0
256,192,238210,12,0,239860
256,188,240235,5,0
