osu file format v13

[General]
AudioFilename: yotsuya192.mp3
AudioLeadIn: 0
PreviewTime: 53894
Countdown: 0
SampleSet: Soft
StackLeniency: 0.7
Mode: 3
LetterboxInBreaks: 0
EpilepsyWarning: 1
SpecialStyle: 0
WidescreenStoryboard: 1

[Editor]
Bookmarks: 2621,20076,25531,34258,51712,53894,71212,88803,97394,99712,117031,125758,134485,143212,152076,160803,169531,171712
DistanceSpacing: 1
BeatDivisor: 8
GridSize: 8
TimelineZoom: 1.700001

[Metadata]
Title:Yotsuya-san ni Yoroshiku
TitleUnicode:Yotsuya-san ni Yoroshiku
Artist:Himeringo
ArtistUnicode:Himeringo
Creator:chikitani
Version:SC
Source:
Tags:
BeatmapID:584311
BeatmapSetID:234446

[Difficulty]
HPDrainRate:7
CircleSize:7
OverallDifficulty:7
ApproachRate:7
SliderMultiplier:1.4
SliderTickRate:1

[Events]
//Background and Video events
0,0,"yotsuya-san.jpg",0,0
//Break Periods
//Storyboard Layer 0 (Background)
//Storyboard Layer 1 (Fail)
//Storyboard Layer 2 (Pass)
//Storyboard Layer 3 (Foreground)
//Storyboard Sound Samples

[TimingPoints]
1531,272.727272727273,4,2,1,30,1,0
71212,-100,4,2,1,30,0,1
88803,-100,4,2,1,30,0,0
117031,-100,4,2,1,30,0,1
143212,-100,4,2,1,30,0,0

[HitObjects]
109,192,2621,128,0,3303:2:3:0:0:
256,192,2621,1,4,2:2:0:0:
475,192,2894,128,0,3576:2:3:0:0:
402,192,3167,128,0,3849:2:3:0:0:
329,192,3440,128,0,4121:2:3:0:0:
109,192,3440,128,0,4121:2:3:0:0:
475,192,3712,128,0,4394:2:3:0:0:
402,192,3985,128,0,4667:2:3:0:0:
329,192,4258,128,0,4940:2:3:0:0:
109,192,4258,128,0,4667:2:3:0:0:
475,192,4531,128,0,4940:2:3:0:0:
36,192,4803,128,0,5485:2:3:0:0:
182,192,4803,1,4,2:2:0:0:
475,192,5076,128,0,5758:2:3:0:0:
402,192,5349,128,0,6031:2:3:0:0:
36,192,5621,128,0,6303:2:3:0:0:
329,192,5621,128,0,6303:2:3:0:0:
475,192,5894,128,0,6576:2:3:0:0:
402,192,6167,128,0,6849:2:3:0:0:
329,192,6440,128,0,7121:2:3:0:0:
36,192,6440,128,0,6849:2:3:0:0:
475,192,6712,128,0,7121:2:3:0:0:
109,192,6985,128,0,7667:2:3:0:0:
256,192,6985,1,4,2:2:0:0:
475,192,7258,128,0,7940:2:3:0:0:
402,192,7531,128,0,8212:2:3:0:0:
109,192,7803,128,0,8485:2:3:0:0:
329,192,7803,128,0,8485:2:3:0:0:
475,192,8076,128,0,8758:2:3:0:0:
402,192,8349,128,0,9031:2:3:0:0:
109,192,8621,128,0,9031:2:3:0:0:
329,192,8621,128,0,9303:2:3:0:0:
475,192,8894,128,0,9303:2:3:0:0:
182,192,9167,128,0,9849:2:3:0:0:
36,192,9167,1,4,2:2:0:0:
475,192,9440,128,0,10121:2:3:0:0:
402,192,9712,128,0,10394:2:3:0:0:
329,192,9985,128,0,10667:2:3:0:0:
182,192,9985,128,0,10667:2:3:0:0:
475,192,10258,128,0,10940:2:3:0:0:
402,192,10531,128,0,11212:2:3:0:0:
329,192,10803,128,0,11485:2:3:0:0:
182,192,10803,128,0,11212:2:3:0:0:
475,192,11076,128,0,11485:2:3:0:0:
109,192,11349,128,0,12031:2:3:0:0:
182,192,11349,128,0,11758:2:3:0:0:
256,192,11349,1,4,2:2:0:0:
475,192,11621,128,0,12303:2:3:0:0:
402,192,11894,128,0,12576:2:3:0:0:
182,192,11894,128,0,12303:2:3:0:0:
109,192,12167,128,0,12849:2:3:0:0:
329,192,12167,128,0,12849:2:3:0:0:
475,192,12440,128,0,13121:2:3:0:0:
182,192,12440,128,0,12849:2:3:0:0:
402,192,12712,128,0,13394:2:3:0:0:
329,192,12985,128,0,13667:2:3:0:0:
109,192,12985,128,0,13394:2:3:0:0:
182,192,12985,128,0,13394:2:3:0:0:
475,192,13258,128,0,13667:2:3:0:0:
36,192,13531,128,0,14212:2:3:0:0:
109,192,13531,128,0,13940:2:3:0:0:
182,192,13531,1,4,2:2:0:0:
475,192,13803,128,0,14485:2:3:0:0:
402,192,14076,128,0,14758:2:3:0:0:
109,192,14076,128,0,14485:2:3:0:0:
329,192,14349,128,0,15031:2:3:0:0:
36,192,14349,128,0,15031:2:3:0:0:
475,192,14621,128,0,15303:2:3:0:0:
109,192,14621,128,0,15031:2:3:0:0:
402,192,14894,128,0,15576:2:3:0:0:
329,192,15167,128,0,15849:2:3:0:0:
36,192,15167,128,0,15576:2:3:0:0:
109,192,15167,128,0,15576:2:3:0:0:
475,192,15440,128,0,15849:2:3:0:0:
109,192,15712,128,0,16394:2:3:0:0:
182,192,15712,128,0,16121:2:3:0:0:
256,192,15712,1,4,2:2:0:0:
475,192,15985,128,0,16667:2:3:0:0:
402,192,16258,128,0,16940:2:3:0:0:
182,192,16258,128,0,16667:2:3:0:0:
329,192,16531,128,0,17212:2:3:0:0:
109,192,16531,128,0,17212:2:3:0:0:
475,192,16803,128,0,17485:2:3:0:0:
182,192,16803,128,0,17212:2:3:0:0:
402,192,17076,128,0,17758:2:3:0:0:
109,192,17349,128,0,17758:2:3:0:0:
329,192,17349,128,0,18031:2:3:0:0:
182,192,17349,128,0,17758:2:3:0:0:
475,192,17621,128,0,18031:2:3:0:0:
182,192,17894,128,0,18576:2:3:0:0:
256,192,17894,128,0,18303:2:3:0:0:
109,192,17894,1,4,2:2:0:0:
475,192,18167,128,0,18849:2:3:0:0:
402,192,18440,128,0,19121:2:3:0:0:
256,192,18440,128,0,18849:2:3:0:0:
182,192,18712,128,0,19394:2:3:0:0:
329,192,18712,128,0,19394:2:3:0:0:
475,192,18985,128,0,19667:2:3:0:0:
256,192,18985,128,0,19394:2:3:0:0:
402,192,19258,128,0,19940:2:3:0:0:
329,192,19531,128,0,19940:2:3:0:0:
182,192,19531,128,0,19940:2:3:0:0:
256,192,19531,128,0,19940:2:3:0:0:
475,192,19803,128,0,19940:2:3:0:0:
329,192,20076,128,0,20553:2:3:0:0:
36,192,20076,128,0,22258:2:3:0:0:
475,192,20076,1,4,2:2:0:0:
109,192,20349,128,0,21712:2:3:0:0:
182,192,20667,128,0,21394:2:3:0:0:
402,192,20667,128,0,21167:2:3:0:0:
256,192,20940,128,0,22258:2:3:0:0:
475,192,21258,128,0,21712:2:3:0:0:
182,192,21485,128,0,21940:2:3:0:0:
402,192,21803,128,0,22258:2:3:0:0:
109,192,21803,128,0,22258:2:3:0:0:
182,192,22031,128,0,22258:2:3:0:0:
329,192,22394,128,0,25394:2:3:0:0:
256,192,22394,1,4,2:2:0:0:
402,192,22462,128,0,25394:2:3:0:0:
475,192,22531,128,0,25394:2:3:0:0:
109,192,23349,1,4,2:3:0:0:
109,192,23485,1,4,2:3:0:0:
109,192,23621,1,4,2:3:0:0:
109,192,23758,1,4,2:3:0:0:
109,192,23894,1,4,2:3:0:0:
109,192,24031,1,4,2:3:0:0:
109,192,24167,1,4,2:3:0:0:
109,192,24303,1,4,2:3:0:0:
109,192,24440,1,4,2:3:0:0:
182,192,24440,1,0,2:3:0:0:
36,192,24712,1,2,2:3:0:0:
36,192,24849,1,2,2:3:0:0:
182,192,24985,1,0,2:3:0:0:
36,192,24985,1,2,2:3:0:0:
109,192,24985,1,0,2:3:0:0:
109,192,25258,1,0,2:3:0:0:
182,192,25258,1,0,2:3:0:0:
256,192,25531,128,0,25803:2:3:0:0:
182,192,25531,128,0,25803:2:3:0:0:
402,192,25531,1,0,2:3:0:0:
475,192,25531,1,8,2:3:0:0:
475,192,25735,1,8,2:3:0:0:
402,192,25803,1,2,2:3:0:0:
475,192,25940,1,8,2:3:0:0:
256,192,25940,1,0,2:3:0:0:
256,192,26076,128,0,26485:2:3:0:0:
402,192,26076,1,2,2:3:0:0:
475,192,26212,1,8,2:3:0:0:
36,192,26212,128,0,26485:2:3:0:0:
182,192,26349,128,0,26485:2:3:0:0:
402,192,26349,1,2,2:3:0:0:
329,192,26485,128,0,26758:2:3:0:0:
475,192,26485,1,8,2:3:0:0:
109,192,26621,1,2,2:3:0:0:
402,192,26758,128,0,26894:2:3:0:0:
36,192,26758,1,8,2:3:0:0:
475,192,26894,128,0,27167:2:3:0:0:
109,192,26894,1,2,2:3:0:0:
36,192,27031,1,8,2:3:0:0:
402,192,27167,128,0,27440:2:3:0:0:
109,192,27167,1,2,2:3:0:0:
36,192,27303,1,8,2:3:0:0:
329,192,27440,128,0,27576:2:3:0:0:
109,192,27440,1,2,2:3:0:0:
182,192,27576,1,4,2:3:0:0:
36,192,27576,1,8,2:3:0:0:
182,192,27712,1,4,2:3:0:0:
256,192,27712,128,0,27985:2:3:0:0:
329,192,27712,128,0,27985:2:3:0:0:
36,192,27712,1,8,2:3:0:0:
109,192,27712,1,2,2:3:0:0:
36,192,27917,1,8,2:3:0:0:
109,192,27985,1,2,2:3:0:0:
36,192,28121,1,8,2:3:0:0:
256,192,28121,1,0,2:3:0:0:
256,192,28258,128,0,28667:2:3:0:0:
109,192,28258,1,2,2:3:0:0:
475,192,28394,128,0,28667:2:3:0:0:
36,192,28394,1,8,2:3:0:0:
329,192,28531,128,0,28667:2:3:0:0:
109,192,28531,1,2,2:3:0:0:
182,192,28667,128,0,28871:2:3:0:0:
36,192,28667,1,8,2:3:0:0:
402,192,28803,1,2,2:3:0:0:
475,192,28940,1,8,2:3:0:0:
182,192,28940,128,0,29008:2:0:0:0:
402,192,29076,1,2,2:3:0:0:
182,192,29076,128,0,29144:2:0:0:0:
475,192,29212,1,8,2:3:0:0:
182,192,29212,128,0,29281:2:0:0:0:
402,192,29349,1,2,2:3:0:0:
36,192,29349,128,0,29417:2:0:0:0:
475,192,29485,1,8,2:3:0:0:
182,192,29485,1,0,2:3:0:0:
36,192,29485,128,0,29553:2:0:0:0:
329,192,29485,1,4,2:3:0:0:
109,192,29553,1,0,2:3:0:0:
402,192,29621,1,2,2:3:0:0:
182,192,29621,1,0,2:3:0:0:
36,192,29621,128,0,29690:2:0:0:0:
475,192,29758,1,8,2:3:0:0:
402,192,29758,1,2,2:3:0:0:
182,192,29758,1,0,2:3:0:0:
36,192,29758,128,0,29894:2:0:0:0:
329,192,29758,1,4,2:3:0:0:
475,192,29894,1,8,2:3:0:0:
109,192,29894,128,0,30167:2:3:0:0:
256,192,29894,128,0,30167:2:3:0:0:
329,192,29894,1,4,2:3:0:0:
475,192,30099,1,8,2:3:0:0:
402,192,30167,1,2,2:3:0:0:
475,192,30303,1,8,2:3:0:0:
36,192,30303,1,0,2:3:0:0:
36,192,30440,128,0,30849:2:3:0:0:
402,192,30440,1,2,2:3:0:0:
182,192,30576,128,0,30849:2:3:0:0:
475,192,30576,1,8,2:3:0:0:
256,192,30712,128,0,30849:2:3:0:0:
402,192,30712,1,2,2:3:0:0:
402,192,30849,128,0,31121:2:3:0:0:
475,192,30849,1,8,2:3:0:0:
109,192,30985,1,2,2:3:0:0:
329,192,31121,128,0,31258:2:3:0:0:
36,192,31121,1,8,2:3:0:0:
475,192,31258,128,0,31531:2:3:0:0:
109,192,31258,1,2,2:3:0:0:
36,192,31394,1,8,2:3:0:0:
402,192,31531,128,0,31803:2:3:0:0:
109,192,31531,1,2,2:3:0:0:
36,192,31667,1,8,2:3:0:0:
329,192,31803,128,0,31940:2:3:0:0:
109,192,31803,1,2,2:3:0:0:
36,192,31940,1,8,2:3:0:0:
182,192,31940,1,4,2:3:0:0:
475,192,32076,128,0,32349:2:3:0:0:
36,192,32076,1,8,2:3:0:0:
182,192,32076,1,4,2:3:0:0:
109,192,32076,1,2,2:3:0:0:
36,192,32281,1,8,2:3:0:0:
109,192,32349,1,2,2:3:0:0:
475,192,32485,1,0,2:3:0:0:
36,192,32485,1,8,2:3:0:0:
475,192,32621,128,0,33031:2:3:0:0:
109,192,32621,1,2,2:3:0:0:
329,192,32758,128,0,33031:2:3:0:0:
36,192,32758,1,8,2:3:0:0:
256,192,32894,128,0,33031:2:3:0:0:
109,192,32894,1,2,2:3:0:0:
109,192,33031,128,0,33303:2:3:0:0:
36,192,33031,1,8,2:3:0:0:
402,192,33167,1,2,2:3:0:0:
182,192,33303,128,0,33440:2:3:0:0:
475,192,33303,1,8,2:3:0:0:
36,192,33440,128,0,33849:2:3:0:0:
402,192,33440,1,2,2:3:0:0:
109,192,33576,128,0,33849:2:3:0:0:
475,192,33576,1,8,2:3:0:0:
182,192,33712,128,0,33849:2:3:0:0:
475,192,33712,1,8,2:3:0:0:
182,192,34258,1,8,2:1:0:0:
36,192,34258,1,4,2:2:0:0:
475,192,34258,128,0,34531:2:3:0:0:
329,192,34258,128,0,34531:2:3:0:0:
182,192,34531,1,8,2:1:0:0:
402,192,34667,128,0,35076:2:3:0:0:
329,192,34803,1,2,2:1:0:0:
475,192,34803,128,0,35076:2:3:0:0:
329,192,34940,1,2,2:1:0:0:
182,192,35076,1,8,2:1:0:0:
329,192,35212,1,2,2:1:0:0:
109,192,35212,128,0,35621:2:3:0:0:
36,192,35349,128,0,35621:2:3:0:0:
182,192,35349,1,8,2:1:0:0:
329,192,35485,1,2,2:1:0:0:
182,192,35621,1,8,2:1:0:0:
402,192,35758,128,0,35894:2:3:0:0:
475,192,35894,128,0,36031:2:3:0:0:
36,192,35894,1,2,2:1:0:0:
36,192,36031,1,2,2:1:0:0:
402,192,36065,1,0,2:3:0:0:
329,192,36099,1,0,2:3:0:0:
402,192,36133,1,0,2:3:0:0:
109,192,36167,1,8,2:1:0:0:
475,192,36167,128,0,36235:2:3:0:0:
402,192,36235,128,0,36440:2:3:0:0:
329,192,36440,1,2,2:1:0:0:
36,192,36440,128,0,36712:2:3:0:0:
182,192,36440,128,0,36712:2:3:0:0:
475,192,36440,1,4,2:2:0:0:
329,192,36712,1,0,2:1:0:0:
109,192,36849,128,0,37394:2:3:0:0:
36,192,36985,128,0,37394:2:3:0:0:
182,192,36985,1,2,2:1:0:0:
182,192,37121,1,2,2:1:0:0:
329,192,37258,1,8,2:1:0:0:
182,192,37394,1,2,2:1:0:0:
402,192,37531,128,0,37803:2:3:0:0:
329,192,37531,1,8,2:1:0:0:
182,192,37667,1,2,2:1:0:0:
475,192,37803,128,0,38076:2:3:0:0:
329,192,37803,1,8,2:1:0:0:
402,192,38076,128,0,38349:2:3:0:0:
36,192,38076,1,2,2:1:0:0:
36,192,38212,1,2,2:1:0:0:
256,192,38349,128,0,38621:2:3:0:0:
109,192,38349,1,8,2:1:0:0:
109,192,38621,128,0,38894:2:3:0:0:
402,192,38621,128,0,38894:2:3:0:0:
182,192,38621,1,4,2:2:0:0:
329,192,38621,1,8,2:1:0:0:
329,192,38894,1,8,2:1:0:0:
109,192,39031,128,0,39440:2:3:0:0:
182,192,39167,1,8,2:1:0:0:
36,192,39167,128,0,39440:2:3:0:0:
329,192,39303,1,2,2:1:0:0:
182,192,39440,1,8,2:1:0:0:
329,192,39576,1,2,2:1:0:0:
402,192,39576,128,0,39985:2:3:0:0:
475,192,39712,128,0,39985:2:3:0:0:
182,192,39712,1,8,2:1:0:0:
329,192,39849,1,2,2:1:0:0:
182,192,39985,1,8,2:1:0:0:
109,192,40121,128,0,40258:2:3:0:0:
182,192,40258,128,0,40394:2:3:0:0:
475,192,40258,1,2,2:1:0:0:
475,192,40394,1,2,2:1:0:0:
109,192,40428,1,0,2:3:0:0:
36,192,40462,1,0,2:3:0:0:
109,192,40496,1,0,2:3:0:0:
402,192,40531,1,8,2:1:0:0:
182,192,40531,128,0,40599:2:3:0:0:
109,192,40599,128,0,40803:2:3:0:0:
182,192,40803,128,0,41076:2:3:0:0:
329,192,40803,128,0,41076:2:3:0:0:
475,192,40803,1,2,2:1:0:0:
36,192,40803,1,4,2:2:0:0:
402,192,41076,1,8,2:1:0:0:
256,192,41212,128,0,41349:2:3:0:0:
475,192,41349,1,2,2:1:0:0:
329,192,41349,128,0,41621:2:3:0:0:
475,192,41485,1,2,2:1:0:0:
256,192,41621,128,0,41758:2:3:0:0:
402,192,41621,1,8,2:1:0:0:
475,192,41758,1,2,2:1:0:0:
182,192,41758,128,0,41894:2:3:0:0:
36,192,41894,128,0,42712:2:3:0:0:
109,192,41894,128,0,42440:2:3:0:0:
402,192,41894,1,8,2:1:0:0:
475,192,42031,1,2,2:1:0:0:
402,192,42167,1,8,2:1:0:0:
475,192,42440,1,2,2:1:0:0:
329,192,42712,1,8,3:1:0:0:
402,192,42781,1,8,3:1:0:0:
329,192,42849,1,8,3:1:0:0:
402,192,42917,1,8,3:1:0:0:
182,192,42985,1,0,2:3:0:0:
329,192,42985,128,0,43258:2:3:0:0:
475,192,42985,128,0,43258:2:3:0:0:
36,192,42985,1,4,2:2:0:0:
182,192,43258,1,8,2:1:0:0:
402,192,43394,128,0,43803:2:3:0:0:
329,192,43531,1,2,2:1:0:0:
475,192,43531,128,0,43803:2:3:0:0:
329,192,43667,1,2,2:1:0:0:
182,192,43803,1,8,2:1:0:0:
109,192,43940,128,0,44349:2:3:0:0:
329,192,43940,1,2,2:1:0:0:
182,192,44076,1,8,2:1:0:0:
36,192,44076,128,0,44349:2:3:0:0:
329,192,44212,1,2,2:1:0:0:
182,192,44349,1,8,2:1:0:0:
402,192,44485,128,0,44621:2:3:0:0:
329,192,44621,128,0,44758:2:3:0:0:
36,192,44621,1,2,2:1:0:0:
36,192,44758,1,2,2:1:0:0:
402,192,44792,1,0,2:3:0:0:
475,192,44826,1,0,2:3:0:0:
402,192,44860,1,0,2:3:0:0:
109,192,44894,1,8,2:1:0:0:
329,192,44894,128,0,44962:2:3:0:0:
402,192,44962,128,0,45167:2:3:0:0:
36,192,45167,128,0,45440:2:3:0:0:
182,192,45167,128,0,45440:2:3:0:0:
475,192,45167,1,4,2:2:0:0:
329,192,45167,1,8,2:1:0:0:
329,192,45440,1,8,2:1:0:0:
109,192,45576,128,0,46121:2:3:0:0:
182,192,45712,1,2,2:1:0:0:
36,192,45712,128,0,46121:2:3:0:0:
182,192,45849,1,2,2:1:0:0:
329,192,45985,1,8,2:1:0:0:
182,192,46121,1,2,2:1:0:0:
402,192,46258,128,0,46531:2:3:0:0:
329,192,46258,1,8,2:1:0:0:
182,192,46394,1,2,2:1:0:0:
475,192,46531,128,0,46803:2:3:0:0:
329,192,46531,1,8,2:1:0:0:
402,192,46803,128,0,47076:2:3:0:0:
36,192,46803,1,2,2:1:0:0:
36,192,46940,1,2,2:1:0:0:
109,192,47076,1,8,2:1:0:0:
256,192,47076,128,0,47349:2:3:0:0:
402,192,47349,128,0,47621:2:3:0:0:
182,192,47349,1,4,2:2:0:0:
329,192,47349,1,8,2:1:0:0:
109,192,47349,128,0,47621:2:3:0:0:
329,192,47621,1,8,2:1:0:0:
109,192,47758,128,0,48167:2:3:0:0:
36,192,47894,128,0,48167:2:3:0:0:
182,192,47894,1,2,2:1:0:0:
182,192,48031,1,2,2:1:0:0:
329,192,48167,1,8,2:1:0:0:
402,192,48303,128,0,48712:2:3:0:0:
182,192,48303,1,2,2:1:0:0:
475,192,48440,128,0,48712:2:3:0:0:
329,192,48440,1,8,2:1:0:0:
182,192,48576,1,2,2:1:0:0:
329,192,48712,1,8,2:1:0:0:
109,192,48849,128,0,48985:2:3:0:0:
182,192,48985,128,0,49121:2:3:0:0:
475,192,48985,1,2,2:1:0:0:
475,192,49121,1,2,2:1:0:0:
109,192,49156,1,0,2:3:0:0:
36,192,49190,1,0,2:3:0:0:
109,192,49224,1,0,2:3:0:0:
182,192,49258,128,0,49326:2:3:0:0:
402,192,49258,1,8,2:1:0:0:
109,192,49326,128,0,49531:2:3:0:0:
475,192,49531,1,8,2:1:0:0:
36,192,49531,1,4,2:2:0:0:
182,192,49531,128,0,49803:2:3:0:0:
329,192,49531,128,0,49803:2:3:0:0:
402,192,49803,1,8,2:1:0:0:
256,192,49940,128,0,50076:2:3:0:0:
475,192,50076,1,2,2:1:0:0:
329,192,50076,128,0,50349:2:3:0:0:
475,192,50212,1,2,2:1:0:0:
256,192,50349,128,0,50485:2:3:0:0:
402,192,50349,1,8,2:1:0:0:
475,192,50485,1,2,2:1:0:0:
182,192,50485,128,0,50621:2:3:0:0:
109,192,50621,128,0,51167:2:3:0:0:
402,192,50621,1,8,2:1:0:0:
36,192,50621,128,0,51440:2:3:0:0:
475,192,50758,1,2,2:1:0:0:
402,192,50894,1,8,2:1:0:0:
402,192,51167,1,8,2:1:0:0:
329,192,51440,1,8,3:1:0:0:
402,192,51508,1,8,3:1:0:0:
329,192,51576,1,8,3:1:0:0:
402,192,51644,1,8,3:1:0:0:
36,192,51712,128,0,51985:2:3:0:0:
475,192,51712,1,0,2:3:0:0:
109,192,51985,1,0,2:3:0:0:
475,192,51985,1,2,2:2:0:0:
109,192,52121,128,0,52531:2:3:0:0:
402,192,52121,1,2,2:2:0:0:
475,192,52258,1,2,2:2:0:0:
402,192,52394,1,2,2:2:0:0:
475,192,52531,1,2,2:2:0:0:
182,192,52531,1,0,2:3:0:0:
182,192,52667,128,0,53076:2:3:0:0:
475,192,52803,1,2,2:2:0:0:
329,192,52803,1,4,2:1:0:0:
402,192,52940,1,8,2:2:0:0:
256,192,53076,128,0,53349:2:3:0:0:
402,192,53076,1,8,2:2:0:0:
475,192,53212,1,2,2:2:0:0:
329,192,53212,1,4,2:1:0:0:
182,192,53349,128,0,53621:2:3:0:0:
402,192,53349,1,8,2:2:0:0:
402,192,53485,1,8,2:2:0:0:
475,192,53621,1,2,2:2:0:0:
109,192,53621,128,0,53758:2:3:0:0:
329,192,53621,1,4,2:1:0:0:
402,192,53894,128,0,54167:2:3:0:0:
475,192,53894,128,0,54303:2:3:0:0:
182,192,53894,1,4,2:2:0:0:
36,192,53894,1,2,2:1:0:0:
329,192,54167,128,0,54303:2:3:0:0:
256,192,54303,128,0,54985:2:3:0:0:
109,192,54440,1,8,2:1:0:0:
36,192,54576,1,2,2:1:0:0:
109,192,54712,1,8,2:1:0:0:
475,192,54985,128,0,55394:2:3:0:0:
36,192,54985,1,2,2:1:0:0:
36,192,55121,1,2,2:1:0:0:
109,192,55258,1,8,2:1:0:0:
36,192,55394,1,2,2:1:0:0:
329,192,55394,128,0,56076:2:3:0:0:
36,192,55667,1,0,2:3:0:0:
109,192,55803,1,0,2:3:0:0:
36,192,56076,1,0,2:3:0:0:
402,192,56076,128,0,56349:2:3:0:0:
475,192,56349,128,0,57849:2:3:0:0:
329,192,56485,128,0,56758:2:3:0:0:
182,192,56485,1,0,3:3:0:0:
109,192,56621,1,8,2:1:0:0:
256,192,56758,128,0,56894:2:3:0:0:
36,192,56758,1,2,2:1:0:0:
402,192,56894,128,0,57031:2:3:0:0:
109,192,56894,1,8,2:1:0:0:
182,192,56894,1,0,3:3:0:0:
329,192,57031,128,0,57167:2:3:0:0:
256,192,57167,128,0,57440:2:3:0:0:
36,192,57167,1,2,2:1:0:0:
36,192,57303,1,2,2:1:0:0:
109,192,57440,1,8,2:1:0:0:
329,192,57440,128,0,57576:2:3:0:0:
182,192,57440,1,0,1:3:0:0:
256,192,57576,128,0,57849:2:3:0:0:
36,192,57576,1,2,2:1:0:0:
182,192,57576,1,0,1:3:0:0:
182,192,57712,1,0,1:3:0:0:
329,192,57849,128,0,57985:2:3:0:0:
182,192,57849,1,0,1:3:0:0:
36,192,57849,1,2,2:1:0:0:
402,192,57985,128,0,58258:2:3:0:0:
109,192,57985,1,8,2:1:0:0:
182,192,57985,1,0,1:3:0:0:
36,192,58258,128,0,58667:2:3:0:0:
109,192,58258,128,0,58531:2:3:0:0:
475,192,58258,1,2,2:1:0:0:
329,192,58258,1,4,2:2:0:0:
182,192,58531,128,0,58667:2:3:0:0:
256,192,58667,128,0,59349:2:3:0:0:
402,192,58803,1,8,2:1:0:0:
475,192,58940,1,2,2:1:0:0:
402,192,59076,1,8,2:1:0:0:
36,192,59349,128,0,59758:2:3:0:0:
475,192,59349,1,2,2:1:0:0:
475,192,59485,1,2,2:1:0:0:
402,192,59621,1,8,2:1:0:0:
182,192,59758,128,0,60440:2:3:0:0:
475,192,59758,1,2,2:1:0:0:
475,192,60031,1,2,2:1:0:0:
402,192,60167,1,8,2:1:0:0:
109,192,60440,128,0,60712:2:3:0:0:
475,192,60440,1,2,2:1:0:0:
36,192,60712,128,0,62212:2:3:0:0:
182,192,60849,128,0,61121:2:3:0:0:
329,192,60849,1,0,3:3:0:0:
402,192,60985,1,8,2:1:0:0:
256,192,61121,128,0,61258:2:3:0:0:
475,192,61121,1,2,2:1:0:0:
109,192,61258,128,0,61394:2:3:0:0:
402,192,61258,1,8,2:1:0:0:
329,192,61258,1,0,3:3:0:0:
182,192,61394,128,0,61531:2:3:0:0:
256,192,61531,128,0,61803:2:3:0:0:
475,192,61531,1,2,2:1:0:0:
329,192,61531,1,0,3:3:0:0:
402,192,61599,1,0,3:3:0:0:
329,192,61667,1,0,3:3:0:0:
402,192,61735,1,0,3:3:0:0:
182,192,61803,128,0,61940:2:3:0:0:
329,192,61803,1,0,3:3:0:0:
402,192,61871,1,0,3:3:0:0:
256,192,61940,128,0,62212:2:3:0:0:
475,192,61940,1,2,2:1:0:0:
329,192,61940,1,0,3:3:0:0:
402,192,62008,1,0,3:3:0:0:
329,192,62076,1,0,3:3:0:0:
402,192,62144,1,0,3:3:0:0:
182,192,62212,128,0,62349:2:3:0:0:
329,192,62212,1,0,3:3:0:0:
402,192,62281,1,0,3:3:0:0:
475,192,62349,1,2,2:1:0:0:
109,192,62349,128,0,62621:2:3:0:0:
329,192,62349,1,0,3:3:0:0:
256,192,62349,1,4,2:1:0:0:
36,192,62621,1,2,2:1:0:0:
182,192,62621,1,4,2:2:0:0:
475,192,62621,128,0,63031:2:3:0:0:
402,192,62621,128,0,62894:2:3:0:0:
329,192,62894,128,0,63031:2:3:0:0:
256,192,63031,128,0,63712:2:3:0:0:
109,192,63167,1,8,2:1:0:0:
36,192,63303,1,2,2:1:0:0:
109,192,63440,1,8,2:1:0:0:
36,192,63712,1,2,2:1:0:0:
475,192,63712,128,0,64121:2:3:0:0:
36,192,63849,1,2,2:1:0:0:
109,192,63985,1,8,2:1:0:0:
36,192,64121,1,2,2:1:0:0:
329,192,64121,128,0,64803:2:3:0:0:
36,192,64394,1,2,2:1:0:0:
109,192,64531,1,8,2:1:0:0:
402,192,64803,128,0,65076:2:3:0:0:
36,192,64803,1,2,2:1:0:0:
475,192,65076,128,0,66576:2:3:0:0:
182,192,65212,1,0,3:3:0:0:
329,192,65212,128,0,65485:2:3:0:0:
109,192,65349,1,8,2:1:0:0:
36,192,65485,1,2,2:1:0:0:
256,192,65485,128,0,65621:2:3:0:0:
109,192,65621,1,8,2:1:0:0:
402,192,65621,128,0,65758:2:3:0:0:
182,192,65621,1,0,3:3:0:0:
329,192,65758,128,0,65894:2:3:0:0:
256,192,65894,128,0,66167:2:3:0:0:
36,192,65894,1,2,2:1:0:0:
36,192,66031,1,2,2:1:0:0:
329,192,66167,128,0,66303:2:3:0:0:
109,192,66167,1,8,2:1:0:0:
182,192,66167,1,0,1:3:0:0:
256,192,66303,128,0,66576:2:3:0:0:
36,192,66303,1,2,2:1:0:0:
182,192,66303,1,0,1:3:0:0:
182,192,66440,1,0,1:3:0:0:
182,192,66576,1,0,1:3:0:0:
36,192,66576,1,2,2:1:0:0:
329,192,66576,128,0,66712:2:3:0:0:
402,192,66712,128,0,66985:2:3:0:0:
109,192,66712,1,8,2:1:0:0:
182,192,66712,1,0,1:3:0:0:
109,192,66985,128,0,67258:2:3:0:0:
36,192,66985,128,0,67394:2:3:0:0:
475,192,66985,1,2,2:1:0:0:
329,192,66985,1,4,2:2:0:0:
182,192,67258,128,0,67394:2:3:0:0:
256,192,67394,128,0,68076:2:3:0:0:
402,192,67531,1,8,2:1:0:0:
475,192,67667,1,2,2:1:0:0:
402,192,67803,1,8,2:1:0:0:
36,192,68076,128,0,68485:2:3:0:0:
475,192,68076,1,2,2:1:0:0:
475,192,68212,1,2,2:1:0:0:
402,192,68349,1,8,2:1:0:0:
182,192,68485,128,0,69167:2:3:0:0:
475,192,68485,1,2,2:1:0:0:
475,192,68758,1,2,2:1:0:0:
402,192,68894,1,8,2:1:0:0:
475,192,69167,1,2,2:1:0:0:
109,192,69167,128,0,69440:2:3:0:0:
36,192,69440,128,0,70940:2:3:0:0:
182,192,69576,128,0,69849:2:3:0:0:
329,192,69576,1,0,3:3:0:0:
402,192,69712,1,8,2:1:0:0:
256,192,69849,128,0,69985:2:3:0:0:
475,192,69849,1,2,2:1:0:0:
402,192,69985,1,8,2:1:0:0:
109,192,69985,128,0,70121:2:3:0:0:
329,192,69985,1,0,3:3:0:0:
182,192,70121,128,0,70258:2:3:0:0:
329,192,70258,1,0,3:3:0:0:
256,192,70258,128,0,70531:2:3:0:0:
475,192,70258,1,2,2:1:0:0:
402,192,70326,1,0,3:3:0:0:
329,192,70394,1,0,3:3:0:0:
402,192,70462,1,0,3:3:0:0:
329,192,70531,1,0,3:3:0:0:
182,192,70531,128,0,70940:2:3:0:0:
402,192,70599,1,0,3:3:0:0:
475,192,70667,1,2,2:1:0:0:
329,192,70667,1,0,3:3:0:0:
256,192,70667,1,4,2:1:0:0:
402,192,71212,128,0,71621:2:3:0:0:
475,192,71349,128,0,71621:2:3:0:0:
182,192,71349,1,2,2:1:0:0:
329,192,71349,1,8,2:1:0:0:
36,192,71349,1,4,2:2:0:0:
256,192,71621,1,8,2:1:0:0:
109,192,71758,128,0,72167:2:3:0:0:
36,192,71894,128,0,72167:2:3:0:0:
329,192,71894,1,2,2:1:0:0:
329,192,72031,1,2,2:1:0:0:
256,192,72167,1,8,3:1:0:0:
402,192,72303,128,0,72712:2:3:0:0:
475,192,72440,128,0,72712:2:3:0:0:
182,192,72440,1,2,2:1:0:0:
182,192,72576,1,2,2:1:0:0:
256,192,72712,1,8,2:1:0:0:
182,192,72849,1,2,2:1:0:0:
402,192,72849,128,0,72917:2:3:0:0:
475,192,72985,128,0,73053:2:3:0:0:
182,192,73121,1,2,2:1:0:0:
402,192,73121,128,0,73190:2:3:0:0:
256,192,73258,1,8,2:1:0:0:
329,192,73258,128,0,73326:2:3:0:0:
109,192,73394,128,0,73803:2:3:0:0:
36,192,73531,128,0,73803:2:3:0:0:
329,192,73531,1,2,2:1:0:0:
475,192,73531,1,8,2:1:0:0:
180,192,73531,1,4,2:2:0:0:
402,192,73803,1,8,2:1:0:0:
109,192,73940,128,0,74008:2:3:0:0:
36,192,74076,128,0,74144:2:3:0:0:
329,192,74076,1,2,2:1:0:0:
109,192,74212,128,0,74281:2:3:0:0:
329,192,74212,1,2,2:1:0:0:
182,192,74349,128,0,74417:2:3:0:0:
402,192,74349,1,8,2:1:0:0:
256,192,74485,128,0,74553:2:3:0:0:
36,192,74621,128,0,74894:2:3:0:0:
329,192,74621,1,2,2:1:0:0:
329,192,74758,1,2,2:1:0:0:
109,192,74894,128,0,75167:2:3:0:0:
402,192,74894,1,8,2:1:0:0:
329,192,75031,1,2,2:1:0:0:
182,192,75167,128,0,75440:2:3:0:0:
329,192,75303,1,2,2:1:0:0:
256,192,75440,128,0,75712:2:3:0:0:
402,192,75440,1,8,2:1:0:0:
182,192,75712,128,0,75985:2:3:0:0:
36,192,75712,1,2,2:1:0:0:
475,192,75712,1,4,2:2:0:0:
329,192,75985,1,8,3:1:0:0:
475,192,76121,128,0,76531:2:3:0:0:
109,192,76258,1,2,2:1:0:0:
402,192,76258,128,0,76531:2:3:0:0:
109,192,76394,1,2,2:1:0:0:
182,192,76531,1,8,2:1:0:0:
36,192,76667,128,0,77076:2:3:0:0:
109,192,76803,128,0,77076:2:3:0:0:
402,192,76803,1,2,2:1:0:0:
402,192,76940,1,2,2:1:0:0:
329,192,77076,1,8,2:1:0:0:
402,192,77212,1,2,2:1:0:0:
36,192,77212,128,0,77281:2:3:0:0:
109,192,77349,128,0,77417:2:3:0:0:
182,192,77485,128,0,77553:2:3:0:0:
402,192,77485,1,2,2:1:0:0:
109,192,77621,128,0,77690:2:3:0:0:
329,192,77621,1,8,2:1:0:0:
182,192,77758,128,0,77826:2:3:0:0:
36,192,77894,128,0,78099:2:3:0:0:
475,192,77894,1,4,2:2:0:0:
329,192,78167,1,8,2:1:0:0:
109,192,78167,128,0,78235:2:3:0:0:
182,192,78303,128,0,78576:2:3:0:0:
402,192,78440,1,2,2:1:0:0:
402,192,78576,1,2,2:1:0:0:
329,192,78712,1,8,2:1:0:0:
256,192,78712,128,0,78781:2:3:0:0:
182,192,78849,128,0,78917:2:3:0:0:
36,192,78985,128,0,79803:2:3:0:0:
109,192,78985,1,4,2:2:0:0:
475,192,78985,1,0,3:3:0:0:
402,192,79053,1,0,3:3:0:0:
329,192,79121,1,0,3:3:0:0:
402,192,79190,1,0,3:3:0:0:
475,192,79258,1,0,3:3:0:0:
402,192,79326,1,0,3:3:0:0:
329,192,79394,1,0,3:3:0:0:
182,192,79394,1,10,2:1:0:0:
402,192,79462,1,0,3:3:0:0:
475,192,79531,1,0,3:3:0:0:
402,192,79599,1,0,3:3:0:0:
329,192,79667,1,0,3:3:0:0:
402,192,79735,1,0,3:3:0:0:
475,192,79803,1,0,3:3:0:0:
182,192,79803,1,10,2:1:0:0:
402,192,79871,1,0,3:3:0:0:
329,192,79940,1,0,3:3:0:0:
109,192,79940,128,0,80349:2:3:0:0:
402,192,80008,1,0,3:3:0:0:
475,192,80076,1,0,3:1:0:0:
329,192,80076,1,4,2:2:0:0:
182,192,80076,1,10,2:1:0:0:
36,192,80076,128,0,80349:2:3:0:0:
256,192,80349,1,8,2:1:0:0:
402,192,80485,128,0,80894:2:3:0:0:
182,192,80621,1,2,2:1:0:0:
475,192,80621,128,0,80894:2:3:0:0:
182,192,80758,1,2,2:1:0:0:
256,192,80894,1,8,2:1:0:0:
109,192,81031,128,0,81440:2:3:0:0:
329,192,81167,1,2,2:1:0:0:
36,192,81167,128,0,81440:2:3:0:0:
329,192,81303,1,2,2:1:0:0:
256,192,81440,1,8,2:1:0:0:
109,192,81576,128,0,81644:2:3:0:0:
329,192,81576,1,2,2:1:0:0:
36,192,81712,128,0,81781:2:3:0:0:
329,192,81849,1,2,2:1:0:0:
109,192,81849,128,0,81917:2:3:0:0:
182,192,81985,128,0,82053:2:3:0:0:
256,192,81985,1,8,2:1:0:0:
402,192,82121,128,0,82531:2:3:0:0:
329,192,82258,1,4,2:2:0:0:
36,192,82258,1,8,2:1:0:0:
182,192,82258,1,2,2:1:0:0:
475,192,82258,128,0,82531:2:3:0:0:
109,192,82531,1,8,2:1:0:0:
402,192,82667,128,0,82735:2:3:0:0:
475,192,82803,128,0,82871:2:3:0:0:
182,192,82803,1,2,2:1:0:0:
182,192,82940,1,2,2:1:0:0:
402,192,82940,128,0,83008:2:3:0:0:
329,192,83076,128,0,83144:2:3:0:0:
109,192,83076,1,8,2:1:0:0:
256,192,83212,128,0,83281:2:3:0:0:
475,192,83349,128,0,83621:2:3:0:0:
182,192,83349,1,2,2:1:0:0:
182,192,83485,1,2,2:1:0:0:
109,192,83621,1,8,2:1:0:0:
402,192,83621,128,0,83894:2:3:0:0:
182,192,83758,1,2,2:1:0:0:
329,192,83894,128,0,84167:2:3:0:0:
182,192,84031,1,2,2:1:0:0:
109,192,84167,1,8,2:1:0:0:
256,192,84167,128,0,84440:2:3:0:0:
36,192,84440,1,4,2:2:0:0:
475,192,84440,1,10,2:1:0:0:
329,192,84440,128,0,84712:2:3:0:0:
182,192,84712,1,8,2:1:0:0:
36,192,84849,128,0,85258:2:3:0:0:
402,192,84985,1,2,2:1:0:0:
109,192,84985,128,0,85258:2:3:0:0:
402,192,85121,1,2,2:1:0:0:
329,192,85258,1,8,2:1:0:0:
475,192,85394,128,0,85803:2:3:0:0:
402,192,85531,128,0,85803:2:3:0:0:
109,192,85531,1,2,2:1:0:0:
109,192,85667,1,2,2:1:0:0:
182,192,85803,1,8,2:1:0:0:
109,192,85940,1,2,2:1:0:0:
475,192,85940,128,0,86008:2:3:0:0:
402,192,86076,128,0,86144:2:3:0:0:
329,192,86212,128,0,86281:2:3:0:0:
109,192,86212,1,2,2:1:0:0:
182,192,86349,1,8,2:1:0:0:
402,192,86349,128,0,86417:2:3:0:0:
329,192,86485,128,0,86553:2:3:0:0:
109,192,86621,128,0,86894:2:3:0:0:
475,192,86621,128,0,86962:2:3:0:0:
182,192,86621,1,4,2:1:0:0:
36,192,86621,128,0,86894:2:3:0:0:
402,192,87031,128,0,87099:2:3:0:0:
109,192,87167,128,0,87371:2:3:0:0:
329,192,87167,128,0,87371:2:3:0:0:
182,192,87167,1,4,2:1:0:0:
36,192,87167,128,0,87371:2:3:0:0:
256,192,87440,128,0,87508:2:3:0:0:
329,192,87576,128,0,87644:2:3:0:0:
36,192,87712,1,0,3:3:0:0:
402,192,87712,1,4,2:2:0:0:
475,192,87712,128,0,88531:2:3:0:0:
109,192,87781,1,0,3:3:0:0:
182,192,87849,1,0,3:3:0:0:
109,192,87917,1,0,3:3:0:0:
36,192,87985,1,0,3:3:0:0:
109,192,88053,1,0,3:3:0:0:
329,192,88121,1,10,2:1:0:0:
182,192,88121,1,0,3:3:0:0:
109,192,88190,1,0,3:3:0:0:
36,192,88258,1,0,3:3:0:0:
109,192,88326,1,0,3:3:0:0:
182,192,88394,1,0,3:3:0:0:
109,192,88462,1,0,3:3:0:0:
329,192,88531,1,10,2:1:0:0:
36,192,88531,1,0,3:3:0:0:
109,192,88599,1,0,3:3:0:0:
182,192,88667,1,0,3:3:0:0:
109,192,88735,1,0,3:3:0:0:
475,192,88803,128,8,89076:2:1:0:0:
329,192,88803,128,2,89076:2:1:0:0:
182,192,88803,1,4,2:2:0:0:
36,192,88803,1,0,2:3:0:0:
182,192,89076,1,0,2:3:0:0:
402,192,89212,128,0,89621:2:3:0:0:
329,192,89349,1,2,2:1:0:0:
475,192,89349,128,0,89621:2:3:0:0:
329,192,89485,1,2,2:1:0:0:
182,192,89621,1,8,2:1:0:0:
329,192,89758,1,2,2:1:0:0:
109,192,89758,128,0,90167:2:3:0:0:
36,192,89894,128,0,90167:2:3:0:0:
182,192,89894,1,8,2:1:0:0:
329,192,90031,1,2,2:1:0:0:
182,192,90167,1,8,2:1:0:0:
402,192,90303,128,0,90440:2:3:0:0:
329,192,90440,128,0,90576:2:3:0:0:
36,192,90440,1,2,2:1:0:0:
36,192,90576,1,2,2:1:0:0:
402,192,90610,1,0,2:3:0:0:
475,192,90644,1,0,2:3:0:0:
402,192,90678,1,0,2:3:0:0:
109,192,90712,1,8,2:1:0:0:
329,192,90712,128,0,90781:2:3:0:0:
402,192,90781,128,0,90985:2:3:0:0:
475,192,90985,1,4,2:2:0:0:
182,192,90985,128,0,91258:2:3:0:0:
36,192,90985,128,0,91258:2:3:0:0:
329,192,90985,1,8,2:1:0:0:
329,192,91258,1,8,2:1:0:0:
109,192,91394,128,0,91940:2:3:0:0:
182,192,91531,1,2,2:1:0:0:
36,192,91531,128,0,91940:2:3:0:0:
182,192,91667,1,2,2:1:0:0:
329,192,91803,1,8,2:1:0:0:
182,192,91940,1,2,2:1:0:0:
329,192,92076,1,8,2:1:0:0:
402,192,92076,128,0,92349:2:3:0:0:
182,192,92212,1,2,2:1:0:0:
475,192,92349,128,0,92621:2:3:0:0:
329,192,92349,1,8,2:1:0:0:
36,192,92621,1,2,2:1:0:0:
402,192,92621,128,0,92894:2:3:0:0:
36,192,92758,1,2,2:1:0:0:
256,192,92894,128,0,93167:2:3:0:0:
109,192,92894,1,8,2:1:0:0:
182,192,93167,1,4,2:2:0:0:
109,192,93167,128,0,93440:2:3:0:0:
402,192,93167,128,0,93440:2:3:0:0:
329,192,93167,1,8,2:1:0:0:
329,192,93440,1,8,2:1:0:0:
109,192,93576,128,0,93985:2:3:0:0:
36,192,93712,128,0,93985:2:3:0:0:
182,192,93712,1,2,2:1:0:0:
182,192,93849,1,2,2:1:0:0:
329,192,93985,1,8,2:1:0:0:
182,192,94121,1,2,2:1:0:0:
402,192,94121,128,0,94531:2:3:0:0:
475,192,94258,128,0,94531:2:3:0:0:
329,192,94258,1,8,2:1:0:0:
182,192,94394,1,2,2:1:0:0:
329,192,94531,1,8,2:1:0:0:
109,192,94667,128,0,94803:2:3:0:0:
182,192,94803,128,0,94940:2:3:0:0:
475,192,94803,1,2,2:3:0:0:
475,192,94940,1,2,2:3:0:0:
109,192,94974,1,0,2:3:0:0:
36,192,95008,1,0,2:3:0:0:
109,192,95042,1,0,2:3:0:0:
402,192,95076,1,8,2:1:0:0:
182,192,95076,128,0,95144:2:3:0:0:
109,192,95144,128,0,95349:2:3:0:0:
329,192,95349,128,0,95621:2:3:0:0:
36,192,95349,1,4,2:2:0:0:
182,192,95349,128,0,95621:2:3:0:0:
475,192,95349,1,2,2:1:0:0:
402,192,95621,1,8,2:1:0:0:
256,192,95758,128,0,95894:2:3:0:0:
329,192,95894,128,0,96167:2:3:0:0:
475,192,95894,1,2,2:1:0:0:
475,192,96031,1,2,2:1:0:0:
402,192,96167,1,8,2:1:0:0:
256,192,96167,128,0,96303:2:3:0:0:
182,192,96303,128,0,96440:2:3:0:0:
475,192,96303,1,2,2:1:0:0:
109,192,96440,128,0,96985:2:3:0:0:
36,192,96440,128,0,97258:2:3:0:0:
402,192,96440,1,8,2:1:0:0:
475,192,96576,1,2,2:1:0:0:
402,192,96712,1,8,2:1:0:0:
475,192,96985,1,2,2:1:0:0:
329,192,97258,1,0,3:3:0:0:
402,192,97326,1,0,3:3:0:0:
329,192,97394,1,0,3:3:0:0:
402,192,97462,1,0,3:3:0:0:
36,192,97531,128,0,97803:2:3:0:0:
475,192,97531,128,0,97803:2:3:0:0:
182,192,97531,1,4,2:3:0:0:
182,192,97803,1,4,2:3:0:0:
475,192,97940,128,0,98485:2:3:0:0:
109,192,97940,1,4,2:3:0:0:
256,192,98076,128,0,98485:2:3:0:0:
182,192,98076,1,4,2:3:0:0:
329,192,98212,128,0,98485:2:3:0:0:
109,192,98212,1,4,2:3:0:0:
182,192,98349,1,4,2:3:0:0:
36,192,98349,1,0,1:3:0:0:
402,192,98485,128,0,98894:2:3:0:0:
182,192,98621,1,4,2:1:0:0:
36,192,98621,1,2,2:2:0:0:
109,192,98758,1,8,2:2:0:0:
475,192,98894,128,0,99167:2:3:0:0:
109,192,98894,1,8,2:2:0:0:
182,192,99031,1,4,2:1:0:0:
36,192,99031,1,2,2:2:0:0:
109,192,99167,1,8,2:2:0:0:
402,192,99167,128,0,99440:2:3:0:0:
109,192,99303,1,8,2:2:0:0:
36,192,99440,1,2,2:2:0:0:
256,192,99440,128,0,99712:2:3:0:0:
182,192,99440,1,4,2:1:0:0:
475,192,99712,128,0,100121:2:3:0:0:
402,192,99712,128,0,99985:2:3:0:0:
36,192,99712,1,10,2:1:0:0:
182,192,99712,1,4,2:2:0:0:
329,192,99985,128,0,100121:2:3:0:0:
256,192,100121,128,0,100803:2:3:0:0:
109,192,100258,1,8,2:1:0:0:
36,192,100394,1,2,2:1:0:0:
109,192,100531,1,8,2:1:0:0:
475,192,100803,128,0,101212:2:3:0:0:
36,192,100803,1,2,2:1:0:0:
36,192,100940,1,2,2:1:0:0:
109,192,101076,1,8,2:1:0:0:
329,192,101212,128,0,101894:2:3:0:0:
36,192,101212,1,2,2:1:0:0:
36,192,101485,1,2,2:1:0:0:
109,192,101621,1,8,2:1:0:0:
36,192,101894,1,2,2:1:0:0:
402,192,101894,128,0,102167:2:3:0:0:
475,192,102167,128,0,103667:2:3:0:0:
329,192,102303,128,0,102576:2:3:0:0:
182,192,102303,1,0,3:3:0:0:
109,192,102440,1,8,2:1:0:0:
256,192,102576,128,0,102712:2:3:0:0:
36,192,102576,1,2,2:1:0:0:
182,192,102712,1,0,3:3:0:0:
402,192,102712,128,0,102849:2:3:0:0:
109,192,102712,1,8,2:1:0:0:
329,192,102849,128,0,102985:2:3:0:0:
36,192,102985,1,2,2:1:0:0:
256,192,102985,128,0,103258:2:3:0:0:
36,192,103121,1,2,2:1:0:0:
182,192,103258,1,0,1:3:0:0:
109,192,103258,1,8,2:1:0:0:
329,192,103258,128,0,103394:2:3:0:0:
182,192,103394,1,0,1:3:0:0:
36,192,103394,1,2,2:1:0:0:
256,192,103394,128,0,103667:2:3:0:0:
182,192,103531,1,0,1:3:0:0:
329,192,103667,128,0,103803:2:3:0:0:
36,192,103667,1,2,2:1:0:0:
182,192,103667,1,0,1:3:0:0:
182,192,103803,1,0,1:3:0:0:
109,192,103803,1,8,2:1:0:0:
402,192,103803,128,0,104076:2:3:0:0:
475,192,104076,1,8,2:1:0:0:
329,192,104076,1,2,2:1:0:0:
109,192,104076,128,0,104349:2:3:0:0:
36,192,104076,128,0,104485:2:3:0:0:
182,192,104349,128,0,104485:2:3:0:0:
256,192,104485,128,0,105167:2:3:0:0:
402,192,104621,1,8,2:1:0:0:
475,192,104758,1,2,2:1:0:0:
402,192,104894,1,8,2:1:0:0:
475,192,105167,1,2,2:1:0:0:
36,192,105167,128,0,105576:2:3:0:0:
475,192,105303,1,2,2:1:0:0:
402,192,105440,1,8,2:1:0:0:
475,192,105576,1,2,2:1:0:0:
182,192,105576,128,0,106258:2:3:0:0:
475,192,105849,1,2,2:1:0:0:
402,192,105985,1,8,2:1:0:0:
109,192,106258,128,0,106531:2:3:0:0:
475,192,106258,1,2,2:1:0:0:
36,192,106531,128,0,108031:2:3:0:0:
329,192,106667,1,0,3:3:0:0:
182,192,106667,128,0,106940:2:3:0:0:
402,192,106803,1,8,2:1:0:0:
475,192,106940,1,2,2:1:0:0:
256,192,106940,128,0,107076:2:3:0:0:
329,192,107076,1,0,3:3:0:0:
109,192,107076,128,0,107212:2:3:0:0:
402,192,107076,1,8,2:1:0:0:
182,192,107212,128,0,107349:2:3:0:0:
475,192,107349,1,10,2:3:0:0:
256,192,107349,128,0,107621:2:3:0:0:
329,192,107349,1,0,3:3:0:0:
402,192,107417,1,0,3:3:0:0:
329,192,107485,1,0,3:3:0:0:
402,192,107553,1,0,3:3:0:0:
182,192,107621,128,0,107758:2:3:0:0:
329,192,107621,1,0,3:3:0:0:
402,192,107690,1,0,3:3:0:0:
256,192,107758,128,0,108031:2:3:0:0:
329,192,107758,1,0,3:3:0:0:
475,192,107758,1,10,2:3:0:0:
402,192,107826,1,0,3:3:0:0:
329,192,107894,1,0,3:3:0:0:
402,192,107962,1,0,3:3:0:0:
182,192,108031,128,0,108167:2:3:0:0:
329,192,108031,1,0,3:3:0:0:
402,192,108099,1,0,3:3:0:0:
329,192,108167,1,0,3:3:0:0:
109,192,108167,128,0,108440:2:3:0:0:
256,192,108167,1,4,2:1:0:0:
475,192,108167,1,10,2:3:0:0:
36,192,108440,1,2,2:1:0:0:
182,192,108440,1,4,2:2:0:0:
475,192,108440,128,0,108849:2:3:0:0:
402,192,108440,128,0,108712:2:3:0:0:
329,192,108712,128,0,108849:2:3:0:0:
256,192,108849,128,0,109531:2:3:0:0:
109,192,108985,1,8,2:1:0:0:
36,192,109121,1,2,2:1:0:0:
109,192,109258,1,8,2:1:0:0:
36,192,109531,1,2,2:1:0:0:
475,192,109531,128,0,109940:2:3:0:0:
36,192,109667,1,2,2:1:0:0:
109,192,109803,1,8,2:1:0:0:
36,192,109940,1,2,2:1:0:0:
329,192,109940,128,0,110621:2:3:0:0:
36,192,110212,1,2,2:1:0:0:
109,192,110349,1,8,2:1:0:0:
402,192,110621,128,0,110894:2:3:0:0:
36,192,110621,1,2,2:1:0:0:
475,192,110894,128,0,112394:2:3:0:0:
182,192,111031,1,0,3:3:0:0:
329,192,111031,128,0,111303:2:3:0:0:
109,192,111167,1,8,2:1:0:0:
36,192,111303,1,2,2:1:0:0:
256,192,111303,128,0,111440:2:3:0:0:
109,192,111440,1,8,2:1:0:0:
402,192,111440,128,0,111576:2:3:0:0:
182,192,111440,1,0,3:3:0:0:
329,192,111576,128,0,111712:2:3:0:0:
256,192,111712,128,0,111985:2:3:0:0:
36,192,111712,1,2,2:1:0:0:
36,192,111849,1,2,2:1:0:0:
329,192,111985,128,0,112121:2:3:0:0:
109,192,111985,1,8,2:1:0:0:
182,192,111985,1,0,1:3:0:0:
256,192,112121,128,0,112394:2:3:0:0:
36,192,112121,1,2,2:1:0:0:
182,192,112121,1,0,1:3:0:0:
182,192,112258,1,0,1:3:0:0:
182,192,112394,1,0,1:3:0:0:
36,192,112394,1,2,2:1:0:0:
329,192,112394,128,0,112531:2:3:0:0:
402,192,112531,128,0,112803:2:3:0:0:
109,192,112531,1,8,2:1:0:0:
182,192,112531,1,0,1:3:0:0:
109,192,112803,128,0,113076:2:3:0:0:
36,192,112803,128,0,113212:2:3:0:0:
475,192,112803,1,2,2:1:0:0:
329,192,112803,1,8,2:1:0:0:
182,192,113076,128,0,113212:2:3:0:0:
256,192,113212,128,0,113894:2:3:0:0:
402,192,113349,1,8,2:1:0:0:
475,192,113485,1,2,2:1:0:0:
402,192,113621,1,8,2:1:0:0:
36,192,113894,128,0,114303:2:3:0:0:
475,192,113894,1,2,2:1:0:0:
475,192,114031,1,2,2:1:0:0:
402,192,114167,1,8,2:1:0:0:
182,192,114303,128,0,114985:2:3:0:0:
475,192,114303,1,2,2:1:0:0:
475,192,114576,1,2,2:1:0:0:
402,192,114712,1,8,2:1:0:0:
475,192,114985,1,2,2:1:0:0:
109,192,114985,128,0,115258:2:3:0:0:
36,192,115258,128,0,116758:2:3:0:0:
182,192,115394,128,0,115667:2:3:0:0:
329,192,115394,1,0,3:3:0:0:
402,192,115531,1,8,2:1:0:0:
256,192,115667,128,0,115803:2:3:0:0:
475,192,115667,1,2,2:1:0:0:
402,192,115803,1,8,2:1:0:0:
109,192,115803,128,0,115940:2:3:0:0:
329,192,115803,1,0,3:3:0:0:
182,192,115940,128,0,116076:2:3:0:0:
329,192,116076,1,0,3:3:0:0:
256,192,116076,128,0,116349:2:3:0:0:
475,192,116076,1,10,2:1:0:0:
402,192,116144,1,0,3:3:0:0:
329,192,116212,1,0,3:3:0:0:
402,192,116281,1,0,3:3:0:0:
329,192,116349,1,0,3:3:0:0:
182,192,116349,128,0,116758:2:3:0:0:
402,192,116417,1,0,3:3:0:0:
475,192,116485,1,10,2:1:0:0:
256,192,116485,1,4,2:1:0:0:
329,192,116485,1,0,3:3:0:0:
402,192,117031,128,0,117440:2:3:0:0:
475,192,117167,128,0,117440:2:3:0:0:
182,192,117167,1,4,2:3:0:0:
36,192,117167,1,4,2:2:0:0:
182,192,117576,128,0,117985:2:3:0:0:
329,192,117712,1,10,2:3:0:0:
109,192,117712,128,0,117985:2:3:0:0:
475,192,118121,128,0,118531:2:3:0:0:
36,192,118121,1,4,2:3:0:0:
329,192,118258,128,0,118531:2:3:0:0:
36,192,118394,1,4,2:3:0:0:
402,192,118531,1,0,2:3:0:0:
36,192,118531,1,4,2:3:0:0:
402,192,118667,128,0,118803:2:3:0:0:
182,192,118803,1,10,2:3:0:0:
475,192,118803,128,0,118940:2:3:0:0:
402,192,118940,128,0,119076:2:3:0:0:
329,192,119076,128,0,119212:2:3:0:0:
402,192,119212,128,0,119621:2:3:0:0:
329,192,119349,128,0,119621:2:3:0:0:
36,192,119349,1,4,2:3:0:0:
475,192,119621,128,0,119894:2:3:0:0:
402,192,119894,128,0,120167:2:3:0:0:
182,192,119894,1,10,2:3:0:0:
329,192,120167,128,0,120303:2:3:0:0:
402,192,120303,128,0,120440:2:3:0:0:
36,192,120303,1,4,2:3:0:0:
475,192,120440,128,0,120712:2:3:0:0:
36,192,120576,1,4,2:3:0:0:
402,192,120712,128,0,120985:2:3:0:0:
36,192,120712,1,4,2:3:0:0:
329,192,120985,128,0,121258:2:3:0:0:
182,192,120985,1,10,2:3:0:0:
109,192,121121,1,8,2:1:0:0:
402,192,121258,128,0,121531:2:3:0:0:
109,192,121258,1,8,2:1:0:0:
109,192,121394,1,8,2:1:0:0:
329,192,121531,128,0,121803:2:3:0:0:
109,192,121531,1,8,2:1:0:0:
475,192,121531,1,4,2:2:0:0:
36,192,121940,128,0,122349:2:3:0:0:
109,192,122076,128,0,122349:2:3:0:0:
329,192,122076,1,10,2:3:0:0:
402,192,122485,128,0,122894:2:3:0:0:
182,192,122485,1,4,2:3:0:0:
329,192,122621,128,0,122894:2:3:0:0:
182,192,122758,1,4,2:3:0:0:
182,192,122894,1,4,2:3:0:0:
109,192,123031,128,0,123167:2:3:0:0:
36,192,123167,128,0,123303:2:3:0:0:
329,192,123167,1,10,2:3:0:0:
109,192,123303,128,0,123440:2:3:0:0:
182,192,123440,128,0,123576:2:3:0:0:
36,192,123576,128,0,123985:2:3:0:0:
109,192,123712,128,0,123985:2:3:0:0:
329,192,123712,1,4,2:1:0:0:
109,192,124121,128,0,124394:2:3:0:0:
256,192,124394,1,0,2:3:0:0:
182,192,124531,1,0,2:3:0:0:
109,192,124667,1,0,2:3:0:0:
475,192,124803,128,0,125621:2:3:0:0:
36,192,124803,128,0,125621:2:3:0:0:
109,192,124803,1,10,2:1:0:0:
182,192,124940,1,10,2:1:0:0:
109,192,125076,1,10,2:1:0:0:
182,192,125212,1,10,2:1:0:0:
402,192,125349,1,0,3:3:0:0:
329,192,125417,1,0,3:3:0:0:
402,192,125485,1,0,3:3:0:0:
329,192,125553,1,0,3:3:0:0:
402,192,125621,1,0,3:3:0:0:
109,192,125621,1,10,2:3:0:0:
402,192,125758,128,0,126167:2:3:0:0:
475,192,125894,128,0,126167:2:3:0:0:
256,192,126167,1,8,2:1:0:0:
109,192,126303,128,0,126712:2:3:0:0:
36,192,126440,128,0,126712:2:3:0:0:
329,192,126440,1,2,2:1:0:0:
329,192,126576,1,2,2:1:0:0:
256,192,126712,1,8,2:1:0:0:
402,192,126849,128,0,127258:2:3:0:0:
475,192,126985,128,0,127258:2:3:0:0:
182,192,126985,1,2,2:1:0:0:
182,192,127121,1,2,2:1:0:0:
256,192,127258,1,8,2:1:0:0:
182,192,127394,1,2,2:1:0:0:
402,192,127394,128,0,127462:2:3:0:0:
475,192,127531,128,0,127599:2:3:0:0:
36,192,127531,1,0,3:3:0:0:
109,192,127599,1,0,3:3:0:0:
402,192,127667,128,0,127735:2:3:0:0:
182,192,127667,1,2,2:1:0:0:
36,192,127667,1,0,3:3:0:0:
109,192,127735,1,0,3:3:0:0:
256,192,127803,1,8,2:1:0:0:
329,192,127803,128,0,127871:2:3:0:0:
36,192,127803,1,0,3:3:0:0:
109,192,127940,128,0,128349:2:3:0:0:
36,192,128076,128,0,128349:2:3:0:0:
402,192,128349,1,8,2:1:0:0:
109,192,128485,128,0,128553:2:3:0:0:
329,192,128621,1,2,2:1:0:0:
36,192,128621,128,0,128690:2:3:0:0:
109,192,128758,128,0,128826:2:3:0:0:
329,192,128758,1,2,2:1:0:0:
182,192,128894,128,0,128962:2:3:0:0:
256,192,129031,128,0,129099:2:3:0:0:
329,192,129167,1,2,2:1:0:0:
36,192,129167,128,0,129440:2:3:0:0:
329,192,129303,1,2,2:1:0:0:
109,192,129440,128,0,129712:2:3:0:0:
402,192,129440,1,8,2:1:0:0:
329,192,129576,1,2,2:1:0:0:
182,192,129712,128,0,129985:2:3:0:0:
36,192,129712,1,0,3:3:0:0:
475,192,129781,1,0,3:3:0:0:
329,192,129849,1,2,2:1:0:0:
36,192,129849,1,0,3:3:0:0:
475,192,129917,1,0,3:3:0:0:
256,192,129985,128,0,130258:2:3:0:0:
402,192,129985,1,8,2:1:0:0:
36,192,129985,1,0,3:3:0:0:
182,192,130258,128,0,130531:2:3:0:0:
36,192,130258,1,4,2:2:0:0:
475,192,130258,1,10,2:1:0:0:
329,192,130531,1,0,2:3:0:0:
475,192,130667,128,0,131076:2:3:0:0:
402,192,130803,128,0,131076:2:3:0:0:
109,192,130803,1,2,2:1:0:0:
109,192,130940,1,2,2:1:0:0:
182,192,131076,1,8,2:1:0:0:
36,192,131212,128,0,131621:2:3:0:0:
402,192,131349,1,2,2:1:0:0:
109,192,131349,128,0,131621:2:3:0:0:
402,192,131485,1,2,2:1:0:0:
329,192,131621,1,8,2:1:0:0:
36,192,131758,128,0,131826:2:3:0:0:
402,192,131758,1,2,2:1:0:0:
109,192,131894,128,0,131962:2:3:0:0:
402,192,132031,1,2,2:1:0:0:
182,192,132031,128,0,132099:2:3:0:0:
109,192,132167,128,0,132235:2:3:0:0:
329,192,132167,1,8,2:1:0:0:
475,192,132167,1,0,3:3:0:0:
256,192,132235,1,0,3:3:0:0:
182,192,132303,128,0,132371:2:3:0:0:
475,192,132303,1,0,3:3:0:0:
256,192,132371,1,0,3:3:0:0:
402,192,132440,1,10,2:1:0:0:
36,192,132440,128,4,132644:2:2:0:0:
475,192,132440,1,0,3:3:0:0:
109,192,132712,128,0,132781:2:3:0:0:
329,192,132712,1,8,2:1:0:0:
182,192,132849,128,0,133121:2:3:0:0:
402,192,132985,1,2,2:1:0:0:
402,192,133121,1,2,2:1:0:0:
329,192,133258,1,8,2:1:0:0:
256,192,133258,128,0,133326:2:3:0:0:
182,192,133394,128,0,133462:2:3:0:0:
36,192,133531,128,0,134349:2:3:0:0:
109,192,133531,1,0,2:3:0:0:
475,192,133531,1,0,3:3:0:0:
402,192,133599,1,0,3:3:0:0:
329,192,133667,1,0,3:3:0:0:
402,192,133735,1,0,3:3:0:0:
475,192,133803,1,0,3:3:0:0:
402,192,133871,1,0,3:3:0:0:
329,192,133940,1,0,3:3:0:0:
182,192,133940,1,10,2:1:0:0:
402,192,134008,1,0,3:3:0:0:
475,192,134076,1,0,3:3:0:0:
402,192,134144,1,0,3:3:0:0:
329,192,134212,1,0,3:3:0:0:
402,192,134281,1,0,3:3:0:0:
475,192,134349,1,0,3:3:0:0:
182,192,134349,1,10,2:1:0:0:
402,192,134417,1,0,3:3:0:0:
329,192,134485,1,0,3:3:0:0:
109,192,134485,128,0,134894:2:3:0:0:
402,192,134553,1,0,3:3:0:0:
36,192,134621,128,0,134894:2:3:0:0:
329,192,134621,1,10,2:1:0:0:
475,192,134621,1,0,3:3:0:0:
256,192,134621,1,4,2:2:0:0:
256,192,134894,1,0,2:3:0:0:
402,192,135031,128,0,135440:2:3:0:0:
329,192,135031,1,4,2:1:0:0:
475,192,135167,128,0,135440:2:3:0:0:
182,192,135167,1,2,2:1:0:0:
182,192,135303,1,2,2:1:0:0:
329,192,135303,1,4,2:1:0:0:
256,192,135440,1,8,2:1:0:0:
109,192,135576,128,0,135985:2:3:0:0:
182,192,135576,1,4,2:1:0:0:
36,192,135712,128,0,135985:2:3:0:0:
329,192,135712,1,2,2:1:0:0:
329,192,135849,1,2,2:1:0:0:
182,192,135849,1,4,2:1:0:0:
256,192,135985,1,8,2:1:0:0:
329,192,136121,1,4,2:1:0:0:
109,192,136121,128,0,136190:2:3:0:0:
475,192,136121,1,2,2:1:0:0:
36,192,136258,128,0,136326:2:3:0:0:
329,192,136394,1,4,2:1:0:0:
109,192,136394,128,0,136462:2:3:0:0:
475,192,136394,1,2,2:1:0:0:
182,192,136531,128,0,136599:2:3:0:0:
256,192,136531,1,8,2:1:0:0:
402,192,136667,128,0,137076:2:3:0:0:
329,192,136667,1,4,2:1:0:0:
475,192,136803,128,0,137076:2:3:0:0:
182,192,136803,1,4,2:2:0:0:
256,192,136803,1,8,2:1:0:0:
36,192,136803,1,2,2:1:0:0:
109,192,137076,1,8,2:1:0:0:
402,192,137212,128,0,137281:2:3:0:0:
36,192,137212,1,4,2:1:0:0:
475,192,137349,128,0,137417:2:3:0:0:
182,192,137349,1,2,2:1:0:0:
182,192,137485,1,2,2:1:0:0:
402,192,137485,128,0,137553:2:3:0:0:
36,192,137485,1,4,2:1:0:0:
329,192,137621,128,0,137690:2:3:0:0:
109,192,137621,1,8,2:1:0:0:
256,192,137758,128,0,137826:2:3:0:0:
36,192,137758,1,4,2:1:0:0:
475,192,137894,128,0,138167:2:3:0:0:
182,192,137894,1,2,2:1:0:0:
182,192,138031,1,2,2:1:0:0:
36,192,138031,1,4,2:1:0:0:
109,192,138167,1,8,2:1:0:0:
402,192,138167,128,0,138440:2:3:0:0:
182,192,138303,1,2,2:1:0:0:
36,192,138303,1,4,2:1:0:0:
329,192,138440,128,0,138712:2:3:0:0:
182,192,138576,1,2,2:1:0:0:
36,192,138576,1,4,2:1:0:0:
256,192,138712,128,0,138985:2:3:0:0:
109,192,138712,1,8,2:1:0:0:
36,192,138849,1,4,2:1:0:0:
475,192,138849,1,0,3:3:0:0:
402,192,138917,1,0,3:3:0:0:
36,192,138985,1,4,2:2:0:0:
329,192,138985,128,0,139258:2:3:0:0:
475,192,138985,1,0,3:3:0:0:
182,192,139258,1,8,2:1:0:0:
36,192,139394,128,0,139803:2:3:0:0:
256,192,139394,1,4,2:1:0:0:
109,192,139531,128,0,139803:2:3:0:0:
402,192,139531,1,2,2:1:0:0:
402,192,139667,1,2,2:1:0:0:
256,192,139667,1,4,2:1:0:0:
329,192,139803,1,8,2:1:0:0:
475,192,139940,128,0,140349:2:3:0:0:
256,192,139940,1,4,2:1:0:0:
402,192,140076,128,0,140349:2:3:0:0:
109,192,140076,1,2,2:1:0:0:
109,192,140212,1,2,2:1:0:0:
256,192,140212,1,4,2:1:0:0:
182,192,140349,1,8,2:1:0:0:
109,192,140485,1,2,2:1:0:0:
475,192,140485,128,0,140553:2:3:0:0:
256,192,140485,1,4,2:1:0:0:
402,192,140621,128,0,140690:2:3:0:0:
109,192,140758,1,2,2:1:0:0:
329,192,140758,128,0,140826:2:3:0:0:
182,192,140894,1,8,2:1:0:0:
402,192,140894,128,0,140962:2:3:0:0:
256,192,140894,1,4,2:1:0:0:
329,192,141031,128,0,141099:2:3:0:0:
475,192,141167,128,0,141371:2:3:0:0:
109,192,141167,1,2,2:1:0:0:
256,192,141167,1,4,2:1:0:0:
402,192,141440,128,0,141508:2:3:0:0:
182,192,141440,1,8,2:1:0:0:
329,192,141576,128,0,141849:2:3:0:0:
109,192,141712,1,2,2:1:0:0:
256,192,141712,1,4,2:1:0:0:
109,192,141849,1,2,2:1:0:0:
256,192,141985,128,0,142053:2:3:0:0:
182,192,141985,1,8,2:1:0:0:
329,192,142121,128,0,142190:2:3:0:0:
402,192,142258,1,10,2:1:0:0:
36,192,142258,1,0,3:3:0:0:
475,192,142258,128,0,143076:2:3:0:0:
109,192,142326,1,0,3:3:0:0:
182,192,142394,1,0,3:3:0:0:
109,192,142462,1,0,3:3:0:0:
36,192,142531,1,0,3:3:0:0:
109,192,142599,1,0,3:3:0:0:
329,192,142667,1,10,2:1:0:0:
182,192,142667,1,0,3:3:0:0:
109,192,142735,1,0,3:3:0:0:
36,192,142803,1,0,3:3:0:0:
109,192,142871,1,0,3:3:0:0:
182,192,142940,1,0,3:3:0:0:
109,192,143008,1,0,3:3:0:0:
329,192,143076,1,10,2:1:0:0:
36,192,143076,1,0,3:3:0:0:
182,192,143349,128,0,143621:2:3:0:0:
329,192,143553,1,8,2:3:0:0:
109,192,143621,128,0,143894:2:3:0:0:
402,192,143621,1,2,2:3:0:0:
329,192,143758,1,8,2:3:0:0:
182,192,143894,128,0,144303:2:3:0:0:
402,192,143894,1,2,2:3:0:0:
36,192,144031,128,0,144303:2:3:0:0:
329,192,144031,1,8,2:3:0:0:
402,192,144167,1,2,2:3:0:0:
329,192,144303,128,0,144576:2:3:0:0:
475,192,144303,1,8,2:3:0:0:
402,192,144440,1,2,2:3:0:0:
256,192,144576,128,0,144712:2:3:0:0:
36,192,144576,1,8,2:3:0:0:
109,192,144712,1,2,2:3:0:0:
182,192,144712,128,0,144849:2:3:0:0:
36,192,144849,1,8,2:3:0:0:
402,192,144849,128,0,145258:2:3:0:0:
329,192,144849,128,0,145121:2:3:0:0:
109,192,144985,1,2,2:3:0:0:
36,192,145121,1,8,2:3:0:0:
182,192,145258,128,0,145531:2:3:0:0:
109,192,145258,1,2,2:3:0:0:
36,192,145394,1,8,2:3:0:0:
256,192,145394,1,4,2:3:0:0:
475,192,145531,128,0,145803:2:3:0:0:
256,192,145531,1,4,2:3:0:0:
109,192,145531,1,2,2:3:0:0:
109,192,145735,1,8,2:3:0:0:
402,192,145803,128,0,146076:2:3:0:0:
329,192,145803,1,2,2:3:0:0:
109,192,145940,1,8,2:3:0:0:
36,192,146076,128,0,146212:2:3:0:0:
329,192,146076,1,2,2:3:0:0:
182,192,146212,128,0,146485:2:3:0:0:
109,192,146212,1,8,2:3:0:0:
329,192,146349,1,2,2:3:0:0:
256,192,146485,128,0,146758:2:3:0:0:
109,192,146485,1,8,2:3:0:0:
329,192,146621,1,2,2:3:0:0:
182,192,146758,128,0,146894:2:3:0:0:
109,192,146758,1,8,2:3:0:0:
329,192,146894,128,0,147167:2:3:0:0:
36,192,146894,1,2,2:3:0:0:
402,192,147031,1,8,2:3:0:0:
256,192,147167,128,0,147712:2:3:0:0:
182,192,147167,128,0,147303:2:3:0:0:
36,192,147167,1,2,2:3:0:0:
402,192,147303,1,8,2:3:0:0:
109,192,147303,128,0,147440:2:3:0:0:
475,192,147303,1,4,2:3:0:0:
36,192,147440,128,0,147712:2:3:0:0:
329,192,147440,1,2,2:3:0:0:
182,192,147576,1,4,2:3:0:0:
402,192,147576,1,8,2:3:0:0:
182,192,147712,1,4,2:3:0:0:
475,192,147712,1,2,2:3:0:0:
402,192,147917,1,8,2:3:0:0:
182,192,147985,128,0,148121:2:3:0:0:
475,192,147985,1,2,2:3:0:0:
109,192,148121,128,0,148258:2:3:0:0:
402,192,148121,1,8,2:3:0:0:
182,192,148258,128,0,148394:2:3:0:0:
475,192,148258,1,2,2:3:0:0:
36,192,148394,128,0,148667:2:3:0:0:
402,192,148394,1,8,2:3:0:0:
475,192,148531,1,2,2:3:0:0:
329,192,148667,128,0,148940:2:3:0:0:
402,192,148667,1,8,2:3:0:0:
475,192,148803,1,2,2:3:0:0:
256,192,148940,128,0,149212:2:3:0:0:
109,192,148940,1,8,2:3:0:0:
36,192,149076,1,2,2:3:0:0:
329,192,149212,128,0,149485:2:3:0:0:
109,192,149212,1,8,2:3:0:0:
36,192,149349,1,2,2:3:0:0:
402,192,149485,128,0,149894:2:3:0:0:
109,192,149485,128,0,149758:2:3:0:0:
182,192,149485,1,8,2:3:0:0:
36,192,149621,1,2,2:3:0:0:
256,192,149758,1,4,2:3:0:0:
475,192,149758,1,8,2:3:0:0:
182,192,149894,128,0,150167:2:3:0:0:
329,192,149894,128,0,150167:2:3:0:0:
36,192,149894,1,2,2:3:0:0:
256,192,149894,1,4,2:3:0:0:
402,192,150099,1,8,2:3:0:0:
109,192,150167,128,0,150303:2:3:0:0:
475,192,150167,1,2,2:3:0:0:
36,192,150303,128,0,150440:2:3:0:0:
402,192,150303,1,8,2:3:0:0:
182,192,150440,128,0,150576:2:3:0:0:
475,192,150440,1,2,2:3:0:0:
256,192,150576,128,0,150849:2:3:0:0:
402,192,150576,1,8,2:3:0:0:
36,192,150712,1,2,2:3:0:0:
329,192,150849,128,0,151121:2:3:0:0:
109,192,150849,1,8,2:3:0:0:
36,192,150985,1,2,2:3:0:0:
402,192,151121,128,0,151667:2:3:0:0:
109,192,151121,1,8,2:3:0:0:
36,192,151258,1,2,2:3:0:0:
109,192,151394,1,8,2:3:0:0:
109,192,151531,1,8,2:3:0:0:
475,192,152076,128,0,152349:2:3:0:0:
36,192,152076,1,4,2:2:0:0:
182,192,152076,1,10,2:1:0:0:
329,192,152076,128,0,152349:2:3:0:0:
182,192,152349,1,8,2:1:0:0:
402,192,152485,128,0,152894:2:3:0:0:
475,192,152621,128,0,152894:2:3:0:0:
256,192,152621,1,2,2:1:0:0:
256,192,152758,1,2,2:1:0:0:
182,192,152894,1,8,2:1:0:0:
256,192,153031,1,2,2:1:0:0:
109,192,153031,128,0,153440:2:3:0:0:
36,192,153167,128,0,153440:2:3:0:0:
182,192,153167,1,8,2:1:0:0:
256,192,153303,1,2,2:1:0:0:
182,192,153440,1,8,2:1:0:0:
402,192,153576,128,0,153712:2:3:0:0:
36,192,153712,1,2,2:1:0:0:
329,192,153712,128,0,153849:2:3:0:0:
36,192,153849,1,2,2:1:0:0:
402,192,153883,1,0,2:3:0:0:
475,192,153917,1,0,2:3:0:0:
402,192,153951,1,0,2:3:0:0:
329,192,153985,128,0,154053:2:3:0:0:
109,192,153985,1,8,2:1:0:0:
402,192,154053,128,0,154258:2:3:0:0:
475,192,154258,1,4,2:2:0:0:
329,192,154258,1,10,2:1:0:0:
36,192,154258,128,0,154531:2:3:0:0:
182,192,154258,128,0,154531:2:3:0:0:
329,192,154531,1,8,2:1:0:0:
109,192,154667,128,0,155212:2:3:0:0:
36,192,154803,128,0,155212:2:3:0:0:
256,192,154803,1,2,2:1:0:0:
256,192,154940,1,2,2:1:0:0:
329,192,155076,1,8,2:1:0:0:
256,192,155212,1,2,2:1:0:0:
329,192,155349,1,8,2:1:0:0:
402,192,155349,128,0,155621:2:3:0:0:
256,192,155485,1,2,2:1:0:0:
329,192,155621,1,8,2:1:0:0:
475,192,155621,128,0,155894:2:3:0:0:
36,192,155894,1,2,2:1:0:0:
402,192,155894,128,0,156167:2:3:0:0:
36,192,156031,1,2,2:1:0:0:
256,192,156167,128,0,156440:2:3:0:0:
109,192,156167,1,8,2:1:0:0:
329,192,156440,1,10,2:1:0:0:
109,192,156440,128,0,156712:2:3:0:0:
402,192,156440,128,0,156712:2:3:0:0:
182,192,156440,1,4,2:2:0:0:
329,192,156712,1,8,2:1:0:0:
109,192,156849,128,0,157258:2:3:0:0:
256,192,156985,1,2,2:1:0:0:
36,192,156985,128,0,157258:2:3:0:0:
256,192,157121,1,2,2:1:0:0:
329,192,157258,1,8,2:1:0:0:
256,192,157394,1,2,2:1:0:0:
402,192,157394,128,0,157803:2:3:0:0:
329,192,157531,1,8,2:1:0:0:
475,192,157531,128,0,157803:2:3:0:0:
256,192,157667,1,2,2:1:0:0:
329,192,157803,1,8,2:1:0:0:
109,192,157940,128,0,158076:2:3:0:0:
475,192,158076,1,2,2:1:0:0:
182,192,158076,128,0,158212:2:3:0:0:
475,192,158212,1,2,2:1:0:0:
109,192,158246,1,0,2:3:0:0:
36,192,158281,1,0,2:3:0:0:
109,192,158315,1,0,2:3:0:0:
402,192,158349,1,8,2:1:0:0:
182,192,158349,128,0,158417:2:3:0:0:
109,192,158417,128,0,158621:2:3:0:0:
182,192,158621,128,0,158894:2:3:0:0:
329,192,158621,128,0,158894:2:3:0:0:
475,192,158621,1,10,2:1:0:0:
36,192,158621,1,4,2:2:0:0:
402,192,158894,1,8,2:1:0:0:
256,192,159031,128,0,159167:2:3:0:0:
329,192,159167,128,0,159440:2:3:0:0:
475,192,159167,1,2,2:1:0:0:
475,192,159303,1,2,2:1:0:0:
402,192,159440,1,8,2:1:0:0:
256,192,159440,128,0,159576:2:3:0:0:
182,192,159576,128,0,159712:2:3:0:0:
475,192,159576,1,2,2:1:0:0:
36,192,159712,128,0,160531:2:3:0:0:
402,192,159712,1,8,2:1:0:0:
109,192,159712,128,0,160258:2:3:0:0:
475,192,159849,1,2,2:1:0:0:
402,192,159985,1,8,2:1:0:0:
475,192,160258,1,2,2:1:0:0:
329,192,160531,1,0,3:3:0:0:
402,192,160599,1,0,3:3:0:0:
329,192,160667,1,0,3:3:0:0:
402,192,160735,1,0,3:3:0:0:
329,192,160803,128,0,161076:2:3:0:0:
475,192,160803,128,0,161076:2:3:0:0:
36,192,160803,1,4,2:2:0:0:
256,192,160803,1,6,2:1:0:0:
182,192,160940,1,8,2:1:0:0:
256,192,161076,1,6,2:1:0:0:
402,192,161212,128,0,161621:2:3:0:0:
182,192,161212,1,8,2:1:0:0:
256,192,161349,1,6,2:1:0:0:
475,192,161349,128,0,161621:2:3:0:0:
182,192,161485,1,8,2:1:0:0:
256,192,161621,1,6,2:1:0:0:
109,192,161758,128,0,162167:2:3:0:0:
182,192,161758,1,8,2:1:0:0:
36,192,161894,128,0,162167:2:3:0:0:
256,192,161894,1,6,2:1:0:0:
182,192,162031,1,8,2:1:0:0:
256,192,162167,1,6,2:1:0:0:
402,192,162303,128,0,162440:2:3:0:0:
182,192,162303,1,8,2:1:0:0:
329,192,162440,128,0,162576:2:3:0:0:
36,192,162440,1,6,2:1:0:0:
109,192,162576,1,8,2:1:0:0:
402,192,162610,1,0,2:3:0:0:
475,192,162644,1,0,2:3:0:0:
402,192,162678,1,0,2:3:0:0:
329,192,162712,128,0,162781:2:3:0:0:
36,192,162712,1,6,2:1:0:0:
402,192,162781,128,0,162985:2:3:0:0:
109,192,162849,1,8,2:1:0:0:
36,192,162985,128,0,163258:2:3:0:0:
182,192,162985,128,0,163258:2:3:0:0:
475,192,162985,1,4,2:2:0:0:
256,192,162985,1,6,2:1:0:0:
329,192,163121,1,8,2:1:0:0:
256,192,163258,1,6,2:1:0:0:
109,192,163394,128,0,163940:2:3:0:0:
329,192,163394,1,8,2:1:0:0:
256,192,163531,1,6,2:1:0:0:
36,192,163531,128,0,163940:2:3:0:0:
329,192,163667,1,8,2:1:0:0:
256,192,163803,1,6,2:1:0:0:
329,192,163940,1,8,2:1:0:0:
402,192,164076,128,0,164349:2:3:0:0:
256,192,164076,1,6,2:1:0:0:
329,192,164212,1,8,2:1:0:0:
475,192,164349,128,0,164621:2:3:0:0:
256,192,164349,1,6,2:1:0:0:
109,192,164485,1,6,2:1:0:0:
402,192,164621,128,0,164894:2:3:0:0:
36,192,164621,1,8,2:1:0:0:
109,192,164758,1,6,2:1:0:0:
256,192,164894,128,0,165167:2:3:0:0:
36,192,164894,1,8,2:1:0:0:
109,192,165031,1,6,2:1:0:0:
402,192,165167,128,0,165440:2:3:0:0:
109,192,165167,128,0,165440:2:3:0:0:
36,192,165167,1,8,2:1:0:0:
475,192,165167,1,4,2:2:0:0:
329,192,165303,1,8,2:1:0:0:
256,192,165440,1,6,2:1:0:0:
109,192,165576,128,0,165985:2:3:0:0:
329,192,165576,1,8,2:1:0:0:
36,192,165712,128,0,165985:2:3:0:0:
256,192,165712,1,6,2:1:0:0:
329,192,165849,1,8,2:1:0:0:
256,192,165985,1,6,2:1:0:0:
402,192,166121,128,0,166531:2:3:0:0:
329,192,166121,1,8,2:1:0:0:
475,192,166258,128,0,166531:2:3:0:0:
256,192,166258,1,6,2:1:0:0:
329,192,166394,1,8,2:1:0:0:
256,192,166531,1,6,2:1:0:0:
109,192,166667,128,0,166803:2:3:0:0:
329,192,166667,1,8,2:1:0:0:
182,192,166803,128,0,166940:2:3:0:0:
475,192,166803,1,6,2:1:0:0:
402,192,166940,1,8,2:1:0:0:
109,192,166974,1,0,2:3:0:0:
36,192,167008,1,0,2:3:0:0:
109,192,167042,1,0,2:3:0:0:
182,192,167076,128,0,167144:2:3:0:0:
475,192,167076,1,6,2:1:0:0:
109,192,167144,128,0,167349:2:3:0:0:
402,192,167212,1,8,2:1:0:0:
256,192,167349,1,4,2:1:0:0:
182,192,167349,128,0,167621:2:3:0:0:
36,192,167349,128,0,167621:2:3:0:0:
329,192,167349,128,0,167485:2:3:0:0:
402,192,167485,128,0,167621:2:3:0:0:
475,192,167621,128,0,167894:2:3:0:0:
256,192,167758,128,0,167894:2:3:0:0:
329,192,167894,128,0,168167:2:3:0:0:
402,192,167894,128,0,168167:2:3:0:0:
256,192,168167,128,0,168303:2:3:0:0:
475,192,168167,128,0,168303:2:3:0:0:
182,192,168303,128,0,168440:2:3:0:0:
109,192,168440,128,0,168985:2:3:0:0:
36,192,168440,128,0,169258:2:3:0:0:
475,192,168440,128,0,169258:2:3:0:0:
402,192,168440,1,6,2:1:0:0:
256,192,168576,1,4,2:3:0:0:
329,192,168576,1,8,2:1:0:0:
402,192,168712,1,6,2:1:0:0:
329,192,168849,1,8,2:1:0:0:
402,192,168985,1,6,2:1:0:0:
256,192,168985,1,4,2:3:0:0:
329,192,169121,1,8,2:1:0:0:
256,192,169258,1,4,2:3:0:0:
329,192,169394,1,0,3:3:0:0:
402,192,169462,1,0,3:3:0:0:
36,192,169531,128,0,169803:2:3:0:0:
329,192,169531,1,0,3:3:0:0:
329,192,169803,1,4,2:3:0:0:
402,192,169940,1,4,2:3:0:0:
36,192,169940,1,0,2:3:0:0:
329,192,170076,1,4,2:3:0:0:
109,192,170076,128,0,170485:2:3:0:0:
402,192,170212,1,4,2:3:0:0:
329,192,170349,1,4,2:3:0:0:
182,192,170485,128,0,170758:2:3:0:0:
329,192,170621,1,4,2:1:0:0:
475,192,170621,1,2,2:2:0:0:
402,192,170758,1,8,2:2:0:0:
109,192,170894,128,0,171167:2:3:0:0:
402,192,170894,1,8,2:2:0:0:
329,192,171031,1,4,2:1:0:0:
475,192,171031,1,2,2:2:0:0:
182,192,171167,128,0,171440:2:3:0:0:
402,192,171167,1,8,2:2:0:0:
402,192,171303,1,8,2:2:0:0:
109,192,171440,128,0,171712:2:3:0:0:
36,192,171440,128,0,171712:2:3:0:0:
329,192,171440,1,4,2:1:0:0:
475,192,171440,1,2,2:2:0:0:
