osu file format v13

[General]
AudioFilename: yotsuya192.mp3
AudioLeadIn: 0
PreviewTime: 53894
Countdown: 0
SampleSet: Normal
StackLeniency: 0.7
Mode: 3
LetterboxInBreaks: 0
EpilepsyWarning: 1
SpecialStyle: 0
WidescreenStoryboard: 1

[Editor]
Bookmarks: 2621,20076,25531,34258,51712,53894,71212,88803,97394,99712,117031,125758,134485,143212,152076,160803,169531,171712
DistanceSpacing: 1
BeatDivisor: 8
GridSize: 8
TimelineZoom: 2.800001

[Metadata]
Title:Yotsuya-san ni Yoroshiku
TitleUnicode:Yotsuya-san ni Yoroshiku
Artist:Himeringo
ArtistUnicode:Himeringo
Creator:chikitani
Version:NM
Source:
Tags:
BeatmapID:543802
BeatmapSetID:234446

[Difficulty]
HPDrainRate:7
CircleSize:7
OverallDifficulty:7
ApproachRate:7
SliderMultiplier:1.4
SliderTickRate:1

[Events]
//Background and Video events
0,0,"yotsuya-san.jpg",0,0
//Break Periods
//Storyboard Layer 0 (Background)
//Storyboard Layer 1 (Fail)
//Storyboard Layer 2 (Pass)
//Storyboard Layer 3 (Foreground)
//Storyboard Sound Samples

[TimingPoints]
1531,272.727272727273,4,1,0,30,1,0
71212,-100,4,1,0,30,0,1
88803,-100,4,1,0,30,0,0
117031,-100,4,1,0,30,0,1
143212,-100,4,1,0,30,0,0

[HitObjects]
182,192,25531,1,0,0:0:0:0:
256,192,25940,1,0,2:2:0:0:
256,192,26076,1,0,0:0:0:0:
329,192,26485,1,0,0:0:0:0:
402,192,26758,1,0,0:0:0:0:
475,192,26894,1,0,0:0:0:0:
402,192,27167,1,0,0:0:0:0:
329,192,27440,1,0,0:0:0:0:
329,192,27712,1,0,0:0:0:0:
256,192,28121,1,0,2:2:0:0:
256,192,28258,1,0,0:0:0:0:
182,192,28667,1,0,0:0:0:0:
109,192,29349,1,0,0:0:0:0:
36,192,29894,1,0,0:0:0:0:
182,192,30303,1,0,0:0:0:0:
182,192,30440,1,0,0:0:0:0:
329,192,30849,1,0,0:0:0:0:
402,192,31121,1,0,0:0:0:0:
475,192,31258,1,0,0:0:0:0:
402,192,31531,1,0,0:0:0:0:
329,192,31803,1,0,0:0:0:0:
475,192,32076,1,0,0:0:0:0:
329,192,32485,1,0,0:0:0:0:
329,192,32621,1,0,0:0:0:0:
109,192,33031,1,0,0:0:0:0:
182,192,33303,1,0,0:0:0:0:
36,192,33440,1,0,0:0:0:0:
109,192,33576,1,0,0:0:0:0:
182,192,33712,1,0,0:0:0:0:
475,192,34258,128,0,34531:2:2:0:0:
329,192,34258,128,0,34531:2:2:0:0:
402,192,34667,128,0,35076:2:2:0:0:
475,192,34803,128,0,35076:2:2:0:0:
109,192,35212,128,0,35621:2:2:0:0:
36,192,35349,128,0,35621:2:2:0:0:
475,192,35758,128,0,35894:2:2:0:0:
402,192,35894,128,0,36031:2:2:0:0:
329,192,36065,1,0,2:2:0:0:
256,192,36099,1,0,2:2:0:0:
329,192,36133,1,0,2:2:0:0:
402,192,36167,128,0,36440:2:2:0:0:
36,192,36440,128,0,36712:2:2:0:0:
182,192,36440,128,0,36712:2:2:0:0:
109,192,36849,128,0,37394:2:2:0:0:
36,192,36985,128,0,37394:2:2:0:0:
402,192,37531,128,0,37803:2:2:0:0:
475,192,37803,128,0,38076:2:2:0:0:
402,192,38076,128,0,38349:2:2:0:0:
256,192,38349,128,0,38621:2:2:0:0:
109,192,38621,128,0,38894:2:2:0:0:
402,192,38621,128,0,38894:2:2:0:0:
109,192,39031,128,0,39440:2:2:0:0:
36,192,39167,128,0,39440:2:2:0:0:
402,192,39576,128,0,39985:2:2:0:0:
475,192,39712,128,0,39985:2:2:0:0:
36,192,40121,128,0,40258:2:2:0:0:
109,192,40258,128,0,40394:2:2:0:0:
182,192,40428,1,0,2:2:0:0:
256,192,40462,1,0,2:2:0:0:
182,192,40496,1,0,2:2:0:0:
109,192,40531,128,0,40803:2:2:0:0:
182,192,40803,128,0,41076:2:2:0:0:
329,192,40803,128,0,41076:2:2:0:0:
256,192,41212,128,0,41349:2:2:0:0:
329,192,41349,128,0,41621:2:2:0:0:
256,192,41621,128,0,41758:2:2:0:0:
182,192,41758,128,0,41894:2:2:0:0:
36,192,41894,128,0,42712:2:2:0:0:
109,192,41894,128,0,42440:2:2:0:0:
329,192,42985,128,0,43258:2:2:0:0:
475,192,42985,128,0,43258:2:2:0:0:
402,192,43394,128,0,43803:2:2:0:0:
475,192,43531,128,0,43803:2:2:0:0:
109,192,43940,128,0,44349:2:2:0:0:
36,192,44076,128,0,44349:2:2:0:0:
475,192,44485,128,0,44621:2:2:0:0:
402,192,44621,128,0,44758:2:2:0:0:
329,192,44792,1,0,2:2:0:0:
256,192,44826,1,0,2:2:0:0:
329,192,44860,1,0,2:2:0:0:
402,192,44894,128,0,45167:2:2:0:0:
36,192,45167,128,0,45440:2:2:0:0:
182,192,45167,128,0,45440:2:2:0:0:
109,192,45576,128,0,46121:2:2:0:0:
36,192,45712,128,0,46121:2:2:0:0:
402,192,46258,128,0,46531:2:2:0:0:
475,192,46531,128,0,46803:2:2:0:0:
402,192,46803,128,0,47076:2:2:0:0:
256,192,47076,128,0,47349:2:2:0:0:
402,192,47349,128,0,47621:2:2:0:0:
109,192,47349,128,0,47621:2:2:0:0:
109,192,47758,128,0,48167:2:2:0:0:
36,192,47894,128,0,48167:2:2:0:0:
402,192,48303,128,0,48712:2:2:0:0:
475,192,48440,128,0,48712:2:2:0:0:
36,192,48849,128,0,48985:2:2:0:0:
109,192,48985,128,0,49121:2:2:0:0:
182,192,49156,1,0,2:2:0:0:
256,192,49190,1,0,2:2:0:0:
182,192,49224,1,0,2:2:0:0:
109,192,49258,128,0,49531:2:2:0:0:
182,192,49531,128,0,49803:2:2:0:0:
329,192,49531,128,0,49803:2:2:0:0:
256,192,49940,128,0,50076:2:2:0:0:
329,192,50076,128,0,50349:2:2:0:0:
256,192,50349,128,0,50485:2:2:0:0:
182,192,50485,128,0,50621:2:2:0:0:
109,192,50621,128,0,51167:2:2:0:0:
36,192,50621,128,0,51440:2:2:0:0:
36,192,51712,128,0,51985:2:2:0:0:
109,192,51985,1,0,2:2:0:0:
109,192,52121,128,0,52531:2:2:0:0:
182,192,52531,1,0,2:2:0:0:
182,192,52667,128,0,53076:2:2:0:0:
256,192,53076,128,0,53349:2:2:0:0:
182,192,53349,128,0,53621:2:2:0:0:
109,192,53621,128,0,53758:2:2:0:0:
402,192,53894,128,0,54167:2:2:0:0:
475,192,53894,128,0,54303:2:2:0:0:
329,192,54167,128,0,54303:2:2:0:0:
256,192,54303,128,0,54985:2:2:0:0:
475,192,54985,128,0,55394:2:2:0:0:
329,192,55394,128,0,56076:2:2:0:0:
402,192,56076,128,0,56349:2:2:0:0:
475,192,56349,128,0,57849:2:2:0:0:
329,192,56485,128,0,56758:2:2:0:0:
256,192,56758,128,0,56894:2:2:0:0:
402,192,56894,128,0,57031:2:2:0:0:
329,192,57031,128,0,57167:2:2:0:0:
256,192,57167,128,0,57440:2:2:0:0:
329,192,57440,128,0,57576:2:2:0:0:
256,192,57576,128,0,57849:2:2:0:0:
329,192,57849,128,0,57985:2:2:0:0:
402,192,57985,128,0,58258:2:2:0:0:
36,192,58258,128,0,58667:2:2:0:0:
109,192,58258,128,0,58531:2:2:0:0:
182,192,58531,128,0,58667:2:2:0:0:
256,192,58667,128,0,59349:2:2:0:0:
36,192,59349,128,0,59758:2:2:0:0:
182,192,59758,128,0,60440:2:2:0:0:
109,192,60440,128,0,60712:2:2:0:0:
36,192,60712,128,0,62212:2:2:0:0:
182,192,60849,128,0,61121:2:2:0:0:
256,192,61121,128,0,61258:2:2:0:0:
109,192,61258,128,0,61394:2:2:0:0:
182,192,61394,128,0,61531:2:2:0:0:
256,192,61531,128,0,61803:2:2:0:0:
182,192,61803,128,0,61940:2:2:0:0:
256,192,61940,128,0,62212:2:2:0:0:
182,192,62212,128,0,62349:2:2:0:0:
109,192,62349,128,0,62621:2:2:0:0:
475,192,62621,128,0,63031:2:2:0:0:
402,192,62621,128,0,62894:2:2:0:0:
329,192,62894,128,0,63031:2:2:0:0:
256,192,63031,128,0,63712:2:2:0:0:
475,192,63712,128,0,64121:2:2:0:0:
329,192,64121,128,0,64803:2:2:0:0:
402,192,64803,128,0,65076:2:2:0:0:
475,192,65076,128,0,66576:2:2:0:0:
329,192,65212,128,0,65485:2:2:0:0:
256,192,65485,128,0,65621:2:2:0:0:
402,192,65621,128,0,65758:2:2:0:0:
329,192,65758,128,0,65894:2:2:0:0:
256,192,65894,128,0,66167:2:2:0:0:
329,192,66167,128,0,66303:2:2:0:0:
256,192,66303,128,0,66576:2:2:0:0:
329,192,66576,128,0,66712:2:2:0:0:
402,192,66712,128,0,66985:2:2:0:0:
109,192,66985,128,0,67258:2:2:0:0:
36,192,66985,128,0,67394:2:2:0:0:
182,192,67258,128,0,67394:2:2:0:0:
256,192,67394,128,0,68076:2:2:0:0:
36,192,68076,128,0,68485:2:2:0:0:
182,192,68485,128,0,69167:2:2:0:0:
109,192,69167,128,0,69440:2:2:0:0:
36,192,69440,128,0,70940:2:2:0:0:
182,192,69576,128,0,69849:2:2:0:0:
256,192,69849,128,0,69985:2:2:0:0:
109,192,69985,128,0,70121:2:2:0:0:
182,192,70121,128,0,70258:2:2:0:0:
256,192,70258,128,0,70531:2:2:0:0:
182,192,70531,128,0,70940:2:2:0:0:
402,192,71212,128,0,71621:2:2:0:0:
475,192,71349,128,0,71621:2:2:0:0:
109,192,71758,128,0,72167:2:2:0:0:
36,192,71894,128,0,72167:2:2:0:0:
402,192,72303,128,0,72712:2:2:0:0:
475,192,72440,128,0,72712:2:2:0:0:
402,192,72849,1,0,2:2:0:0:
475,192,72985,1,0,2:2:0:0:
402,192,73121,1,0,2:2:0:0:
329,192,73258,1,0,2:2:0:0:
109,192,73394,128,0,73803:2:2:0:0:
36,192,73531,128,0,73803:2:2:0:0:
109,192,73940,1,0,2:2:0:0:
36,192,74076,1,0,2:2:0:0:
109,192,74212,1,0,2:2:0:0:
182,192,74349,1,0,2:2:0:0:
256,192,74485,1,0,2:2:0:0:
36,192,74621,128,0,74894:2:2:0:0:
109,192,74894,128,0,75167:2:2:0:0:
182,192,75167,128,0,75440:2:2:0:0:
256,192,75440,128,0,75712:2:2:0:0:
182,192,75712,128,0,75985:2:2:0:0:
475,192,76121,128,0,76531:2:2:0:0:
402,192,76258,128,0,76531:2:2:0:0:
36,192,76667,128,0,77076:2:2:0:0:
109,192,76803,128,0,77076:2:2:0:0:
36,192,77212,1,0,2:2:0:0:
109,192,77349,1,0,2:2:0:0:
182,192,77485,1,0,2:2:0:0:
109,192,77621,1,0,2:2:0:0:
182,192,77758,1,0,2:2:0:0:
36,192,77894,1,0,2:2:0:0:
109,192,78167,1,0,2:2:0:0:
182,192,78303,1,0,2:2:0:0:
402,192,78576,1,0,2:2:0:0:
329,192,78712,1,0,2:2:0:0:
256,192,78712,1,0,2:2:0:0:
182,192,78849,1,0,2:2:0:0:
36,192,78985,128,0,79803:2:2:0:0:
109,192,78985,1,0,2:2:0:0:
182,192,79394,1,0,2:2:0:0:
182,192,79803,1,0,2:2:0:0:
109,192,79940,128,0,80349:2:2:0:0:
36,192,80076,128,0,80349:2:2:0:0:
402,192,80485,128,0,80894:2:2:0:0:
475,192,80621,128,0,80894:2:2:0:0:
109,192,81031,128,0,81440:2:2:0:0:
36,192,81167,128,0,81440:2:2:0:0:
109,192,81576,1,0,2:2:0:0:
36,192,81712,1,0,2:2:0:0:
109,192,81849,1,0,2:2:0:0:
182,192,81985,1,0,2:2:0:0:
402,192,82121,128,0,82531:2:2:0:0:
475,192,82258,128,0,82531:2:2:0:0:
402,192,82667,1,0,2:2:0:0:
475,192,82803,1,0,2:2:0:0:
402,192,82940,1,0,2:2:0:0:
329,192,83076,1,0,2:2:0:0:
256,192,83212,1,0,2:2:0:0:
475,192,83349,128,0,83621:2:2:0:0:
402,192,83621,128,0,83894:2:2:0:0:
329,192,83894,128,0,84167:2:2:0:0:
256,192,84167,128,0,84440:2:2:0:0:
329,192,84440,128,0,84712:2:2:0:0:
36,192,84849,128,0,85258:2:2:0:0:
109,192,84985,128,0,85258:2:2:0:0:
475,192,85394,128,0,85803:2:2:0:0:
402,192,85531,128,0,85803:2:2:0:0:
475,192,85940,1,0,2:2:0:0:
402,192,86076,1,0,2:2:0:0:
329,192,86212,1,0,2:2:0:0:
402,192,86349,1,0,2:2:0:0:
329,192,86485,1,0,2:2:0:0:
109,192,86621,128,0,86894:2:2:0:0:
36,192,86621,128,0,86894:2:2:0:0:
109,192,87167,128,0,87371:2:2:0:0:
36,192,87167,128,0,87371:2:2:0:0:
256,192,87440,1,0,2:2:0:0:
329,192,87576,1,0,2:2:0:0:
402,192,87712,1,0,2:2:0:0:
475,192,87712,128,0,88531:2:2:0:0:
329,192,88121,1,0,2:2:0:0:
329,192,88531,1,0,2:2:0:0:
475,192,88803,128,0,89076:2:2:0:0:
329,192,88803,128,0,89076:2:2:0:0:
402,192,89212,128,0,89621:2:2:0:0:
475,192,89349,128,0,89621:2:2:0:0:
109,192,89758,128,0,90167:2:2:0:0:
36,192,89894,128,0,90167:2:2:0:0:
475,192,90303,128,0,90440:2:2:0:0:
402,192,90440,128,0,90576:2:2:0:0:
329,192,90610,1,0,2:2:0:0:
256,192,90644,1,0,2:2:0:0:
329,192,90678,1,0,2:2:0:0:
402,192,90712,128,0,90985:2:2:0:0:
182,192,90985,128,0,91258:2:2:0:0:
36,192,90985,128,0,91258:2:2:0:0:
109,192,91394,128,0,91940:2:2:0:0:
36,192,91531,128,0,91940:2:2:0:0:
402,192,92076,128,0,92349:2:2:0:0:
475,192,92349,128,0,92621:2:2:0:0:
402,192,92621,128,0,92894:2:2:0:0:
256,192,92894,128,0,93167:2:2:0:0:
109,192,93167,128,0,93440:2:2:0:0:
402,192,93167,128,0,93440:2:2:0:0:
109,192,93576,128,0,93985:2:2:0:0:
36,192,93712,128,0,93985:2:2:0:0:
402,192,94121,128,0,94531:2:2:0:0:
475,192,94258,128,0,94531:2:2:0:0:
36,192,94667,128,0,94803:2:2:0:0:
109,192,94803,128,0,94940:2:2:0:0:
182,192,94974,1,0,2:2:0:0:
256,192,95008,1,0,2:2:0:0:
182,192,95042,1,0,2:2:0:0:
109,192,95076,128,0,95349:2:2:0:0:
329,192,95349,128,0,95621:2:2:0:0:
182,192,95349,128,0,95621:2:2:0:0:
256,192,95758,128,0,95894:2:2:0:0:
329,192,95894,128,0,96167:2:2:0:0:
256,192,96167,128,0,96303:2:2:0:0:
182,192,96303,128,0,96440:2:2:0:0:
109,192,96440,128,0,96985:2:2:0:0:
36,192,96440,128,0,97258:2:2:0:0:
36,192,97531,128,0,97803:2:2:0:0:
475,192,97531,128,0,97803:2:2:0:0:
475,192,97940,128,0,98485:2:2:0:0:
256,192,98076,128,0,98485:2:2:0:0:
329,192,98212,128,0,98485:2:2:0:0:
402,192,98485,128,0,98894:2:2:0:0:
475,192,98894,128,0,99167:2:2:0:0:
402,192,99167,128,0,99440:2:2:0:0:
256,192,99440,128,0,99712:2:2:0:0:
475,192,99712,128,0,100121:2:2:0:0:
402,192,99712,128,0,99985:2:2:0:0:
329,192,99985,128,0,100121:2:2:0:0:
256,192,100121,128,0,100803:2:2:0:0:
475,192,100803,128,0,101212:2:2:0:0:
329,192,101212,128,0,101894:2:2:0:0:
402,192,101894,128,0,102167:2:2:0:0:
475,192,102167,128,0,103667:2:2:0:0:
329,192,102303,128,0,102576:2:2:0:0:
256,192,102576,128,0,102712:2:2:0:0:
402,192,102712,128,0,102849:2:2:0:0:
329,192,102849,128,0,102985:2:2:0:0:
256,192,102985,128,0,103258:2:2:0:0:
329,192,103258,128,0,103394:2:2:0:0:
256,192,103394,128,0,103667:2:2:0:0:
329,192,103667,128,0,103803:2:2:0:0:
402,192,103803,128,0,104076:2:2:0:0:
109,192,104076,128,0,104349:2:2:0:0:
36,192,104076,128,0,104485:2:2:0:0:
182,192,104349,128,0,104485:2:2:0:0:
256,192,104485,128,0,105167:2:2:0:0:
36,192,105167,128,0,105576:2:2:0:0:
182,192,105576,128,0,106258:2:2:0:0:
109,192,106258,128,0,106531:2:2:0:0:
36,192,106531,128,0,108031:2:2:0:0:
182,192,106667,128,0,106940:2:2:0:0:
256,192,106940,128,0,107076:2:2:0:0:
109,192,107076,128,0,107212:2:2:0:0:
182,192,107212,128,0,107349:2:2:0:0:
256,192,107349,128,0,107621:2:2:0:0:
182,192,107621,128,0,107758:2:2:0:0:
256,192,107758,128,0,108031:2:2:0:0:
182,192,108031,128,0,108167:2:2:0:0:
109,192,108167,128,0,108440:2:2:0:0:
475,192,108440,128,0,108849:2:2:0:0:
402,192,108440,128,0,108712:2:2:0:0:
329,192,108712,128,0,108849:2:2:0:0:
256,192,108849,128,0,109531:2:2:0:0:
475,192,109531,128,0,109940:2:2:0:0:
329,192,109940,128,0,110621:2:2:0:0:
402,192,110621,128,0,110894:2:2:0:0:
475,192,110894,128,0,112394:2:2:0:0:
329,192,111031,128,0,111303:2:2:0:0:
256,192,111303,128,0,111440:2:2:0:0:
402,192,111440,128,0,111576:2:2:0:0:
329,192,111576,128,0,111712:2:2:0:0:
256,192,111712,128,0,111985:2:2:0:0:
329,192,111985,128,0,112121:2:2:0:0:
256,192,112121,128,0,112394:2:2:0:0:
329,192,112394,128,0,112531:2:2:0:0:
402,192,112531,128,0,112803:2:2:0:0:
109,192,112803,128,0,113076:2:2:0:0:
36,192,112803,128,0,113212:2:2:0:0:
182,192,113076,128,0,113212:2:2:0:0:
256,192,113212,128,0,113894:2:2:0:0:
36,192,113894,128,0,114303:2:2:0:0:
182,192,114303,128,0,114985:2:2:0:0:
109,192,114985,128,0,115258:2:2:0:0:
36,192,115258,128,0,116758:2:2:0:0:
182,192,115394,128,0,115667:2:2:0:0:
256,192,115667,128,0,115803:2:2:0:0:
109,192,115803,128,0,115940:2:2:0:0:
182,192,115940,128,0,116076:2:2:0:0:
256,192,116076,128,0,116349:2:2:0:0:
182,192,116349,128,0,116758:2:2:0:0:
402,192,117031,128,0,117440:2:2:0:0:
475,192,117167,128,0,117440:2:2:0:0:
182,192,117576,128,0,117985:2:2:0:0:
109,192,117712,128,0,117985:2:2:0:0:
475,192,118121,128,0,118531:2:2:0:0:
329,192,118258,128,0,118531:2:2:0:0:
402,192,118667,128,0,118803:2:2:0:0:
475,192,118803,128,0,118940:2:2:0:0:
402,192,118940,128,0,119076:2:2:0:0:
329,192,119076,128,0,119212:2:2:0:0:
402,192,119212,128,0,119621:2:2:0:0:
329,192,119349,128,0,119621:2:2:0:0:
475,192,119621,128,0,119894:2:2:0:0:
402,192,119894,128,0,120167:2:2:0:0:
329,192,120167,128,0,120303:2:2:0:0:
402,192,120303,128,0,120440:2:2:0:0:
475,192,120440,128,0,120712:2:2:0:0:
402,192,120712,128,0,120985:2:2:0:0:
329,192,120985,128,0,121258:2:2:0:0:
402,192,121258,128,0,121531:2:2:0:0:
329,192,121531,128,0,121803:2:2:0:0:
36,192,121940,128,0,122349:2:2:0:0:
109,192,122076,128,0,122349:2:2:0:0:
402,192,122485,128,0,122894:2:2:0:0:
329,192,122621,128,0,122894:2:2:0:0:
109,192,123031,128,0,123167:2:2:0:0:
36,192,123167,128,0,123303:2:2:0:0:
109,192,123303,128,0,123440:2:2:0:0:
182,192,123440,128,0,123576:2:2:0:0:
36,192,123576,128,0,123985:2:2:0:0:
109,192,123712,128,0,123985:2:2:0:0:
109,192,124121,128,0,124394:2:2:0:0:
256,192,124394,1,0,2:2:0:0:
182,192,124531,1,0,2:2:0:0:
109,192,124667,1,0,2:2:0:0:
475,192,124803,128,0,125621:2:2:0:0:
36,192,124803,128,0,125621:2:2:0:0:
402,192,125758,128,0,126167:2:2:0:0:
475,192,125894,128,0,126167:2:2:0:0:
109,192,126303,128,0,126712:2:2:0:0:
36,192,126440,128,0,126712:2:2:0:0:
402,192,126849,128,0,127258:2:2:0:0:
475,192,126985,128,0,127258:2:2:0:0:
402,192,127394,1,0,2:2:0:0:
475,192,127531,1,0,2:2:0:0:
402,192,127667,1,0,2:2:0:0:
329,192,127803,1,0,2:2:0:0:
109,192,127940,128,0,128349:2:2:0:0:
36,192,128076,128,0,128349:2:2:0:0:
109,192,128485,1,0,2:2:0:0:
36,192,128621,1,0,2:2:0:0:
109,192,128758,1,0,2:2:0:0:
182,192,128894,1,0,2:2:0:0:
256,192,129031,1,0,2:2:0:0:
329,192,129167,1,0,2:2:0:0:
36,192,129167,128,0,129440:2:2:0:0:
109,192,129440,128,0,129712:2:2:0:0:
182,192,129712,128,0,129985:2:2:0:0:
256,192,129985,128,0,130258:2:2:0:0:
182,192,130258,128,0,130531:2:2:0:0:
475,192,130667,128,0,131076:2:2:0:0:
402,192,130803,128,0,131076:2:2:0:0:
36,192,131212,128,0,131621:2:2:0:0:
109,192,131349,128,0,131621:2:2:0:0:
36,192,131758,1,0,2:2:0:0:
109,192,131894,1,0,2:2:0:0:
182,192,132031,1,0,2:2:0:0:
109,192,132167,1,0,2:2:0:0:
182,192,132303,1,0,2:2:0:0:
36,192,132440,128,0,132644:2:2:0:0:
109,192,132712,1,0,2:2:0:0:
182,192,132849,128,0,133121:2:2:0:0:
256,192,133258,1,0,2:2:0:0:
182,192,133394,1,0,2:2:0:0:
36,192,133531,128,0,134349:2:2:0:0:
182,192,133531,1,0,2:2:0:0:
182,192,133940,1,0,2:2:0:0:
182,192,134349,1,0,2:2:0:0:
109,192,134485,128,0,134894:2:2:0:0:
36,192,134621,128,0,134894:2:2:0:0:
402,192,135031,128,0,135440:2:2:0:0:
475,192,135167,128,0,135440:2:2:0:0:
109,192,135576,128,0,135985:2:2:0:0:
36,192,135712,128,0,135985:2:2:0:0:
109,192,136121,1,0,2:2:0:0:
36,192,136258,1,0,2:2:0:0:
109,192,136394,1,0,2:2:0:0:
182,192,136531,1,0,2:2:0:0:
402,192,136667,128,0,137076:2:2:0:0:
475,192,136803,128,0,137076:2:2:0:0:
402,192,137212,1,0,2:2:0:0:
475,192,137349,1,0,2:2:0:0:
402,192,137485,1,0,2:2:0:0:
329,192,137621,1,0,2:2:0:0:
256,192,137758,1,0,2:2:0:0:
475,192,137894,128,0,138167:2:2:0:0:
402,192,138167,128,0,138440:2:2:0:0:
329,192,138440,128,0,138712:2:2:0:0:
256,192,138712,128,0,138985:2:2:0:0:
329,192,138985,128,0,139258:2:2:0:0:
36,192,139394,128,0,139803:2:2:0:0:
109,192,139531,128,0,139803:2:2:0:0:
475,192,139940,128,0,140349:2:2:0:0:
402,192,140076,128,0,140349:2:2:0:0:
475,192,140485,1,0,2:2:0:0:
402,192,140621,1,0,2:2:0:0:
329,192,140758,1,0,2:2:0:0:
256,192,140894,1,0,2:2:0:0:
329,192,141031,1,0,2:2:0:0:
475,192,141167,128,0,141371:2:2:0:0:
402,192,141440,1,0,2:2:0:0:
329,192,141576,128,0,141849:2:2:0:0:
256,192,141985,1,0,2:2:0:0:
329,192,142121,1,0,2:2:0:0:
329,192,142258,1,0,2:2:0:0:
475,192,142258,128,0,143076:2:2:0:0:
329,192,142667,1,0,2:2:0:0:
329,192,143076,1,0,2:2:0:0:
182,192,143349,128,0,143621:2:2:0:0:
109,192,143621,128,0,143894:2:2:0:0:
182,192,143894,128,0,144303:2:2:0:0:
36,192,144031,128,0,144303:2:2:0:0:
329,192,144303,128,0,144576:2:2:0:0:
256,192,144576,128,0,144712:2:2:0:0:
182,192,144712,128,0,144849:2:2:0:0:
402,192,144849,128,0,145258:2:2:0:0:
329,192,144849,128,0,145121:2:2:0:0:
182,192,145258,128,0,145531:2:2:0:0:
475,192,145531,128,0,145803:2:2:0:0:
402,192,145803,128,0,146076:2:2:0:0:
36,192,146076,128,0,146212:2:2:0:0:
182,192,146212,128,0,146485:2:2:0:0:
256,192,146485,128,0,146758:2:2:0:0:
182,192,146758,128,0,146894:2:2:0:0:
329,192,146894,128,0,147167:2:2:0:0:
256,192,147167,128,0,147712:2:2:0:0:
182,192,147167,128,0,147303:2:2:0:0:
109,192,147303,128,0,147440:2:2:0:0:
36,192,147440,128,0,147712:2:2:0:0:
329,192,147712,128,0,147985:2:2:0:0:
182,192,147985,128,0,148121:2:2:0:0:
109,192,148121,128,0,148258:2:2:0:0:
182,192,148258,128,0,148394:2:2:0:0:
36,192,148394,128,0,148667:2:2:0:0:
329,192,148667,128,0,148940:2:2:0:0:
256,192,148940,128,0,149212:2:2:0:0:
329,192,149212,128,0,149485:2:2:0:0:
402,192,149485,128,0,149894:2:2:0:0:
109,192,149485,128,0,149758:2:2:0:0:
182,192,149894,128,0,150167:2:2:0:0:
329,192,149894,128,0,150167:2:2:0:0:
109,192,150167,128,0,150303:2:2:0:0:
36,192,150303,128,0,150440:2:2:0:0:
182,192,150440,128,0,150576:2:2:0:0:
256,192,150576,128,0,150849:2:2:0:0:
329,192,150849,128,0,151121:2:2:0:0:
402,192,151121,128,0,151667:2:2:0:0:
475,192,152076,128,0,152349:2:2:0:0:
329,192,152076,128,0,152349:2:2:0:0:
402,192,152485,128,0,152894:2:2:0:0:
475,192,152621,128,0,152894:2:2:0:0:
109,192,153031,128,0,153440:2:2:0:0:
36,192,153167,128,0,153440:2:2:0:0:
475,192,153576,128,0,153712:2:2:0:0:
402,192,153712,128,0,153849:2:2:0:0:
329,192,153883,1,0,2:2:0:0:
256,192,153917,1,0,2:2:0:0:
329,192,153951,1,0,2:2:0:0:
402,192,153985,128,0,154258:2:2:0:0:
36,192,154258,128,0,154531:2:2:0:0:
182,192,154258,128,0,154531:2:2:0:0:
109,192,154667,128,0,155212:2:2:0:0:
36,192,154803,128,0,155212:2:2:0:0:
402,192,155349,128,0,155621:2:2:0:0:
475,192,155621,128,0,155894:2:2:0:0:
402,192,155894,128,0,156167:2:2:0:0:
256,192,156167,128,0,156440:2:2:0:0:
109,192,156440,128,0,156712:2:2:0:0:
402,192,156440,128,0,156712:2:2:0:0:
109,192,156849,128,0,157258:2:2:0:0:
36,192,156985,128,0,157258:2:2:0:0:
402,192,157394,128,0,157803:2:2:0:0:
475,192,157531,128,0,157803:2:2:0:0:
36,192,157940,128,0,158076:2:2:0:0:
109,192,158076,128,0,158212:2:2:0:0:
182,192,158246,1,0,2:2:0:0:
256,192,158281,1,0,2:2:0:0:
182,192,158315,1,0,2:2:0:0:
109,192,158349,128,0,158621:2:2:0:0:
182,192,158621,128,0,158894:2:2:0:0:
329,192,158621,128,0,158894:2:2:0:0:
256,192,159031,128,0,159167:2:2:0:0:
329,192,159167,128,0,159440:2:2:0:0:
256,192,159440,128,0,159576:2:2:0:0:
182,192,159576,128,0,159712:2:2:0:0:
36,192,159712,128,0,160531:2:2:0:0:
109,192,159712,128,0,160258:2:2:0:0:
329,192,160803,128,0,161076:2:2:0:0:
475,192,160803,128,0,161076:2:2:0:0:
402,192,161212,128,0,161621:2:2:0:0:
475,192,161349,128,0,161621:2:2:0:0:
109,192,161758,128,0,162167:2:2:0:0:
36,192,161894,128,0,162167:2:2:0:0:
475,192,162303,128,0,162440:2:2:0:0:
402,192,162440,128,0,162576:2:2:0:0:
329,192,162610,1,0,2:2:0:0:
256,192,162644,1,0,2:2:0:0:
329,192,162678,1,0,2:2:0:0:
402,192,162712,128,0,162985:2:2:0:0:
36,192,162985,128,0,163258:2:2:0:0:
182,192,162985,128,0,163258:2:2:0:0:
109,192,163394,128,0,163940:2:2:0:0:
36,192,163531,128,0,163940:2:2:0:0:
402,192,164076,128,0,164349:2:2:0:0:
475,192,164349,128,0,164621:2:2:0:0:
402,192,164621,128,0,164894:2:2:0:0:
256,192,164894,128,0,165167:2:2:0:0:
402,192,165167,128,0,165440:2:2:0:0:
109,192,165167,128,0,165440:2:2:0:0:
109,192,165576,128,0,165985:2:2:0:0:
36,192,165712,128,0,165985:2:2:0:0:
402,192,166121,128,0,166531:2:2:0:0:
475,192,166258,128,0,166531:2:2:0:0:
36,192,166667,128,0,166803:2:2:0:0:
109,192,166803,128,0,166940:2:2:0:0:
182,192,166974,1,0,2:2:0:0:
256,192,167008,1,0,2:2:0:0:
182,192,167042,1,0,2:2:0:0:
109,192,167076,128,0,167349:2:2:0:0:
182,192,167349,128,0,167621:2:2:0:0:
36,192,167349,128,0,167621:2:2:0:0:
329,192,167349,128,0,167485:2:2:0:0:
402,192,167485,128,0,167621:2:2:0:0:
475,192,167621,128,0,167894:2:2:0:0:
256,192,167758,128,0,167894:2:2:0:0:
329,192,167894,128,0,168167:2:2:0:0:
402,192,167894,128,0,168167:2:2:0:0:
256,192,168167,128,0,168303:2:2:0:0:
475,192,168167,128,0,168303:2:2:0:0:
182,192,168303,128,0,168440:2:2:0:0:
109,192,168440,128,0,168985:2:2:0:0:
36,192,168440,128,0,169258:2:2:0:0:
475,192,168440,128,0,169258:2:2:0:0:
36,192,169531,128,0,169803:2:2:0:0:
36,192,169940,1,0,2:2:0:0:
109,192,170076,128,0,170485:2:2:0:0:
182,192,170485,128,0,170758:2:2:0:0:
109,192,170894,128,0,171167:2:2:0:0:
182,192,171167,128,0,171440:2:2:0:0:
109,192,171440,128,0,171712:2:2:0:0:
36,192,171440,128,0,171712:2:2:0:0:
