osu file format v13

[General]
AudioFilename: yotsuya192.mp3
AudioLeadIn: 0
PreviewTime: 71220
Countdown: 0
SampleSet: Soft
StackLeniency: 0.7
Mode: 0
LetterboxInBreaks: 0
WidescreenStoryboard: 1

[Editor]
DistanceSpacing: 1.1
BeatDivisor: 4
GridSize: 4
TimelineZoom: 1

[Metadata]
Title:Yotsuya-san ni Yoroshiku
TitleUnicode:四ツ谷さんによろしく
Artist:Himeringo
ArtistUnicode:ひめりんご
Creator:RLC
Version:Insane
Source:
Tags:flask nyquill winber1 skystar amamiya yuko cheesiest onosakihito utaite leave it to eight hatsune miku vocaloid
BeatmapID:351993
BeatmapSetID:100049

[Difficulty]
HPDrainRate:6
CircleSize:4
OverallDifficulty:8
ApproachRate:9
SliderMultiplier:1.9
SliderTickRate:1

[Events]
//Background and Video events
0,0,"primary.jpg",0,0
//Break Periods
2,143555,151483
//Storyboard Layer 0 (Background)
Sprite,Background,Centre,"SB\lyric\ja-21.png",320,240 S,0,117175,,0.8 F,0,117175,117584,0,1 M,0,117175,118675,192,393,-12,393 F,0,117584,118402,1 F,0,118402,118675,1,0
Sprite,Background,Centre,"SB\lyric\ja-22.png",320,240 S,0,118675,,0.8 F,0,118675,119084,0,1 M,0,118675,119629,150,393,23,393 F,0,119084,119357,1 F,0,119357,119629,1,0
Sprite,Background,Centre,"SB\lyric\ja-22-repeat.png",320,240 S,0,119357,,0.8 M,0,119629,,196,393 F,0,119629,119902,0,1 M,0,119629,121947,196,393,-58,393 F,0,119902,121675,1 F,0,121675,121947,1,0
Sprite,Background,Centre,"SB\lyric\ja-23.png",320,240 S,0,121947,,0.8 F,0,121947,122357,0,1 M,0,121947,123038,158,393,23,393 F,0,122357,122766,1 F,0,122766,123038,1,0
Sprite,Background,Centre,"SB\lyric\ja-24.png",320,240 S,0,123038,,0.8 F,0,123038,123447,0,1 M,0,123038,123720,249,393,187,393 F,0,123447,123720,1
Sprite,Background,Centre,"SB\lyric\en-21.png",320,240 S,0,117175,,0.6 F,0,117175,117584,0,1 M,0,117175,117925,641,425,551,425 F,0,117584,118402,1 M,0,117925,118675,551,425,461,425 F,0,118402,118675,1,0
Sprite,Background,Centre,"SB\lyric\en-22.png",320,240 S,0,118675,,0.6 F,0,118675,119084,0,1 M,0,118675,119152,616,425,554,425 F,0,119084,119357,1 M,0,119152,119629,554,425,489,425 F,0,119357,119629,1,0
Sprite,Background,Centre,"SB\lyric\en-22-repeat.png",320,240 S,0,119629,,0.6 F,0,119629,120038,0,1 M,0,119629,121947,683,425,417,425 F,0,120038,121675,1 F,0,121675,121947,1,0
Sprite,Background,Centre,"SB\lyric\en-23.png",320,240 S,0,121947,,0.6 F,0,121947,122357,0,1 M,0,121947,123038,617,425,487,425 F,0,122357,122766,1 F,0,122766,123038,1,0
Sprite,Background,Centre,"SB\lyric\en-24.png",320,240 S,0,123038,,0.6 F,0,123038,123447,0,1 M,0,123038,123720,515,425,446,425
Sprite,Background,Centre,"SB\lower mask.png",320,240 S,0,117175,,0.625 R,0,117175,,0.0001 M,0,117175,123720,320,330
Sprite,Background,Centre,"SB\black.jpg",320,240 F,0,-97,,1 F,0,20084,23357,1,0 F,0,23357,24447,0 F,0,24447,25470,0,1 F,0,25538,26629,0,1 F,0,27720,28811,0.5,1 F,0,29902,30993,0,1 F,0,32084,33175,0.5,1 F,0,34266,,0 F,0,70266,,1 S,0,70266,,1.267815 R,0,70266,,0.0001 F,0,71357,,0 F,0,71357,,0 F,0,86629,,1 F,0,87720,88538,1,0 F,0,88538,,0 M,0,108877,116493,314,289,312,322 F,0,116084,,1 F,0,117175,117720,0,0.5 F,0,117720,118266,0.5,0 F,0,118266,118811,0,0.5 F,0,118811,119357,0.5,0 F,0,119357,119902,0,0.5 F,0,119902,120447,0.5,0 F,0,120447,120993,0,0.5 F,0,120993,121538,0.5,0 F,0,121538,122084,0,0.5 F,0,122084,122629,0.5,0 F,0,122629,123175,0,0.5 F,0,123175,123686,0.5,0 F,0,123720,,1 F,0,126175,,1,0.07840011 F,0,141175,,1 F,0,143357,144447,0,1 F,0,145538,146629,0.5,1 F,0,147720,148811,0,1 F,0,149902,150993,0.5,1 F,0,150993,,1 F,0,152084,,0 F,0,171447,,1 F,0,171447,177720,1
Animation,Background,Centre,"SB\red jitter\red_0000.jpg",320,240,10,30,LoopForever S,0,78993,,1.001 R,0,78993,,0.0001 F,0,78993,80084,0,1 F,0,80084,,1 F,0,86629,,0 F,0,133538,134629,0.9180929,1 F,0,141175,,1
Sprite,Background,Centre,"SB\brown.jpg",320,240 M,0,71357,,320,240 S,0,71357,,1.001 R,0,71357,,0.0001 F,0,71357,80084,1 F,0,80084,81175,1,0
Sprite,Background,Centre,"SB\blue.jpg",320,240 S,0,126175,,1.001 R,0,126175,,0.0001 F,0,126175,134629,1 F,0,134629,135720,1,0
Sprite,Background,Centre,"SB\cloud2.png",320,240 S,0,126175,,4.659974 R,0,126175,,0.0001 M,0,126175,135175,72,29,474,29 F,0,133538,135175,0.4690581,0
//Storyboard Layer 1 (Fail)
//Storyboard Layer 2 (Pass)
//Storyboard Layer 3 (Foreground)
Sprite,Foreground,Centre,"SB\lyric\ja-1.png",320,240 S,0,53902,,0.8 F,0,53902,54993,0,1 M,0,53902,58266,232,393,263,393 F,0,54993,57175,1 F,0,57175,58266,1,0
Sprite,Foreground,Centre,"SB\lyric\en-1.png",320,240 S,0,53902,,0.6 F,0,53902,54993,0,1 M,0,53902,58266,404,425,373,425 F,0,54993,57175,1 F,0,57175,58266,1,0
Sprite,Foreground,Centre,"SB\lyric\ja-2.png",320,240 S,0,58266,,0.8 F,0,58266,59357,0,1 M,0,58266,62629,232,393,263,393 F,0,59357,61538,1 F,0,61538,,1 F,0,61538,,1 F,0,61538,62357,1,0
Sprite,Foreground,Centre,"SB\lyric\ja-3.png",320,240 S,0,62629,,0.8 F,0,62629,63720,0,1 M,0,62629,66447,232,393,263,393 F,0,63720,65357,1 F,0,65357,66447,1,0
Sprite,Foreground,Centre,"SB\lyric\ja-4.png",320,240 S,0,66447,,0.8 F,0,66447,67538,0,1 M,0,66447,70266,232,393,263,393 F,0,67538,69175,1 F,0,69175,70266,1,0
Sprite,Foreground,Centre,"SB\lyric\ja-5.png",320,240 S,0,70266,,0.5 M,0,70266,70402,179,335
Sprite,Foreground,Centre,"SB\lyric\ja-5.png",320,240 S,0,70402,,0.8 M,0,70402,70538,469,297
Sprite,Foreground,Centre,"SB\lyric\ja-5.png",320,240 S,0,70538,,1.1 M,0,70538,70675,255,158
Sprite,Foreground,Centre,"SB\lyric\ja-5RED.png",320,240 S,0,70675,,1.3 F,0,70675,70947,1 M,0,70675,71220,320,240 F,0,70947,71357,1,0
Sprite,Foreground,Centre,"SB\lyric\ja-6-1.png",320,240 S,0,71357,,0.8 M,0,71357,71902,320,393
Sprite,Foreground,Centre,"SB\lyric\ja-6-2.png",320,240 S,0,71902,,0.8 M,0,71902,72447,320,393
Sprite,Foreground,Centre,"SB\lyric\ja-6-3.png",320,240 S,0,72447,,0.8 M,0,72447,72857,320,393
Sprite,Foreground,Centre,"SB\lyric\ja-7.png",320,240 S,0,72857,,0.8 M,0,72857,73947,320,393
Sprite,Foreground,Centre,"SB\lyric\ja-8.png",320,240 S,0,73947,,0.8 M,0,73947,76129,320,393
Sprite,Foreground,Centre,"SB\lyric\ja-9.png",320,240 S,0,76129,,0.8 M,0,76129,77220,320,393
Sprite,Foreground,Centre,"SB\lyric\ja-10-2.png",320,240 S,0,78311,,0.8 M,0,78311,80084,376,393
Sprite,Foreground,Centre,"SB\lyric\ja-10-1.png",320,240 S,0,77220,,0.8 M,0,77220,80084,264,393
Animation,Foreground,Centre,"SB\lyric\11-1\ja-11-1_0000.png",320,240,10,30,LoopForever S,0,80084,,0.8 M,0,80084,81584,230,326
Animation,Foreground,Centre,"SB\lyric\11-2\ja-11-2_0000.png",320,240,10,30,LoopForever S,0,80629,,1.1 M,0,80629,81584,325,305
Animation,Foreground,Centre,"SB\lyric\11-3\ja-11-3_0000.png",320,240,10,30,LoopForever S,0,81175,,1.3 M,0,81175,81584,425,284
Animation,Foreground,Centre,"SB\lyric\12\ja-12_0000.png",320,240,10,30,LoopForever S,0,81584,,1.1 M,0,81584,82675,306,214
Animation,Foreground,Centre,"SB\lyric\13\ja-13_0000.png",320,240,10,30,LoopForever S,0,82675,,0.8 M,0,82675,84857,315,294
Animation,Foreground,Centre,"SB\lyric\14\ja-14_0000.png",320,240,10,30,LoopForever S,0,84857,,1.1 M,0,84857,85947,320,222
Animation,Foreground,Centre,"SB\lyric\15-1\ja-15-1_0000.png",320,240,10,30,LoopForever S,0,85947,,0.8 M,0,85947,86629,269,393
Sprite,Foreground,Centre,"SB\lyric\ja-15-1.png",320,240 S,0,86629,,0.8 M,0,86629,87720,269,393 F,0,87720,88538,1,0
Sprite,Foreground,Centre,"SB\lyric\ja-15-2.png",320,240 S,0,87175,,0.8 M,0,87175,87720,373,393 F,0,87720,88538,1,0
Sprite,Foreground,Centre,"SB\lyric\ja-16.png",320,240 S,0,99720,,0.8 F,0,99720,100811,0,1 M,0,99720,104084,232,393,263,393 F,0,100811,102993,1 F,0,102993,104084,1,0
Sprite,Foreground,Centre,"SB\lyric\ja-17.png",320,240 S,0,104084,,0.8 F,0,104084,105175,0,1 M,0,104084,108447,232,393,263,393 F,0,105175,107357,1 F,0,107357,108175,1,0
Sprite,Foreground,Centre,"SB\lyric\ja-18.png",320,240 S,0,108447,,0.8 F,0,108447,109538,0,1 M,0,108447,112266,232,393,263,393 F,0,109538,111175,1 F,0,111175,112266,1,0
Sprite,Foreground,Centre,"SB\lyric\ja-19.png",320,240 S,0,112266,,0.8 F,0,112266,113357,0,1 M,0,112266,116084,232,393,263,393 F,0,113357,114993,1 F,0,114993,116084,1,0
Sprite,Foreground,Centre,"SB\lyric\ja-20_1.png",320,240 S,0,116084,,0.5 M,0,116084,116220,478,319
Sprite,Foreground,Centre,"SB\lyric\ja-20_1.png",320,240 S,0,116220,,0.8 M,0,116220,116357,160,257
Sprite,Foreground,Centre,"SB\lyric\ja-20_1.png",320,240 S,0,116357,,1.1 M,0,116357,116493,393,161
Sprite,Foreground,Centre,"SB\lyric\ja-20RED.png",320,240 M,0,116493,,320,240 S,0,116493,,1.3 F,0,116493,116766,1 F,0,116766,117175,1,0
Sprite,Foreground,Centre,"SB\lyric\ja-24RED.png",320,240 M,0,123720,,187,393 S,0,123720,,0.8 F,0,123720,124811,1 F,0,124811,125902,1,0
Sprite,Foreground,Centre,"SB\lyric\ja-25-1.png",320,240 S,0,125766,,0.8 M,0,125766,126175,156,312
Sprite,Foreground,Centre,"SB\lyric\ja-25-2.png",320,240 S,0,126175,,0.8 M,0,126175,126993,156,312 F,0,127538,127811,1,0
Sprite,Foreground,Centre,"SB\lyric\ja-25-3.png",320,240 S,0,126447,,1.1 R,0,126447,,-0.189046 M,0,126447,126993,306,288 F,0,127538,,1 F,0,127538,127811,1,0
Sprite,Foreground,Centre,"SB\lyric\ja-25-4.png",320,240 M,0,126993,,388,400 S,0,126993,,1.3 R,0,126993,,0.1785437 F,0,127538,127811,1,0
Sprite,Foreground,Centre,"SB\lyric\ja-26.png",320,240 S,0,127402,,0.8 F,0,127402,127538,0,1 M,0,127402,128084,315,201 R,0,127402,128084,0.1050253 F,0,127538,128084,1 M,0,128084,128493,315,201,315,236 F,0,128084,128493,1,0 R,0,128084,128493,0.1050253,0.3360815
Sprite,Foreground,Centre,"SB\lyric\ja-27.png",320,240 S,0,128493,,0.9 F,0,128493,128629,0,1 M,0,128493,130266,191,426 R,0,128493,130266,0.06301453 F,0,128629,130266,1 M,0,130266,130675,191,426,191,458 F,0,130266,130675,1,0 R,0,130266,130675,0.06301453,0.2835687
Sprite,Foreground,Centre,"SB\lyric\ja-28.png",320,240 S,0,130675,,0.8 R,0,130675,,-0.1155283 F,0,130675,130811,0,1 M,0,130675,131357,320,240 F,0,130811,131357,1 F,0,131357,131766,1,0
Sprite,Foreground,Centre,"SB\lyric\ja-29.png",320,240 S,0,131766,,0.8 F,0,131766,131902,0,1 M,0,131766,133538,230,154 R,0,131766,133538,0.1260309 F,0,131902,133538,1 M,0,133538,134629,230,154,230,206 F,0,133538,134629,1,0 R,0,133538,134629,0.1260309,0.2835693
Animation,Foreground,Centre,"SB\lyric\12\ja-12_0000.png",320,240,10,30,LoopForever S,0,136129,,1.1 M,0,136129,137220,306,214
Animation,Foreground,Centre,"SB\lyric\13\ja-13_0000.png",320,240,10,30,LoopForever S,0,137220,,0.8 M,0,137220,139402,315,294
Animation,Foreground,Centre,"SB\lyric\14\ja-14_0000.png",320,240,10,30,LoopForever S,0,139402,,1.1 M,0,139402,140493,320,222
Animation,Foreground,Centre,"SB\lyric\30-1\ja-30-1_0000.png",320,240,10,30,LoopForever S,0,134629,,0.8 M,0,134629,136129,153,292
Animation,Foreground,Centre,"SB\lyric\30-2\ja-30-2_0000.png",320,240,10,30,LoopForever S,0,135175,,1.1 M,0,135175,136129,333,216
Animation,Foreground,Centre,"SB\lyric\30-3\ja-30-3_0000.png",320,240,10,30,LoopForever S,0,135720,,1.3 M,0,135720,136129,485,133
Animation,Foreground,Centre,"SB\lyric\34-1\ja-34-1_0000.png",320,240,10,30,LoopForever S,0,140493,,0.8 M,0,140493,141175,269,393
Sprite,Foreground,Centre,"SB\lyric\ja-34-1.png",320,240 S,0,141175,,0.8 M,0,141175,143357,269,393 F,0,142266,143357,1,0
Sprite,Foreground,Centre,"SB\lyric\ja-34-2.png",320,240 S,0,141720,,0.8 M,0,141720,143357,391,393 F,0,142266,143357,1,0
Sprite,Foreground,Centre,"SB\lyric\en-2.png",320,240 S,0,58266,,0.6 F,0,58266,59357,0,1 M,0,58266,62629,404,425,373,425 F,0,59357,61538,1 F,0,61538,62357,1,0
Sprite,Foreground,Centre,"SB\lyric\en-3.png",320,240 S,0,62629,,0.6 F,0,62629,63720,0,1 M,0,62629,66447,404,425,373,425 F,0,63720,65357,1 F,0,65357,66447,1,0
Sprite,Foreground,Centre,"SB\lyric\en-4.png",320,240 S,0,66447,,0.6 F,0,66447,67538,0,1 M,0,66447,70266,404,425,373,425 F,0,67538,69175,1 F,0,69175,70266,1,0
Sprite,Foreground,Centre,"SB\lyric\en-5.png",320,240 F,0,70266,,1 S,0,70266,,0.4 M,0,70266,70402,436,192
Sprite,Foreground,Centre,"SB\lyric\en-5.png",320,240 S,0,70402,,0.6 M,0,70402,70538,181,97
Sprite,Foreground,Centre,"SB\lyric\en-5.png",320,240 S,0,70538,,0.8 M,0,70538,70675,391,392
Sprite,Foreground,Centre,"SB\lyric\en-5RED.png",320,240 M,0,70675,,320,294 F,0,70675,70947,1 F,0,70947,71357,1,0
Sprite,Foreground,Centre,"SB\lyric\en-6-1.png",320,240 S,0,71357,,0.7885935 M,0,71357,71902,320,425
Sprite,Foreground,Centre,"SB\lyric\en-6-2.png",320,240 S,0,71902,,0.7357419 M,0,71902,72447,320,425
Sprite,Foreground,Centre,"SB\lyric\en-6-3.png",320,240 S,0,72447,,0.8084131 M,0,72447,72857,320,425
Sprite,Foreground,Centre,"SB\lyric\en-7.png",320,240 S,0,72857,,0.8018063 M,0,72857,73947,320,425
Sprite,Foreground,Centre,"SB\lyric\en-8.png",320,240 S,0,73947,,0.6961035 M,0,73947,76129,320,425
Sprite,Foreground,Centre,"SB\lyric\en-9.png",320,240 S,0,76129,,0.762168 M,0,76129,77220,320,425
Sprite,Foreground,Centre,"SB\lyric\en-10-1.png",320,240 S,0,77220,,0.6564645 M,0,77220,80084,262,425
Sprite,Foreground,Centre,"SB\lyric\en-10-2.png",320,240 S,0,78311,,0.5837936 M,0,78311,80084,411,425
Sprite,Foreground,Centre,"SB\lyric\en-16.png",320,240 S,0,99720,,0.6 F,0,99720,100811,0,1 M,0,99720,104084,404,425,373,425 F,0,100811,102993,1 F,0,102993,104084,1,0
Sprite,Foreground,Centre,"SB\lyric\en-17-1.png",320,240 S,0,104084,,0.6 F,0,104084,105175,0,1 M,0,104084,108447,404,425,373,425 F,0,105175,107357,1 F,0,107357,108175,1,0
Sprite,Foreground,Centre,"SB\lyric\en-17-2.png",320,240 S,0,104084,,0.6 F,0,104084,105175,0,1 M,0,104084,108175,232,457,263,457 F,0,105175,107357,1 F,0,107357,108175,1,0
Sprite,Foreground,Centre,"SB\lyric\en-18.png",320,240 S,0,108447,,0.6 F,0,108447,109538,0,1 M,0,108447,112266,404,425,373,425 F,0,109538,111175,1 F,0,111175,112266,1,0
Sprite,Foreground,Centre,"SB\lyric\en-19.png",320,240 S,0,112266,,0.6 F,0,112266,113357,0,1 M,0,112266,116084,404,425,373,425 F,0,113357,114993,1 F,0,114993,116084,1,0
Sprite,Foreground,Centre,"SB\lyric\en-20-1.png",320,240 S,0,116084,,0.4 M,0,116084,116220,205,167
Sprite,Foreground,Centre,"SB\lyric\en-20-1.png",320,240 S,0,116220,,0.6 M,0,116220,116357,389,252
Sprite,Foreground,Centre,"SB\lyric\en-20-1.png",320,240 S,0,116357,,0.8 M,0,116357,116493,220,395
Sprite,Foreground,Centre,"SB\lyric\en-20RED.png",320,240 M,0,116493,,320,293 F,0,116493,116766,1 F,0,116766,117175,1,0
Sprite,Foreground,Centre,"SB\lyric\en-24RED.png",320,240 M,0,123720,,446,425 S,0,123720,,0.6 F,0,123720,124811,1 F,0,124811,125902,1,0
Sprite,Foreground,Centre,"SB\lyric\en-25-1.png",320,240 S,0,125766,,0.6 M,0,125766,126175,408,240
Sprite,Foreground,Centre,"SB\lyric\en-25-2.png",320,240 S,0,126175,,0.6 M,0,126175,126993,408,240 F,0,127538,127811,1,0
Sprite,Foreground,Centre,"SB\lyric\en-25-3.png",320,240 M,0,126447,,525,277 S,0,126447,,0.8 R,0,126447,,0.189046 F,0,127538,127811,1,0
Sprite,Foreground,Centre,"SB\lyric\en-25-4.png",320,240 M,0,126993,,219,400 S,0,126993,,1 R,0,126993,,-0.1260309 F,0,126993,127402,1,0
Sprite,Foreground,Centre,"SB\lyric\en-26.png",320,240 S,0,127402,,0.7 F,0,127402,127538,0,1 M,0,127402,128084,416,325 R,0,127402,128084,-0.1680408 F,0,127538,128084,1 M,0,128084,128493,416,325,416,391 F,0,128084,128493,1,0 R,0,128084,128493,-0.1680408,-0.3990967
Sprite,Foreground,Centre,"SB\lyric\en-27.png",320,240 S,0,128493,,0.6 F,0,128493,128629,0,1 M,0,128493,130266,443,226 R,0,128493,130266,-0.08402039 F,0,128629,130266,1 M,0,130266,130675,443,226,443,252 F,0,130266,130675,1,0 R,0,130266,130675,-0.08402039,-0.2310565
Sprite,Foreground,Centre,"SB\lyric\en-28.png",320,240 S,0,130675,,0.7 R,0,130675,,0.273067 F,0,130675,130811,0,1 M,0,130675,131357,140,303 F,0,130811,131357,1 F,0,131357,131766,1,0
Sprite,Foreground,Centre,"SB\lyric\en-29.png",320,240 S,0,131766,,0.7 F,0,131766,131902,0,1 M,0,131766,133538,438,257 R,0,131766,133538,-0.1890472 F,0,131902,133538,1 M,0,133538,134629,438,257,438,314 F,0,133538,134629,1,0 R,0,133538,134629,-0.1890472,-0.4306067
Animation,Foreground,Centre,"SB\lyric\11-1\en-11-1_0000.png",320,240,10,30,LoopForever S,0,80357,,0.6 M,0,80357,81584,336,384
Animation,Foreground,Centre,"SB\lyric\11-2\en-11-2_0000.png",320,240,10,30,LoopForever S,0,80902,,0.8 M,0,80902,81993,142,245
Animation,Foreground,Centre,"SB\lyric\11-3\en-11-3_0000.png",320,240,10,30,LoopForever S,0,81447,,1 M,0,81447,81993,413,164
Animation,Foreground,Centre,"SB\lyric\12\en-12_0000.png",320,240,10,30,LoopForever S,0,81993,,0.8 M,0,81993,83357,255,360
Animation,Foreground,Centre,"SB\lyric\13\en-13_0000.png",320,240,10,30,LoopForever S,0,83357,,0.6 M,0,83357,85538,222,140
Animation,Foreground,Centre,"SB\lyric\14\en-14_0000.png",320,240,10,30,LoopForever S,0,85538,,1 M,0,85538,86357,437,300
Animation,Foreground,Centre,"SB\lyric\15-1\en-15-1_0000.png",320,240,10,30,LoopForever F,0,86357,,1 S,0,86357,,0.6564642 M,0,86357,86629,237,430
Sprite,Foreground,Centre,"SB\lyric\en-15-1.png",320,240 S,0,86629,,0.6630707 M,0,86629,87720,234,430 F,0,86629,87720,1 F,0,87720,88538,1,0
Sprite,Foreground,Centre,"SB\lyric\en-15-2.png",320,240 S,0,87175,,0.7423482 M,0,87175,87720,417,430 F,0,87175,87720,1 F,0,87720,88538,1,0
Animation,Foreground,Centre,"SB\lyric\30-1\en-30-1_0000.png",320,240,10,30,LoopForever F,0,134902,,1 S,0,134902,,0.6 M,0,134902,136129,419,374
Animation,Foreground,Centre,"SB\lyric\30-2\en-30-2_0000.png",320,240,10,30,LoopForever S,0,135447,,0.6 M,0,135447,136811,156,164
Animation,Foreground,Centre,"SB\lyric\30-3\en-30-3_0000.png",320,240,10,30,LoopForever S,0,135993,,0.6 M,0,135993,136811,128,404
Animation,Foreground,Centre,"SB\lyric\12\en-12_0000.png",320,240,10,30,LoopForever S,0,136811,,0.8 M,0,136811,137902,439,391
Animation,Foreground,Centre,"SB\lyric\13\en-13_0000.png",320,240,10,30,LoopForever S,0,137902,,0.6 M,0,137902,140084,450,142
Animation,Foreground,Centre,"SB\lyric\14\en-14_0000.png",320,240,10,30,LoopForever S,0,140084,,1 M,0,140084,140902,191,294
Animation,Foreground,Centre,"SB\lyric\34-1\en-34-1_0000.png",320,240,10,30,LoopForever S,0,140902,,0.6 M,0,140902,141175,286,425
Sprite,Foreground,Centre,"SB\lyric\en-34-1-1.png",320,240 S,0,141175,,0.6 M,0,141175,142266,286,425 F,0,142266,143357,1,0
Sprite,Foreground,Centre,"SB\lyric\en-34-1-2.png",320,240 S,0,141175,,0.6 M,0,141175,142266,286,425 F,0,142266,143357,1,0
Sprite,Foreground,Centre,"SB\lyric\en-34-2.png",320,240 S,0,141720,,0.6 M,0,141720,142266,451,425 F,0,142266,143357,1,0
Sprite,Foreground,Centre,"SB\lyric\y1\intro-ja-1.png",320,240 S,0,25538,,0.6 M,0,25538,27720,50,240 M,0,27720,27857,50,240,50,247 F,0,27720,28538,1,0 R,0,27720,28538,0,0.3567487 M,0,27857,27993,50,247,50,263 M,0,27993,28129,50,263,50,290 M,0,28129,28266,50,290,50,321 M,0,28266,28402,50,321,50,360 M,0,28402,28538,50,360,50,408
Sprite,Foreground,Centre,"SB\lyric\y1\intro-ja-2.png",320,240 S,0,25538,,0.6 M,0,25538,28947,104,240 M,0,28947,29084,104,240,104,248 F,0,28947,29766,1,0 R,0,28947,29766,0,-0.4095996 M,0,29084,29220,104,248,104,263 M,0,29220,29357,104,263,104,287 M,0,29357,29493,104,287,104,320 M,0,29493,29629,104,320,104,360 M,0,29629,29766,104,360,104,409
Sprite,Foreground,Centre,"SB\lyric\y1\intro-ja-3.png",320,240 S,0,25538,,0.6 M,0,25538,28129,158,240 M,0,28129,28266,158,240,158,249 F,0,28129,28947,1,0 R,0,28129,28947,0,-0.2114062 M,0,28266,28402,158,249,158,263 M,0,28402,28538,158,263,158,288 M,0,28538,28675,158,288,158,321 M,0,28675,28811,158,321,158,360 M,0,28811,28947,158,360,158,409
Sprite,Foreground,Centre,"SB\lyric\y1\intro-ja-4.png",320,240 S,0,25538,,0.6 M,0,25538,28811,212,240 M,0,28811,28947,212,240,212,248 F,0,28811,29629,1,0 R,0,28811,29629,0,0.4624512 M,0,28947,29084,212,248,212,263 M,0,29084,29220,212,263,212,288 M,0,29220,29357,212,288,212,320 M,0,29357,29493,212,320,212,360 M,0,29493,29629,212,360,212,407
Sprite,Foreground,Centre,"SB\lyric\y1\intro-ja-5.png",320,240 S,0,25538,,0.6 M,0,25538,28538,266,240 M,0,28538,28675,266,240,266,248 F,0,28538,29357,1,0 R,0,28538,29357,0,0.2906836 M,0,28675,28811,266,248,266,264 M,0,28811,28947,266,264,266,288 M,0,28947,29084,266,288,266,321 M,0,29084,29220,266,321,266,358 M,0,29220,29357,266,358,266,407
Sprite,Foreground,Centre,"SB\lyric\y1\intro-ja-6.png",320,240 S,0,25538,,0.6 M,0,25538,27993,320,240 M,0,27993,28129,320,240,320,247 F,0,27993,28811,1,0 R,0,27993,28811,0,0.2906836 M,0,28129,28266,320,247,320,263 M,0,28266,28402,320,263,320,288 M,0,28402,28538,320,288,320,321 M,0,28538,28675,320,321,320,360 M,0,28675,28811,320,360,320,408
Sprite,Foreground,Centre,"SB\lyric\y1\intro-ja-7.png",320,240 S,0,25538,,0.6 M,0,25538,28266,374,240 M,0,28266,28402,374,240,374,248 F,0,28266,29084,1,0 R,0,28266,29084,0,0.1717682 M,0,28402,28538,374,248,374,264 M,0,28538,28675,374,264,374,288 M,0,28675,28811,374,288,374,320 M,0,28811,28947,374,320,374,359 M,0,28947,29084,374,359,374,409
Sprite,Foreground,Centre,"SB\lyric\y1\intro-ja-8.png",320,240 S,0,25538,,0.6 M,0,25538,27857,428,240 M,0,27857,27993,428,240,428,249 F,0,27857,28675,1,0 R,0,27857,28675,0,-0.237832 M,0,27993,28129,428,249,428,263 M,0,28129,28266,428,263,428,288 M,0,28266,28402,428,288,428,320 M,0,28402,28538,428,320,428,358 M,0,28538,28675,428,358,428,408
Sprite,Foreground,Centre,"SB\lyric\y1\intro-ja-9.png",320,240 S,0,25538,,0.6 M,0,25538,28675,482,240 M,0,28675,28811,482,240,482,247 F,0,28675,29493,1,0 R,0,28675,29493,0,-0.5020905 M,0,28811,28947,482,247,482,263 M,0,28947,29084,482,263,482,287 M,0,29084,29220,482,287,482,320 M,0,29220,29357,482,320,482,360 M,0,29357,29493,482,360,482,407
Sprite,Foreground,Centre,"SB\lyric\y1\intro-ja-10-1.png",320,240 S,0,25538,,0.6 M,0,25538,28402,536,240 M,0,28402,28538,536,240,536,247 F,0,28402,29220,1,0 R,0,28402,29220,0,-0.3038965 M,0,28538,28675,536,247,536,263 M,0,28675,28811,536,263,536,289 M,0,28811,28947,536,289,536,321 M,0,28947,29084,536,321,536,360 M,0,29084,29220,536,360,536,407
Sprite,Foreground,Centre,"SB\lyric\y1\intro-ja-11.png",320,240 S,0,25538,,0.6 M,0,25538,29084,590,240 F,0,28947,29902,1,0 R,0,28947,29902,0,0.6474323 M,0,29084,29220,590,240,590,247 M,0,29220,29357,590,247,590,263 M,0,29357,29493,590,263,590,288 M,0,29493,29629,590,288,590,320 M,0,29629,29766,590,320,590,361 M,0,29766,29902,590,361,590,408
Sprite,Foreground,Centre,"SB\lyric\y2\introSECOND-ja-1.png",320,240 S,0,29902,,0.6 M,0,29902,32084,50,240 M,0,32084,32221,50,240,50,247 F,0,32084,32902,1,0 R,0,32084,32902,0,0.4 M,0,32221,32357,50,247,50,263 M,0,32357,32493,50,263,50,290 M,0,32493,32630,50,290,50,321 M,0,32630,32766,50,321,50,360 M,0,32766,32902,50,360,50,408
Sprite,Foreground,Centre,"SB\lyric\y2\introSECOND-ja-2.png",320,240 S,0,29902,,0.6 M,0,29902,33311,104,240 M,0,33311,33448,104,240,104,248 F,0,33311,34130,1,0 R,0,33311,34130,0,-0.4 M,0,33448,33584,104,248,104,263 M,0,33584,33721,104,263,104,287 M,0,33721,33857,104,287,104,320 M,0,33857,33993,104,320,104,360 M,0,33993,34130,104,360,104,409
Sprite,Foreground,Centre,"SB\lyric\y2\introSECOND-ja-3.png",320,240 S,0,29902,,0.6 M,0,29902,32493,158,240 M,0,32493,32630,158,240,158,249 F,0,32493,33311,1,0 R,0,32493,33311,0,-0.4 M,0,32630,32766,158,249,158,263 M,0,32766,32902,158,263,158,288 M,0,32902,33039,158,288,158,321 M,0,33039,33175,158,321,158,360 M,0,33175,33311,158,360,158,409
Sprite,Foreground,Centre,"SB\lyric\y2\introSECOND-ja-4.png",320,240 S,0,29902,,0.6 M,0,29902,33175,212,240 M,0,33175,33311,212,240,212,248 F,0,33175,33993,1,0 R,0,33175,33993,0,0.4 M,0,33311,33448,212,248,212,263 M,0,33448,33584,212,263,212,288 M,0,33584,33721,212,288,212,320 M,0,33721,33857,212,320,212,360 M,0,33857,33993,212,360,212,407
Sprite,Foreground,Centre,"SB\lyric\y2\introSECOND-ja-5.png",320,240 S,0,29902,,0.6 M,0,29902,32902,266,240 M,0,32902,33039,266,240,266,248 F,0,32902,33721,1,0 R,0,32902,33721,0,0.4 M,0,33039,33175,266,248,266,264 M,0,33175,33311,266,264,266,288 M,0,33311,33448,266,288,266,321 M,0,33448,33584,266,321,266,358 M,0,33584,33721,266,358,266,407
Sprite,Foreground,Centre,"SB\lyric\y2\introSECOND-ja-6.png",320,240 S,0,29902,,0.6 M,0,29902,32357,320,240 M,0,32357,32493,320,240,320,247 F,0,32357,33175,1,0 R,0,32357,33175,0,0.4 M,0,32493,32630,320,247,320,263 M,0,32630,32766,320,263,320,288 M,0,32766,32902,320,288,320,321 M,0,32902,33039,320,321,320,360 M,0,33039,33175,320,360,320,408
Sprite,Foreground,Centre,"SB\lyric\y2\introSECOND-ja-7.png",320,240 S,0,29902,,0.6 M,0,29902,32630,374,240 M,0,32630,32766,374,240,374,248 F,0,32630,33448,1,0 R,0,32630,33448,0,0.4 M,0,32766,32902,374,248,374,264 M,0,32902,33039,374,264,374,288 M,0,33039,33175,374,288,374,320 M,0,33175,33311,374,320,374,359 M,0,33311,33448,374,359,374,409
Sprite,Foreground,Centre,"SB\lyric\y2\introSECOND-ja-8.png",320,240 S,0,29902,,0.6 M,0,29902,32221,428,240 M,0,32221,32357,428,240,428,249 F,0,32221,33039,1,0 R,0,32221,33039,0,-0.4 M,0,32357,32493,428,249,428,263 M,0,32493,32630,428,263,428,288 M,0,32630,32766,428,288,428,320 M,0,32766,32902,428,320,428,358 M,0,32902,33039,428,358,428,408
Sprite,Foreground,Centre,"SB\lyric\y2\introSECOND-ja-9.png",320,240 S,0,29902,,0.6 M,0,29902,33039,482,240 M,0,33039,33175,482,240,482,247 F,0,33039,33857,1,0 R,0,33039,33857,0,-0.4 M,0,33175,33311,482,247,482,263 M,0,33311,33448,482,263,482,287 M,0,33448,33584,482,287,482,320 M,0,33584,33721,482,320,482,360 M,0,33721,33857,482,360,482,407
Sprite,Foreground,Centre,"SB\lyric\y2\introSECOND-ja-10-1.png",320,240 S,0,29902,,0.6 M,0,29902,32766,536,240 M,0,32766,32902,536,240,536,247 F,0,32766,33584,1,0 R,0,32766,33584,0,-0.4 M,0,32902,33039,536,247,536,263 M,0,33039,33175,536,263,536,289 M,0,33175,33311,536,289,536,321 M,0,33311,33448,536,321,536,360 M,0,33448,33584,536,360,536,407
Sprite,Foreground,Centre,"SB\lyric\y2\introSECOND-ja-11.png",320,240 S,0,29902,,0.6 M,0,29902,33448,590,240 F,0,33311,34266,1,0 R,0,33311,34266,0,0.4 M,0,33448,33584,590,240,590,247 M,0,33584,33721,590,247,590,263 M,0,33721,33857,590,263,590,288 M,0,33857,33993,590,288,590,320 M,0,33993,34130,590,320,590,361 M,0,34130,34266,590,361,590,408
Sprite,Foreground,Centre,"SB\lyric\y2\introSECOND-ja-1.png",320,240 S,0,143357,,0.6 M,0,143357,145539,50,240 M,0,145539,145676,50,240,50,247 F,0,145539,146357,1,0 R,0,145539,146357,0,0.4 M,0,145676,145812,50,247,50,263 M,0,145812,145948,50,263,50,290 M,0,145948,146085,50,290,50,321 M,0,146085,146221,50,321,50,360 M,0,146221,146357,50,360,50,408
Sprite,Foreground,Centre,"SB\lyric\y2\introSECOND-ja-2.png",320,240 S,0,143357,,0.6 M,0,143357,146766,104,240 M,0,146766,146903,104,240,104,248 F,0,146766,147585,1,0 R,0,146766,147585,0,-0.4 M,0,146903,147039,104,248,104,263 M,0,147039,147176,104,263,104,287 M,0,147176,147312,104,287,104,320 M,0,147312,147448,104,320,104,360 M,0,147448,147585,104,360,104,409
Sprite,Foreground,Centre,"SB\lyric\y2\introSECOND-ja-3.png",320,240 S,0,143357,,0.6 M,0,143357,145948,158,240 M,0,145948,146085,158,240,158,249 F,0,145948,146766,1,0 R,0,145948,146766,0,-0.4 M,0,146085,146221,158,249,158,263 M,0,146221,146357,158,263,158,288 M,0,146357,146494,158,288,158,321 M,0,146494,146630,158,321,158,360 M,0,146630,146766,158,360,158,409
Sprite,Foreground,Centre,"SB\lyric\y2\introSECOND-ja-4.png",320,240 S,0,143357,,0.6 M,0,143357,146630,212,240 M,0,146630,146766,212,240,212,248 F,0,146630,147448,1,0 R,0,146630,147448,0,0.4 M,0,146766,146903,212,248,212,263 M,0,146903,147039,212,263,212,288 M,0,147039,147176,212,288,212,320 M,0,147176,147312,212,320,212,360 M,0,147312,147448,212,360,212,407
Sprite,Foreground,Centre,"SB\lyric\y2\introSECOND-ja-5.png",320,240 S,0,143357,,0.6 M,0,143357,146357,266,240 M,0,146357,146494,266,240,266,248 F,0,146357,147176,1,0 R,0,146357,147176,0,0.4 M,0,146494,146630,266,248,266,264 M,0,146630,146766,266,264,266,288 M,0,146766,146903,266,288,266,321 M,0,146903,147039,266,321,266,358 M,0,147039,147176,266,358,266,407
Sprite,Foreground,Centre,"SB\lyric\y2\introSECOND-ja-6.png",320,240 S,0,143357,,0.6 M,0,143357,145812,320,240 M,0,145812,145948,320,240,320,247 F,0,145812,146630,1,0 R,0,145812,146630,0,0.4 M,0,145948,146085,320,247,320,263 M,0,146085,146221,320,263,320,288 M,0,146221,146357,320,288,320,321 M,0,146357,146494,320,321,320,360 M,0,146494,146630,320,360,320,408
Sprite,Foreground,Centre,"SB\lyric\y2\introSECOND-ja-7.png",320,240 S,0,143357,,0.6 M,0,143357,146085,374,240 M,0,146085,146221,374,240,374,248 F,0,146085,146903,1,0 R,0,146085,146903,0,0.4 M,0,146221,146357,374,248,374,264 M,0,146357,146494,374,264,374,288 M,0,146494,146630,374,288,374,320 M,0,146630,146766,374,320,374,359 M,0,146766,146903,374,359,374,409
Sprite,Foreground,Centre,"SB\lyric\y2\introSECOND-ja-8.png",320,240 S,0,143357,,0.6 M,0,143357,145676,428,240 M,0,145676,145812,428,240,428,249 F,0,145676,146494,1,0 R,0,145676,146494,0,-0.4 M,0,145812,145948,428,249,428,263 M,0,145948,146085,428,263,428,288 M,0,146085,146221,428,288,428,320 M,0,146221,146357,428,320,428,358 M,0,146357,146494,428,358,428,408
Sprite,Foreground,Centre,"SB\lyric\y2\introSECOND-ja-9.png",320,240 S,0,143357,,0.6 M,0,143357,146494,482,240 M,0,146494,146630,482,240,482,247 F,0,146494,147312,1,0 R,0,146494,147312,0,-0.4 M,0,146630,146766,482,247,482,263 M,0,146766,146903,482,263,482,287 M,0,146903,147039,482,287,482,320 M,0,147039,147176,482,320,482,360 M,0,147176,147312,482,360,482,407
Sprite,Foreground,Centre,"SB\lyric\y2\introSECOND-ja-10-1.png",320,240 S,0,143357,,0.6 M,0,143357,146221,536,240 M,0,146221,146357,536,240,536,247 F,0,146221,147039,1,0 R,0,146221,147039,0,-0.4 M,0,146357,146494,536,247,536,263 M,0,146494,146630,536,263,536,289 M,0,146630,146766,536,289,536,321 M,0,146766,146903,536,321,536,360 M,0,146903,147039,536,360,536,407
Sprite,Foreground,Centre,"SB\lyric\y2\introSECOND-ja-11.png",320,240 S,0,143357,,0.6 M,0,143357,146903,590,240 F,0,146766,147721,1,0 R,0,146766,147721,0,0.4 M,0,146903,147039,590,240,590,247 M,0,147039,147176,590,247,590,263 M,0,147176,147312,590,263,590,288 M,0,147312,147448,590,288,590,320 M,0,147448,147585,590,320,590,361 M,0,147585,147721,590,361,590,408
Sprite,Foreground,Centre,"SB\lyric\z\outroSECOND-ja-1.png",320,240 S,0,147720,,0.6 M,0,147720,150993,104,240 M,0,150993,151130,104,240,104,248 F,0,150993,151812,1,0 R,0,150993,151812,0,-0.4 M,0,151130,151266,104,248,104,263 M,0,151266,151403,104,263,104,287 M,0,151403,151539,104,287,104,320 M,0,151539,151675,104,320,104,360 M,0,151675,151812,104,360,104,409
Sprite,Foreground,Centre,"SB\lyric\z\outroSECOND-ja-2.png",320,240 S,0,147720,,0.6 M,0,147720,150175,158,240 M,0,150175,150312,158,240,158,249 F,0,150175,150993,1,0 R,0,150175,150993,0,-0.4 M,0,150312,150448,158,249,158,263 M,0,150448,150584,158,263,158,288 M,0,150584,150721,158,288,158,321 M,0,150721,150857,158,321,158,360 M,0,150857,150993,158,360,158,409
Sprite,Foreground,Centre,"SB\lyric\z\outroSECOND-ja-3.png",320,240 S,0,147720,,0.6 M,0,147720,150857,212,240 M,0,150857,150993,212,240,212,248 F,0,150857,151675,1,0 R,0,150857,151675,0,0.4 M,0,150993,151130,212,248,212,263 M,0,151130,151266,212,263,212,288 M,0,151266,151403,212,288,212,320 M,0,151403,151539,212,320,212,360 M,0,151539,151675,212,360,212,407
Sprite,Foreground,Centre,"SB\lyric\z\outroSECOND-ja-4.png",320,240 S,0,147720,,0.6 M,0,147720,150584,266,240 M,0,150584,150721,266,240,266,248 F,0,150584,151403,1,0 R,0,150584,151403,0,0.4 M,0,150721,150857,266,248,266,264 M,0,150857,150993,266,264,266,288 M,0,150993,151130,266,288,266,321 M,0,151130,151266,266,321,266,358 M,0,151266,151403,266,358,266,407
Sprite,Foreground,Centre,"SB\lyric\z\outroSECOND-ja-5.png",320,240 S,0,147720,,0.6 M,0,147720,150039,320,240 M,0,150039,150175,320,240,320,247 F,0,150039,150857,1,0 R,0,150039,150857,0,0.4 M,0,150175,150312,320,247,320,263 M,0,150312,150448,320,263,320,288 M,0,150448,150584,320,288,320,321 M,0,150584,150721,320,321,320,360 M,0,150721,150857,320,360,320,408
Sprite,Foreground,Centre,"SB\lyric\z\outroSECOND-ja-6.png",320,240 S,0,147720,,0.6 M,0,147720,150312,374,240 M,0,150312,150448,374,240,374,248 F,0,150312,151130,1,0 R,0,150312,151130,0,0.4 M,0,150448,150584,374,248,374,264 M,0,150584,150721,374,264,374,288 M,0,150721,150857,374,288,374,320 M,0,150857,150993,374,320,374,359 M,0,150993,151130,374,359,374,409
Sprite,Foreground,Centre,"SB\lyric\z\outroSECOND-ja-7.png",320,240 S,0,147720,,0.6 M,0,147720,149903,428,240 M,0,149903,150039,428,240,428,249 F,0,149903,150721,1,0 R,0,149903,150721,0,-0.4 M,0,150039,150175,428,249,428,263 M,0,150175,150312,428,263,428,288 M,0,150312,150448,428,288,428,320 M,0,150448,150584,428,320,428,358 M,0,150584,150721,428,358,428,408
Sprite,Foreground,Centre,"SB\lyric\z\outroSECOND-ja-8.png",320,240 S,0,147720,,0.6 M,0,147720,150721,482,240 M,0,150721,150857,482,240,482,247 F,0,150721,151539,1,0 R,0,150721,151539,0,-0.4 M,0,150857,150993,482,247,482,263 M,0,150993,151130,482,263,482,287 M,0,151130,151266,482,287,482,320 M,0,151266,151403,482,320,482,360 M,0,151403,151539,482,360,482,407
Sprite,Foreground,Centre,"SB\lyric\z\outroSECOND-ja-9.png",320,240 S,0,147720,,0.6 M,0,147720,150448,536,240 M,0,150448,150584,536,240,536,247 F,0,150448,151266,1,0 R,0,150448,151266,0,-0.4 M,0,150584,150721,536,247,536,263 M,0,150721,150857,536,263,536,289 M,0,150857,150993,536,289,536,321 M,0,150993,151130,536,321,536,360 M,0,151130,151266,536,360,536,407
Sprite,Foreground,Centre,"SB\lyric\y1\intro-en1.png",320,240 S,0,25538,,0.8 M,0,25538,27720,320,280 F,0,27720,27993,1,0
Sprite,Foreground,Centre,"SB\lyric\y2\intro-en2.png",320,240 M,0,29902,,320,280 S,0,29902,,0.8 F,0,32084,32357,1,0
Sprite,Foreground,Centre,"SB\lyric\z\outro-en1.png",320,240 M,0,143357,,320,280 S,0,143357,,0.8 F,0,145538,145811,1,0
Sprite,Foreground,Centre,"SB\lyric\z\outro-en2.png",320,240 M,0,147720,,320,280 S,0,147720,,0.8 F,0,149902,150175,1,0
Sprite,Foreground,Centre,"SB\lyric\ja-34-1-1.png",320,240 S,0,141174,,0.8 M,0,141174,143356,343,393 F,0,142265,143356,1,0
//Storyboard Sound Samples
//Background Colour Transformations
3,100,163,162,255

[TimingPoints]
2629,272.727272727273,4,1,1,50,1,0
20083,291.26213592233,4,1,1,50,1,0
21248,288.461538461538,4,1,1,50,1,0
23356,272.727272727273,4,2,1,30,1,0
23356,-200,4,2,1,30,0,0
24446,-200,4,1,1,50,0,0
25537,-117.647058823529,4,1,1,50,0,0
25810,-117.647058823529,4,2,1,50,0,0
26492,-117.647058823529,4,1,1,50,0,0
26765,-117.647058823529,4,2,1,50,0,0
27719,-117.647058823529,4,1,1,50,0,0
27992,-117.647058823529,4,2,1,50,0,0
28674,-117.647058823529,4,1,1,50,0,0
28946,-117.647058823529,4,2,1,50,0,0
29901,-117.647058823529,4,1,1,50,0,0
30174,-117.647058823529,4,2,1,50,0,0
30856,-117.647058823529,4,1,1,50,0,0
31128,-117.647058823529,4,2,1,50,0,0
32083,-117.647058823529,4,1,1,50,0,0
32356,-117.647058823529,4,2,1,50,0,0
33174,-117.647058823529,4,1,1,30,0,0
34265,-117.647058823529,4,1,1,60,0,0
42583,-117.647058823529,4,1,1,40,0,0
42992,-117.647058823529,4,1,1,60,0,0
51719,-117.647058823529,4,2,1,60,0,0
53492,-117.647058823529,4,2,1,80,0,0
53628,-200,4,2,1,60,0,0
70265,-100,4,2,1,60,0,0
71356,-100,4,1,1,60,0,1
78992,-100,4,1,1,40,0,0
80083,-100,4,1,1,60,0,1
86628,-117.647058823529,4,1,1,60,0,0
87719,-117.647058823529,4,2,1,5,0,0
88810,-117.647058823529,4,1,1,60,0,0
97537,-117.647058823529,4,2,1,60,0,0
99310,-117.647058823529,4,2,1,80,0,0
99446,-200,4,2,1,60,0,0
116083,-100,4,2,1,60,0,0
117174,-133.333333333333,4,1,1,60,0,1
123719,-200,4,1,1,60,0,0
126174,-100,4,1,1,60,0,1
127810,-200,4,1,1,60,0,0
128356,-100,4,1,1,60,0,1
129992,-200,4,2,1,60,0,0
130265,-100,4,1,1,60,0,1
133537,-100,4,1,1,60,0,0
134628,-100,4,1,1,60,0,1
141174,-100,4,1,1,60,0,0
142265,-117.647058823529,4,1,1,60,0,1
143356,-117.647058823529,4,1,1,60,0,0
160810,-117.647058823529,4,1,1,60,0,1
167356,-117.647058823529,4,1,1,60,0,0
168446,-117.647058823529,4,1,1,60,0,1
169537,-117.647058823529,4,2,1,60,0,0
171310,-117.647058823529,4,2,1,80,0,0
171446,-117.647058823529,4,2,1,60,0,0

[Colours]
Combo1 : 255,255,255
Combo2 : 72,255,72
Combo3 : 255,128,0
Combo4 : 255,32,32
Combo5 : 0,128,255
Combo6 : 255,85,255
Combo7 : 0,183,0
Combo8 : 176,112,77

[HitObjects]
178,296,23356,6,0,L|189:357,1,47.5,0|0,1:0|1:0,0:0:0:0:
87,297,23629,2,0,L|76:236,1,47.5,0|0,1:0|1:0,0:0:0:0:
179,156,23901,2,0,L|190:217,1,47.5,0|0,1:0|1:0,0:0:0:0:
88,157,24174,2,0,L|77:96,1,47.5,0|0,1:0|1:0,0:0:0:0:
268,136,24447,54,0,P|314:141|373:135,1,95
362,137,24856,1,0,0:0:0:0:
481,54,24992,2,0,P|435:49|376:55,1,95
387,54,25538,54,2,L|401:206,1,121.125002310276,6|0,0:0|2:0,0:0:0:0:
398,174,25810,2,0,P|372:217|344:238,1,80.750001540184
122,237,26083,2,2,P|170:226|214:235,1,80.750001540184,0|2,0:0|0:2,0:0:0:0:
173,329,26356,1,0,0:0:0:0:
62,332,26492,54,0,P|28:288|39:174,1,161.500003080368,0|0,2:0|0:0,0:0:0:0:
207,174,26901,1,0,0:0:0:0:
122,237,27038,1,0,0:0:0:0:
112,131,27174,1,0,0:0:0:0:
196,69,27310,2,2,L|288:78,1,80.750001540184,0|2,0:2|0:0,0:0:0:0:
276,76,27583,1,0,1:0:0:0:
474,203,27719,54,0,L|325:186,1,121.125002310276,4|0,0:0|2:0,0:0:0:0:
353,189,27992,2,0,P|345:240|344:271,1,80.750001540184
210,352,28265,2,2,P|218:301|219:270,1,80.750001540184,0|2,0:0|0:0,0:0:0:0:
122,237,28538,1,0,0:0:0:0:
202,156,28674,54,0,P|147:126|40:159,1,161.500003080368,0|0,2:0|0:0,0:0:0:0:
109,346,29083,1,0,0:0:0:0:
122,237,29219,1,0,0:0:0:0:
24,280,29356,1,0,0:0:0:0:
205,300,29492,1,0,1:0:0:0:
205,300,29560,1,2,0:0:0:0:
205,300,29629,2,0,P|258:305|301:304,1,80.750001540184,0|0,0:1|1:0,0:0:0:0:
405,236,29901,54,2,L|393:85,1,121.125002310276,6|0,0:0|2:0,0:0:0:0:
395,115,30174,2,0,P|432:121|485:125,1,80.750001540184
308,124,30447,2,2,P|266:118|215:118,1,80.750001540184,0|2,0:0|0:0,0:0:0:0:
405,236,30719,1,0,0:0:0:0:
330,351,30856,54,0,P|283:367|163:310,1,161.500003080368,0|0,2:0|0:0,0:0:0:0:
125,141,31265,2,0,P|145:196|142:236,1,80.750001540184
9,362,31538,2,2,P|46:326|80:313,1,80.750001540184,0|0,0:0|0:0,0:0:0:0:
223,250,31810,1,2,0:0:0:0:
72,314,31947,1,0,1:0:0:0:
31,159,32083,54,0,L|61:39,1,121.125002310276,0|0,0:0|2:0,0:0:0:0:
60,41,32356,2,0,P|106:52|149:49,1,80.750001540184
349,69,32629,2,0,P|297:86|264:89,1,80.750001540184
115,224,32901,2,2,P|143:176|173:149,1,80.750001540184,0|2,0:0|0:0,0:0:0:0:
160,158,33310,53,2,0:0:0:0:
322,193,33447,1,0,0:0:0:0:
223,317,33583,1,2,0:0:0:0:
264,33,33719,1,0,0:0:0:0:
264,33,34265,54,0,L|253:204,1,161.500003080368,4|8,0:0|0:0,0:0:0:0:
253,194,34674,1,0,0:0:0:0:
344,141,34810,2,0,P|383:131|445:139,1,80.750001540184
391,306,35083,2,0,P|349:296|310:263,1,80.750001540184,8|0,0:0|0:0,0:0:0:0:
153,199,35356,54,0,P|166:250|111:349,1,161.500003080368,0|8,0:0|0:0,0:0:0:0:
63,247,35765,1,0,0:0:0:0:
253,194,35901,2,2,P|265:246|255:291,1,80.750001540184,0|2,1:0|0:2,0:0:0:0:
49,157,36174,2,0,P|37:105|47:60,1,80.750001540184,8|0,0:0|0:2,0:0:0:0:
280,81,36447,54,0,B|222:91|222:91|189:131|189:131|122:146,1,161.500003080368,4|8,0:0|0:0,0:0:0:0:
135,46,36856,1,0,0:0:0:0:
295,177,36992,2,0,L|395:157,1,80.750001540184
478,233,37265,1,8,0:0:0:0:
423,335,37401,1,0,0:0:0:0:
326,270,37538,54,0,L|311:357,1,80.750001540184,4|0,0:0|0:0,0:0:0:0:
222,191,37810,2,0,L|225:296,1,80.750001540184,2|4,0:2|0:2,0:0:0:0:
111,128,38083,2,0,L|119:220,1,80.750001540184,4|2,0:0|0:2,0:0:0:0:
2,68,38356,2,0,L|18:158,1,80.750001540184,4|0,0:2|0:2,0:0:0:0:
190,56,38629,54,0,P|256:51|333:129,1,161.500003080368,4|8,0:0|0:0,0:0:0:0:
303,256,39038,1,0,0:0:0:0:
149,287,39174,2,0,P|122:242|118:199,1,80.750001540184
233,154,39447,1,8,0:0:0:0:
235,313,39583,1,0,0:0:0:0:
384,356,39719,54,0,P|432:342|500:234,1,161.500003080368,0|8,0:0|0:0,0:0:0:0:
233,154,40129,2,2,P|224:205|231:247,1,80.750001540184,0|0,0:0|0:0,0:0:0:0:
364,220,40401,1,2,0:2:0:0:
401,92,40538,2,0,P|350:86|307:103,1,80.750001540184,8|0,0:0|0:0,0:0:0:0:
138,163,40810,54,0,P|106:121|-9:98,1,161.500003080368,4|8,0:0|0:0,0:0:0:0:
34,226,41219,1,0,0:0:0:0:
89,337,41356,2,0,P|126:306|143:263,1,80.750001540184
239,46,41629,2,0,P|233:88|229:148,1,80.750001540184,8|0,0:0|0:0,0:0:0:0:
333,362,41901,54,0,P|341:315|349:185,1,161.500003080368,4|2,0:0|0:2,0:0:0:0:
433,333,42310,2,0,P|478:341|518:346,1,80.750001540184,4|0,0:2|0:0,0:0:0:0:
244,336,42583,1,0,0:0:0:0:
229,329,42651,1,0,0:0:0:0:
213,325,42719,1,0,0:0:0:0:
196,324,42788,1,0,0:0:0:0:
179,325,42856,1,0,0:0:0:0:
162,326,42924,1,0,0:0:0:0:
146,329,42992,54,0,P|136:274|135:226,1,80.750001540184,4|0,0:0|0:0,0:0:0:0:
80,47,43265,2,0,P|93:90|96:129,1,80.750001540184,8|0,0:0|0:0,0:0:0:0:
248,231,43538,2,0,P|298:218|427:214,1,161.500003080368,0|8,0:0|0:0,0:0:0:0:
407,211,43947,1,0,0:0:0:0:
439,308,44083,54,0,P|401:310|349:294,1,80.750001540184
381,116,44356,2,0,P|419:114|471:130,1,80.750001540184,8|0,0:0|0:0,0:0:0:0:
297,177,44629,1,0,0:0:0:0:
309,80,44765,1,2,0:2:0:0:
208,126,44901,1,8,0:0:0:0:
225,31,45038,1,0,0:0:0:0:
129,68,45174,54,0,P|81:70|-4:160,1,161.500003080368,4|8,0:0|0:0,0:0:0:0:
83,248,45583,1,0,0:0:0:0:
169,197,45719,2,0,P|147:172|104:155,1,80.750001540184
107,350,45992,2,0,P|146:328|172:291,1,80.750001540184,8|0,0:0|0:0,0:0:0:0:
291,51,46265,54,0,P|272:97|266:141,1,80.750001540184
301,355,46538,2,0,P|308:310|306:262,1,80.750001540184,2|4,0:2|0:2,0:0:0:0:
370,135,46810,2,0,P|418:125|468:123,1,80.750001540184,4|2,0:0|0:2,0:0:0:0:
422,208,47083,1,4,0:2:0:0:
422,208,47356,54,0,P|413:115|411:32,1,161.500003080368,4|8,0:0|0:0,0:0:0:0:
411,46,47765,1,0,0:0:0:0:
342,261,47901,2,0,P|294:280|251:283,1,80.750001540184
55,225,48174,2,0,P|105:239|140:245,1,80.750001540184,8|0,0:0|0:0,0:0:0:0:
317,77,48447,54,0,P|274:58|156:110,1,161.500003080368,0|8,0:0|0:0,0:0:0:0:
221,222,48856,1,0,0:0:0:0:
339,162,48992,2,2,L|428:150,1,80.750001540184,0|2,0:0|0:2,0:0:0:0:
145,176,49265,2,0,L|56:164,1,80.750001540184,8|0,0:0|0:0,0:0:0:0:
253,312,49538,1,4,0:0:0:0:
421,70,49810,54,0,P|422:101|419:151,1,80.750001540184,8|0,0:0|0:0,0:0:0:0:
253,312,50083,2,0,P|249:263|249:130,1,161.500003080368,0|8,0:0|0:0,0:0:0:0:
364,329,50492,1,0,0:0:0:0:
150,354,50629,54,0,P|98:336|64:305,1,80.750001540184,0|0,0:0|0:0,0:0:0:0:
58,178,50901,1,2,0:2:0:0:
114,60,51038,1,4,0:2:0:0:
204,145,51174,1,0,0:0:0:0:
156,259,51310,1,0,0:0:0:0:
45,98,51447,53,0,0:0:0:0:
45,98,51515,1,0,0:0:0:0:
45,98,51583,1,0,0:0:0:0:
45,98,51651,1,0,0:0:0:0:
45,98,51719,2,0,L|59:182,1,80.750001540184,0|0,1:0|0:0,0:0:0:0:
195,225,51992,2,0,L|204:145,1,80.750001540184,0|0,1:0|1:0,0:0:0:0:
127,268,52265,1,0,1:0:0:0:
144,364,52401,1,0,1:0:0:0:
291,339,52538,1,0,1:0:0:0:
46,323,52810,54,0,P|99:311|212:305,1,161.500003080368,2|0,1:2|0:0,0:0:0:0:
205,304,53219,2,0,P|217:243|218:197,1,80.750001540184,2|0,1:2|0:0,0:0:0:0:
114,110,53492,2,2,P|102:171|101:217,1,80.750001540184,0|2,0:0|1:2,0:0:0:0:
101,189,53901,53,0,1:0:0:0:
360,335,54174,2,0,L|371:280,1,47.5,0|2,0:0|0:2,0:0:0:0:
311,164,54447,2,0,L|322:219,1,47.5,0|0,0:0|0:0,0:0:0:0:
404,192,54719,1,0,1:0:0:0:
488,175,54856,1,0,0:0:0:0:
487,89,54992,54,0,P|422:99|380:87,1,95,0|0,1:0|1:0,0:0:0:0:
219,74,55401,2,2,P|284:64|326:76,1,95,2|0,0:2|0:0,0:0:0:0:
311,70,55810,1,0,1:0:0:0:
51,299,56083,54,0,L|35:197,1,95,0|0,1:0|0:0,0:0:0:0:
121,213,56492,2,2,P|161:219|224:217,1,95,2|0,0:2|0:0,0:0:0:0:
300,204,56901,1,0,1:0:0:0:
357,140,57038,1,0,0:0:0:0:
385,221,57174,54,0,P|392:261|385:318,1,95,0|0,1:0|1:0,0:0:0:0:
276,381,57583,2,2,P|269:341|276:284,1,95,0|2,0:0|0:0,0:0:0:0:
172,178,57992,2,0,P|179:218|172:275,1,95,0|0,1:0|1:0,0:0:0:0:
38,77,58538,54,0,L|86:67,1,47.5,0|2,0:0|0:0,0:0:0:0:
304,141,58810,2,0,L|256:131,1,47.5,0|0,0:0|0:0,0:0:0:0:
171,138,59083,1,0,1:0:0:0:
184,53,59219,1,0,0:0:0:0:
269,50,59356,54,0,P|319:50|374:36,1,95,0|0,1:0|1:0,0:0:0:0:
489,124,59765,2,2,P|439:124|384:138,1,95,2|0,0:0|0:0,0:0:0:0:
395,133,60174,1,0,1:0:0:0:
423,352,60447,54,0,L|437:253,1,95,0|0,1:0|0:0,0:0:0:0:
349,253,60856,2,2,P|310:270|242:277,1,95,2|0,0:0|0:0,0:0:0:0:
190,224,61265,1,0,1:0:0:0:
190,224,61401,1,0,0:0:0:0:
108,248,61538,54,0,P|104:289|113:344,1,95,0|0,1:0|1:0,0:0:0:0:
53,187,61947,2,2,P|57:146|48:91,1,95,0|0,1:0|1:2,0:0:0:0:
186,144,62356,1,2,1:2:0:0:
186,144,62629,54,2,B|268:168|288:88|382:111,1,190,0|2,1:0|0:2,0:0:0:0:
368,108,63310,1,0,0:0:0:0:
458,146,63447,2,0,L|452:196,1,47.5,0|0,1:0|0:0,0:0:0:0:
360,296,63719,54,0,P|354:259|359:196,1,95,0|0,1:0|1:0,0:0:0:0:
454,276,64129,2,2,P|460:313|455:376,1,95,2|0,0:0|0:0,0:0:0:0:
456,370,64538,1,0,1:0:0:0:
277,303,64810,54,0,P|229:302|180:324,1,95,0|0,1:0|0:0,0:0:0:0:
61,206,65219,2,2,P|109:205|158:227,1,95,2|0,0:0|0:0,0:0:0:0:
236,209,65629,1,0,1:0:0:0:
236,209,65765,1,0,0:0:0:0:
199,130,65901,54,0,L|229:29,1,95,0|0,1:0|1:0,0:0:0:0:
466,136,66447,2,2,P|421:140|360:124,1,95,0|2,0:0|1:2,0:0:0:0:
372,129,66856,1,0,0:0:0:0:
307,238,66992,54,0,P|352:234|413:250,1,95,0|0,1:0|0:0,0:0:0:0:
400,244,67401,1,0,0:0:0:0:
498,275,67538,2,2,L|487:378,1,95,2|0,0:0|1:0,0:0:0:0:
75,242,68083,53,0,1:0:0:0:
57,158,68219,1,0,0:0:0:0:
139,135,68356,1,0,1:0:0:0:
159,217,68492,2,2,P|164:257|159:313,1,95,2|0,0:0|0:0,0:0:0:0:
246,349,68901,2,0,P|244:313|247:292,1,47.5,0|0,1:0|0:0,0:0:0:0:
424,320,69174,54,0,L|324:331,1,95,0|0,1:0|0:0,0:0:0:0:
329,330,69583,1,2,0:0:0:0:
349,250,69719,2,2,P|351:214|348:193,1,47.5,0|2,0:0|0:0,0:0:0:0:
260,157,69992,2,0,P|258:193|261:214,1,47.5,0|0,1:0|0:0,0:0:0:0:
430,163,70265,21,2,1:0:0:0:
172,160,70401,2,2,P|171:201|191:265,1,95,0|2,1:0|1:0,0:0:0:0:
350,118,70674,1,2,1:0:0:0:
350,118,71219,1,2,0:2:0:0:
63,91,71356,102,0,P|23:127|4:186,1,95,4|0,0:0|0:2,0:0:0:0:
251,113,71629,2,0,P|211:79|146:71,1,95,8|2,0:0|0:2,0:0:0:0:
157,366,71901,2,0,P|187:306|142:182,1,190,0|8,0:0|0:0,0:0:0:0:
78,285,72310,1,2,0:2:0:0:
284,351,72447,54,0,L|388:341,1,95,4|0,0:0|0:2,0:0:0:0:
134,185,72719,2,0,L|39:199,1,95,8|2,0:0|0:2,0:0:0:0:
225,219,72992,1,0,0:0:0:0:
167,103,73129,1,2,0:2:0:0:
163,278,73265,1,8,0:0:0:0:
318,210,73401,1,2,0:2:0:0:
433,315,73538,54,0,P|472:265|456:130,1,190,4|8,0:0|0:0,0:0:0:0:
465,143,73947,1,2,0:2:0:0:
318,210,74083,2,0,P|262:222|205:202,1,95
355,23,74356,2,0,P|376:73|369:126,1,95,8|2,0:0|0:2,0:0:0:0:
163,100,74629,54,0,L|288:75,1,95,4|0,0:0|0:0,0:0:0:0:
252,332,74901,2,0,L|127:357,1,95,2|4,0:2|0:2,0:0:0:0:
67,154,75174,2,0,P|49:95|49:46,1,95,4|2,0:0|0:2,0:0:0:0:
80,259,75447,2,0,P|61:308|20:346,1,95,4|0,0:2|0:0,0:0:0:0:
163,100,75719,54,0,P|212:68|286:63,1,95,4|0,0:0|0:0,0:0:0:0:
169,295,75992,2,0,P|200:321|253:333,1,95,8|2,0:0|0:2,0:0:0:0:
474,350,76265,2,0,P|437:228|390:195,1,190,0|8,0:0|0:0,0:0:0:0:
389,194,76674,1,2,0:2:0:0:
342,384,76810,54,0,P|361:338|356:281,1,95,4|0,0:0|0:0,0:0:0:0:
211,163,77083,2,0,P|247:205|284:220,1,95,8|2,0:0|0:2,0:0:0:0:
498,188,77356,1,0,0:0:0:0:
429,64,77492,1,2,0:2:0:0:
304,138,77629,1,8,0:0:0:0:
374,260,77765,1,2,0:2:0:0:
429,64,77901,54,0,P|366:31|247:60,1,190,4|8,0:0|0:0,0:0:0:0:
253,54,78310,1,2,0:2:0:0:
379,258,78447,2,0,P|422:211|428:168,1,95
263,282,78719,1,8,0:0:0:0:
341,356,78856,1,2,0:2:0:0:
305,192,78992,53,4,0:0:0:0:
171,305,79129,1,0,0:0:0:0:
153,311,79197,1,0,0:0:0:0:
133,308,79265,1,0,0:0:0:0:
115,301,79333,1,0,0:0:0:0:
100,288,79401,1,0,0:0:0:0:
49,201,79538,1,4,0:0:0:0:
140,171,79674,1,0,0:0:0:0:
155,81,79810,1,0,0:0:0:0:
173,85,79879,1,0,0:0:0:0:
191,82,79947,1,0,0:0:0:0:
209,76,80015,1,0,0:0:0:0:
225,66,80083,6,0,B|237:115|237:115|227:160,1,95,4|0,0:0|0:0,0:0:0:0:
192,259,80356,1,8,0:0:0:0:
378,300,80492,1,2,0:2:0:0:
287,346,80629,2,0,B|275:297|275:297|285:252,1,95
469,188,80901,2,0,L|365:206,1,95,8|2,0:0|0:2,0:0:0:0:
141,331,81174,54,0,P|82:325|10:209,1,190,4|8,0:0|0:0,0:0:0:0:
9,225,81583,1,2,0:2:0:0:
267,272,81719,2,0,P|248:307|233:360,1,95,0|2,0:0|0:2,0:0:0:0:
125,219,81992,2,0,P|110:166|91:130,1,95,8|2,0:0|0:2,0:0:0:0:
236,115,82265,54,0,P|296:116|418:58,1,190,4|8,0:0|0:0,0:0:0:0:
412,63,82674,1,2,0:2:0:0:
360,290,82810,2,0,B|349:241|349:241|366:186,1,95
455,262,83083,1,8,0:0:0:0:
363,375,83219,1,2,0:2:0:0:
239,268,83356,54,0,L|123:245,1,95,4|0,0:0|0:0,0:0:0:0:
275,90,83629,2,0,B|286:139|286:139|269:194,1,95,2|4,0:2|0:2,0:0:0:0:
50,289,83901,2,0,B|39:240|39:240|56:185,1,95,4|2,0:0|0:2,0:0:0:0:
52,197,84106,1,0,0:0:0:0:
52,197,84174,1,4,0:2:0:0:
14,95,84310,1,0,0:0:0:0:
52,197,84447,54,0,L|166:172,1,95,4|0,0:0|0:0,0:0:0:0:
318,74,84719,2,0,L|204:99,1,95,8|2,0:0|0:2,0:0:0:0:
81,351,84992,2,0,B|140:333|140:333|175:277|175:277|241:263,1,190,0|8,0:0|0:0,0:0:0:0:
235,264,85401,1,2,0:2:0:0:
304,42,85538,54,0,P|300:91|309:135,1,95,4|0,0:0|0:0,0:0:0:0:
320,335,85810,2,0,P|336:288|338:243,1,95,8|2,0:0|0:2,0:0:0:0:
401,90,86083,2,0,L|495:74,1,95
235,264,86356,2,0,L|125:290,1,95,8|2,0:0|0:2,0:0:0:0:
36,180,86629,53,0,0:0:0:0:
456,289,87174,1,0,0:0:0:0:
256,192,87719,12,0,88538,0:0:0:0:
463,311,88810,21,4,0:0:0:0:
438,218,88947,2,0,P|436:178|444:126,1,80.750001540184,0|8,0:0|0:0,0:0:0:0:
256,192,89219,1,0,0:0:0:0:
345,199,89356,2,0,P|356:107|358:21,1,161.500003080368,0|8,0:0|0:0,0:0:0:0:
358,38,89765,1,0,0:0:0:0:
186,140,89901,54,0,P|130:111|8:140,1,161.500003080368,0|8,0:0|0:0,0:0:0:0:
214,257,90310,1,0,0:0:0:0:
133,348,90447,2,0,P|89:363|31:357,1,80.750001540184,0|2,0:0|0:2,0:0:0:0:
214,257,90719,2,0,P|264:249|307:259,1,80.750001540184,8|0,0:0|0:0,0:0:0:0:
259,332,90992,54,0,P|250:281|260:154,1,161.500003080368,4|0,0:0|0:0,0:0:0:0:
255,171,91401,1,0,0:0:0:0:
129,250,91538,2,0,P|85:261|26:266,1,80.750001540184
357,186,91810,2,0,P|401:197|460:202,1,80.750001540184,8|0,0:0|0:0,0:0:0:0:
160,121,92083,54,0,L|143:23,1,80.750001540184,4|0,0:0|0:0,0:0:0:0:
255,171,92356,2,0,L|270:73,1,80.750001540184,2|4,0:2|0:2,0:0:0:0:
332,263,92629,2,0,L|357:186,1,80.750001540184,4|2,0:0|0:2,0:0:0:0:
390,354,92901,2,0,L|439:275,1,80.750001540184,4|0,0:2|0:0,0:0:0:0:
223,350,93174,54,0,B|176:342|176:342|135:296|135:296|68:285,1,161.500003080368,4|8,0:0|0:0,0:0:0:0:
83,287,93583,1,0,0:0:0:0:
228,254,93719,2,0,P|236:221|234:175,1,80.750001540184
34,108,93992,2,0,P|26:141|28:187,1,80.750001540184,8|0,0:0|0:0,0:0:0:0:
44,301,94265,54,0,P|94:273|128:161,1,161.500003080368,0|8,0:0|0:0,0:0:0:0:
130,179,94674,1,0,0:0:0:0:
213,45,94810,2,0,L|222:143,1,80.750001540184,0|2,0:0|0:2,0:0:0:0:
299,339,95083,2,0,L|290:241,1,80.750001540184,8|0,0:0|0:0,0:0:0:0:
500,145,95356,54,0,P|457:156|326:155,1,161.500003080368,4|8,0:0|0:0,0:0:0:0:
340,157,95765,1,0,0:0:0:0:
310,61,95901,2,0,P|366:59|402:70,1,80.750001540184
376,251,96174,2,0,P|320:253|284:242,1,80.750001540184,8|0,0:0|0:0,0:0:0:0:
20,214,96447,54,0,P|76:216|112:205,1,80.750001540184,8|0,0:0|0:0,0:0:0:0:
225,178,96719,1,2,0:2:0:0:
67,82,96856,1,4,0:2:0:0:
193,52,96992,1,0,0:2:0:0:
99,209,97129,1,0,0:0:0:0:
150,129,97265,53,0,0:0:0:0:
150,129,97333,1,0,0:0:0:0:
150,129,97401,1,0,0:0:0:0:
150,129,97469,1,0,0:0:0:0:
150,129,97538,2,0,L|237:113,1,80.750001540184,4|0,1:0|0:0,0:0:0:0:
496,156,97810,2,0,L|409:172,1,80.750001540184,0|0,1:0|1:0,0:0:0:0:
327,108,98083,2,0,L|340:17,1,80.750001540184,0|0,1:0|1:0,0:0:0:0:
346,270,98356,1,0,1:0:0:0:
346,270,98629,54,0,B|292:265|292:265|253:225|253:225|184:219,1,161.500003080368,2|0,1:2|0:0,0:0:0:0:
122,302,99038,2,0,L|215:309,1,80.750001540184,2|0,1:2|0:0,0:0:0:0:
427,184,99310,2,2,L|334:177,1,80.750001540184,0|2,0:0|1:2,0:0:0:0:
346,177,99719,53,0,1:0:0:0:
78,121,99992,2,0,P|79:152|82:173,1,47.5,0|2,0:0|0:2,0:0:0:0:
162,120,100265,2,0,P|161:89|158:68,1,47.5
155,205,100538,1,0,1:0:0:0:
235,234,100674,1,0,0:0:0:0:
243,149,100810,54,0,P|282:139|342:144,1,95,0|0,1:0|1:0,0:0:0:0:
415,219,101219,2,2,P|376:229|316:224,1,95,2|0,0:2|0:0,0:0:0:0:
321,225,101629,1,0,1:0:0:0:
18,315,101901,54,0,P|66:322|106:343,1,95,0|0,1:0|0:0,0:0:0:0:
290,338,102310,2,0,L|285:297,2,23.75,2|0|0,0:2|0:0|0:0,0:0:0:0:
374,354,102583,1,0,0:0:0:0:
454,325,102719,2,0,P|461:288|460:265,1,47.5,0|0,1:0|0:0,0:0:0:0:
358,163,102992,54,0,L|365:266,1,95,0|0,1:0|1:0,0:0:0:0:
280,239,103401,2,2,P|240:225|138:244,1,142.5,0|2,0:0|1:2,0:0:0:0:
25,72,104083,54,0,P|61:76|130:66,1,95,0|0,1:0|0:0,0:0:0:0:
119,69,104492,1,2,0:2:0:0:
261,102,104629,2,0,P|228:99|196:106,1,47.5
97,160,104901,2,0,P|130:163|162:156,1,47.5,0|0,1:0|0:0,0:0:0:0:
225,210,105174,54,0,L|215:305,1,95,0|0,1:0|1:0,0:0:0:0:
117,365,105583,2,2,L|127:270,1,95,2|0,0:2|0:0,0:0:0:0:
127,270,105992,1,0,1:0:0:0:
470,304,106265,54,0,P|408:303|376:312,1,95,0|0,1:0|0:0,0:0:0:0:
267,212,106674,2,0,L|277:181,2,23.75,2|0|0,0:2|0:0|0:0,0:0:0:0:
183,230,106947,1,0,0:0:0:0:
103,196,107083,2,0,L|45:205,1,47.5,0|0,1:0|0:0,0:0:0:0:
187,144,107356,54,0,P|204:108|201:46,1,95,0|0,1:0|1:0,0:0:0:0:
21,102,107765,2,2,L|117:93,1,95,0|0,1:0|1:0,0:0:0:0:
309,80,108174,1,2,1:2:0:0:
309,80,108447,54,0,P|288:152|350:259,1,190,0|0,1:0|0:0,0:0:0:0:
337,250,109129,1,2,0:2:0:0:
442,146,109265,2,0,L|381:154,1,47.5,0|0,1:0|0:0,0:0:0:0:
421,327,109538,54,0,P|441:291|443:228,1,95,0|0,1:0|1:0,0:0:0:0:
336,352,109947,2,2,L|239:362,1,95,2|0,0:2|0:0,0:0:0:0:
241,361,110356,1,0,1:0:0:0:
95,332,110629,54,0,P|89:291|96:222,1,95,0|0,1:0|0:0,0:0:0:0:
183,188,111038,2,2,P|189:229|182:298,1,95,2|0,0:2|0:0,0:0:0:0:
271,279,111447,1,0,1:0:0:0:
271,279,111583,1,0,0:0:0:0:
332,220,111719,54,0,L|382:214,2,47.5,0|0|0,1:0|0:0|1:0,0:0:0:0:
268,161,112129,2,2,P|262:120|269:51,1,95,0|0,0:0|0:0,0:0:0:0:
348,89,112538,2,0,P|350:126|346:145,1,47.5,2|0,1:2|0:0,0:0:0:0:
194,206,112810,54,0,L|84:218,1,95,0|0,1:0|0:0,0:0:0:0:
20,159,113219,2,2,P|7:119|23:47,1,95,2|0,0:2|0:0,0:0:0:0:
13,67,113629,1,0,1:0:0:0:
329,205,113901,53,0,1:0:0:0:
345,121,114038,1,0,0:0:0:0:
428,142,114174,1,0,1:0:0:0:
413,226,114310,2,2,P|408:267|409:320,1,95,2|0,0:2|0:0,0:0:0:0:
409,320,114719,1,0,1:0:0:0:
194,192,114992,54,0,L|296:181,1,95,0|0,1:0|0:0,0:0:0:0:
288,181,115401,1,2,0:2:0:0:
156,119,115538,2,0,L|101:127,1,47.5
69,265,115810,2,0,L|124:257,1,47.5,0|0,1:0|0:0,0:0:0:0:
31,163,116083,21,2,1:0:0:0:
197,278,116219,2,2,L|216:376,1,95,0|2,1:0|1:0,0:0:0:0:
368,214,116492,1,2,1:0:0:0:
52,158,117174,54,2,B|93:153|93:153|137:131|137:131|201:123,1,142.500005435944,4|2,0:0|0:0,0:0:0:0:
188,124,117583,1,0,0:2:0:0:
187,301,117719,2,0,L|174:224,1,71.2500027179719,8|0,0:0|0:0,0:0:0:0:
305,300,117992,2,0,L|296:370,1,71.2500027179719,0|2,0:0|0:2,0:0:0:0:
324,200,118265,6,2,B|397:189|397:189|463:238,1,142.500005435944,6|0,0:0|0:0,0:0:0:0:
452,229,118674,1,0,0:0:0:0:
281,120,118810,2,0,L|375:107,1,71.2500027179719,8|2,0:0|0:2,0:0:0:0:
301,285,119083,2,0,L|207:298,1,71.2500027179719,0|2,0:0|0:2,0:0:0:0:
68,94,119356,102,2,P|114:83|198:130,1,142.500005435944,4|2,0:0|0:0,0:0:0:0:
194,125,119765,1,0,0:0:0:0:
38,251,119901,2,0,P|22:218|23:176,1,71.2500027179719,8|0,0:0|0:0,0:0:0:0:
199,242,120174,2,0,P|171:270|129:282,1,71.2500027179719,0|2,0:0|0:2,0:0:0:0:
117,185,120447,5,6,0:0:0:0:
194,125,120583,1,0,0:0:0:0:
281,177,120719,2,2,P|329:171|397:103,1,142.500005435944,0|10,0:0|0:0,0:0:0:0:
394,108,121129,1,0,0:0:0:0:
479,205,121265,2,2,L|488:295,1,71.2500027179719,10|0,0:0|0:0,0:0:0:0:
486,275,121469,1,0,0:0:0:0:
486,275,121538,102,2,P|479:324|466:357,1,71.2500027179719,4|0,0:0|0:0,0:0:0:0:
371,350,121810,1,2,0:0:0:0:
278,312,121947,1,0,0:0:0:0:
179,329,122083,2,0,P|117:322|20:339,1,142.500005435944,8|0,0:0|0:0,0:0:0:0:
38,333,122492,1,2,0:2:0:0:
125,230,122629,6,2,P|123:188|111:140,1,71.2500027179719,6|0,0:0|0:0,0:0:0:0:
198,101,122901,1,0,0:0:0:0:
280,156,123038,1,0,0:0:0:0:
198,101,123174,2,0,P|203:56|213:24,1,71.2500027179719,8|2,0:0|0:2,0:0:0:0:
380,175,123447,2,0,P|375:220|365:252,1,71.2500027179719,0|2,0:0|0:2,0:0:0:0:
256,296,123719,101,0,0:0:0:0:
256,296,124810,53,0,0:0:0:0:
346,206,124947,1,0,0:0:0:0:
175,133,125083,1,0,0:0:0:0:
159,242,125219,1,0,0:0:0:0:
280,107,125356,2,0,P|263:158|252:210,1,95
253,198,125765,1,2,2:0:0:0:
424,122,125901,1,2,2:0:0:0:
424,122,126174,6,0,P|444:172|426:236,1,95,4|2,0:0|0:2,0:0:0:0:
396,355,126447,2,0,P|351:326|325:191,1,190,0|8,0:0|0:0,0:0:0:0:
321,200,126856,1,2,0:2:0:0:
134,351,126992,54,0,P|181:348|226:332,1,95
187,138,127265,2,0,P|140:141|96:158,1,95,8|2,0:0|0:2,0:0:0:0:
168,245,127538,1,8,0:0:0:0:
187,245,127606,1,0,0:0:0:0:
204,236,127674,1,0,0:0:0:0:
223,237,127742,1,0,0:0:0:0:
242,231,127810,1,0,0:0:0:0:
75,263,127946,53,2,2:0:0:0:
75,263,128083,2,2,L|56:154,1,95,2|4,0:0|0:0,0:0:0:0:
257,112,128492,53,2,0:2:0:0:
286,216,128629,2,0,P|235:221|183:193,1,95,0|2,0:0|0:2,0:0:0:0:
343,39,128901,2,0,P|368:88|357:147,1,95,8|2,0:0|0:2,0:0:0:0:
363,303,129174,54,0,P|410:316|471:316,1,95,4|0,0:0|0:0,0:0:0:0:
183,194,129447,2,0,P|136:181|75:181,1,95,2|4,0:2|0:2,0:0:0:0:
133,317,129719,1,12,0:0:0:0:
151,317,129788,1,0,0:0:0:0:
168,310,129856,1,0,0:0:0:0:
184,300,129924,1,0,0:0:0:0:
197,287,129992,1,0,0:0:0:0:
197,287,130265,54,0,L|182:180,1,95,4|0,0:0|0:0,0:0:0:0:
270,25,130538,2,0,L|285:132,1,95,8|2,0:0|0:2,0:0:0:0:
310,271,130810,2,0,P|369:254|507:254,1,190,0|8,0:0|0:0,0:0:0:0:
496,252,131219,1,2,0:2:0:0:
432,57,131356,54,0,P|413:115|407:158,1,95
324,364,131629,2,0,P|320:306|304:257,1,95,8|2,0:0|0:2,0:0:0:0:
109,212,131901,1,0,0:0:0:0:
239,141,132038,1,2,0:2:0:0:
310,271,132174,1,8,0:0:0:0:
179,345,132310,1,2,0:2:0:0:
239,141,132447,54,0,P|288:122|417:182,1,190,4|8,0:0|0:0,0:0:0:0:
409,170,132856,1,2,0:2:0:0:
511,129,132992,2,0,P|491:92|447:65,1,95
311,220,133265,2,0,P|332:258|376:285,1,95,8|2,0:0|0:2,0:0:0:0:
493,252,133538,53,4,0:0:0:0:
457,348,133674,1,0,0:0:0:0:
457,348,133742,1,0,0:0:0:0:
457,348,133810,1,0,0:0:0:0:
353,363,133947,1,0,0:0:0:0:
266,303,134083,1,4,0:0:0:0:
175,355,134219,1,0,0:0:0:0:
175,355,134288,1,0,0:0:0:0:
175,355,134356,1,0,0:0:0:0:
74,325,134492,1,0,0:0:0:0:
170,172,134629,102,0,B|177:220|177:220|160:274,1,95,4|0,0:0|0:0,0:0:0:0:
14,150,134901,2,0,B|7:102|7:102|24:48,1,95,8|2,0:0|0:2,0:0:0:0:
223,93,135174,2,0,L|342:74,1,95,8|0,0:0|0:0,0:0:0:0:
363,246,135447,2,0,L|269:231,1,95,8|2,0:0|0:2,0:0:0:0:
378,360,135719,54,0,P|438:340|488:219,1,190,12|8,0:0|0:0,0:0:0:0:
410,81,136129,1,2,0:2:0:0:
294,141,136265,1,8,0:0:0:0:
388,187,136401,1,2,0:2:0:0:
310,38,136538,2,0,P|252:41|210:66,1,95,8|2,0:0|0:2,0:0:0:0:
185,273,136810,54,0,P|281:206|293:140,1,190,12|8,0:0|0:0,0:0:0:0:
294,141,137219,1,2,0:2:0:0:
161,169,137356,2,0,P|109:190|80:235,1,95,8|0,0:0|0:0,0:0:0:0:
194,381,137629,2,0,P|246:360|275:315,1,95,8|2,0:0|0:2,0:0:0:0:
87,243,137901,54,2,L|103:338,1,95,4|2,0:0|0:0,0:0:0:0:
245,127,138174,2,0,L|261:31,1,95,2|4,0:2|0:2,0:0:0:0:
133,113,138447,2,2,P|86:123|27:125,1,95,6|2,0:0|0:2,0:0:0:0:
199,230,138719,2,0,P|247:239|301:265,1,95,4|0,0:2|0:0,0:0:0:0:
494,88,138992,54,0,P|397:81|326:165,1,190,4|8,0:0|0:0,0:0:0:0:
336,342,139401,1,2,0:2:0:0:
439,183,139538,2,0,P|453:238|446:287,1,95,8|0,0:0|0:0,0:0:0:0:
210,323,139810,2,0,P|196:268|203:219,1,95,8|2,0:0|0:2,0:0:0:0:
262,122,140083,54,0,P|232:179|76:196,1,190,12|8,0:0|0:0,0:0:0:0:
157,110,140492,1,2,0:2:0:0:
296,266,140629,2,0,L|288:364,1,95,8|0,0:0|0:0,0:0:0:0:
56,323,140901,1,8,0:0:0:0:
53,304,140969,1,0,0:0:0:0:
50,285,141038,1,0,0:0:0:0:
46,266,141106,1,0,0:0:0:0:
43,247,141174,53,0,0:0:0:0:
477,346,141719,1,0,0:0:0:0:
187,172,142265,54,2,P|196:129|201:77,1,80.750001540184,4|2,0:0|0:0,0:0:0:0:
266,232,142538,1,0,0:0:0:0:
97,232,142674,2,2,P|88:171|88:63,1,161.500003080368,0|2,0:0|0:0,0:0:0:0:
266,232,143083,2,2,P|329:223|426:225,1,161.500003080368,2|2,0:0|0:2,0:0:0:0:
122,115,152083,22,0,P|94:156|89:200,1,80.750001540184,4|0,0:0|0:0,0:0:0:0:
257,284,152356,2,0,P|285:243|290:199,1,80.750001540184,8|0,0:0|0:0,0:0:0:0:
311,103,152629,2,0,P|263:111|194:204,1,161.500003080368,0|8,0:0|0:0,0:0:0:0:
195,194,153038,1,0,0:0:0:0:
356,316,153174,54,0,L|445:304,1,80.750001540184
191,315,153447,2,0,L|102:303,1,80.750001540184,8|0,0:0|0:0,0:0:0:0:
68,214,153719,1,0,0:0:0:0:
34,131,153856,1,2,0:2:0:0:
101,73,153992,1,8,0:0:0:0:
135,154,154129,1,0,0:0:0:0:
68,214,154265,54,0,P|123:190|230:215,1,161.500003080368,4|8,0:0|0:0,0:0:0:0:
368,297,154674,1,0,0:0:0:0:
288,365,154810,2,0,P|269:316|270:271,1,80.750001540184
339,136,155083,2,0,P|329:178|303:214,1,80.750001540184,8|0,0:0|0:0,0:0:0:0:
161,279,155356,54,0,P|117:284|65:302,1,80.750001540184,4|0,0:0|0:0,0:0:0:0:
3,151,155629,2,0,P|37:166|88:178,1,80.750001540184,2|4,0:2|0:2,0:0:0:0:
236,45,155901,2,0,P|216:83|202:138,1,80.750001540184,4|2,0:0|0:2,0:0:0:0:
227,359,156174,2,0,P|247:321|261:266,1,80.750001540184,4|0,0:2|0:0,0:0:0:0:
323,96,156447,54,0,P|386:81|485:149,1,161.500003080368,4|8,0:0|0:0,0:0:0:0:
385,194,156856,1,0,0:0:0:0:
284,251,156992,2,0,P|270:206|278:160,1,80.750001540184
347,317,157265,2,0,P|391:334|435:329,1,80.750001540184,8|0,0:0|0:0,0:0:0:0:
176,197,157538,54,0,P|134:177|16:216,1,161.500003080368,0|8,0:0|0:0,0:0:0:0:
27,204,157947,1,0,0:0:0:0:
119,275,158083,2,0,P|167:293|208:287,1,80.750001540184,0|2,0:0|0:2,0:0:0:0:
230,118,158356,2,0,P|182:100|141:106,1,80.750001540184,8|0,0:0|0:0,0:0:0:0:
292,206,158629,54,0,P|351:209|469:198,1,161.500003080368,4|8,0:0|0:0,0:0:0:0:
452,200,159038,1,0,0:0:0:0:
354,31,159174,2,0,P|359:78|360:131,1,80.750001540184
151,111,159446,2,0,P|153:71|158:31,1,80.750001540184,8|0,0:0|0:0,0:0:0:0:
256,76,159719,54,0,L|256:244,1,161.500003080368,0|8,0:0|0:0,0:0:0:0:
200,336,160128,1,0,0:0:0:0:
312,336,160265,1,0,0:0:0:0:
133,269,160401,1,0,0:0:0:0:
133,269,160469,1,0,0:0:0:0:
133,269,160537,1,0,0:0:0:0:
133,269,160606,1,0,0:0:0:0:
133,269,160674,1,0,0:0:0:0:
133,269,160742,1,0,0:0:0:0:
133,269,160810,54,0,P|108:226|69:195,1,80.750001540184,4|4,0:0|0:0,0:0:0:0:
46,300,161083,1,2,0:2:0:0:
245,351,161219,1,8,0:0:0:0:
287,260,161356,2,0,P|291:213|280:160,1,80.750001540184,2|8,0:2|0:0,0:0:0:0:
204,217,161628,1,2,0:2:0:0:
369,347,161765,1,8,0:0:0:0:
439,279,161901,54,0,P|451:222|455:105,1,161.500003080368,0|2,0:0|0:2,0:0:0:0:
376,29,162310,1,8,0:0:0:0:
376,29,162378,1,8,0:0:0:0:
376,29,162446,1,2,0:2:0:0:
267,179,162583,1,8,0:0:0:0:
265,68,162719,1,2,0:2:0:0:
379,210,162856,1,8,0:0:0:0:
267,179,162992,54,0,P|214:177|166:163,1,80.750001540184,4|8,0:2|0:0,0:0:0:0:
90,130,163265,1,2,0:2:0:0:
54,329,163401,1,8,0:0:0:0:
54,329,163469,1,8,0:0:0:0:
54,329,163537,2,0,P|107:327|155:313,1,80.750001540184,2|8,0:2|0:0,0:0:0:0:
226,278,163810,1,2,0:2:0:0:
90,130,163946,1,8,0:0:0:0:
200,83,164083,54,0,L|190:186,1,80.750001540184,0|8,0:0|0:0,0:0:0:0:
311,344,164356,2,0,L|301:241,1,80.750001540184,2|8,0:2|0:0,0:0:0:0:
373,43,164628,2,0,L|363:146,1,80.750001540184,2|8,0:2|0:0,0:0:0:0:
475,359,164901,2,0,L|465:256,1,80.750001540184,2|8,0:2|0:0,0:0:0:0:
144,219,165174,54,0,P|127:264|130:311,1,80.750001540184,4|8,0:0|0:0,0:0:0:0:
321,274,165446,1,2,0:2:0:0:
265,164,165583,1,8,0:0:0:0:
225,279,165719,2,0,P|238:327|265:357,1,80.750001540184,2|8,0:2|0:0,0:0:0:0:
395,207,165992,1,2,0:2:0:0:
265,164,166128,1,8,0:0:0:0:
321,274,166265,54,0,P|405:304|479:255,1,161.500003080368,0|2,0:0|0:2,0:0:0:0:
483,148,166674,1,8,0:0:0:0:
483,148,166742,1,8,0:0:0:0:
483,148,166810,1,2,0:2:0:0:
295,60,166946,1,8,0:0:0:0:
396,208,167083,1,2,0:2:0:0:
263,345,167219,1,8,0:0:0:0:
388,108,167356,53,4,0:2:0:0:
151,235,167901,1,0,0:0:0:0:
384,374,168447,53,0,0:0:0:0:
427,268,168583,1,2,0:2:0:0:
331,187,168719,1,2,0:2:0:0:
292,296,168856,1,4,0:2:0:0:
427,268,168992,2,0,L|443:178,1,80.750001540184,0|8,0:0|0:0,0:0:0:0:
331,187,169265,1,4,0:2:0:0:
315,190,169333,1,0,0:0:0:0:
298,190,169401,1,8,0:0:0:0:
282,186,169469,1,0,0:0:0:0:
267,178,169538,54,0,L|256:80,1,80.750001540184,0|0,1:0|0:0,0:0:0:0:
146,224,169810,2,0,L|157:126,1,80.750001540184,0|0,1:0|0:0,0:0:0:0:
154,314,170083,1,0,1:0:0:0:
76,351,170219,1,0,1:0:0:0:
23,280,170356,2,0,L|47:192,1,80.750001540184,0|0,1:0|0:0,0:0:0:0:
270,297,170629,54,0,B|356:270|356:321|446:297,1,161.500003080368,2|0,1:2|0:0,0:0:0:0:
397,208,171038,2,0,P|391:158|390:113,1,80.750001540184,2|0,1:2|0:0,0:0:0:0:
478,31,171310,2,2,P|484:81|485:126,1,80.750001540184,0|2,0:0|1:2,0:0:0:0:
