osu file format v6

[General]
AudioFilename: 01 - Tomadoi Bitter Tune (TV Size).mp3
AudioLeadIn: 0
PreviewTime: 46038
Countdown: 0
SampleSet: Normal
StackLeniency: 0.7
Mode: 0
LetterboxInBreaks: 0

[Editor]
Bookmarks: 70501
DistanceSpacing: 0.800000011920929
BeatDivisor: 4
GridSize: 8

[Metadata]
Title:Tomadoi Bitter Tune
Artist:Himemiya Milan & Chocolate Rockers
Creator:jmaeshawn
Version:Easy
Source:Nogizaka Haruka no Himitsu
Tags:Anime, Secret, haisha_

[Difficulty]
HPDrainRate:2
CircleSize:3
OverallDifficulty:1
SliderMultiplier:1.4
SliderTickRate:1

[Events]
//Background and Video events
Video,1350,"Opening.avi"
0,0,"bg.jpg"
//Break Periods
2,31373,36385
2,52049,57466
//Storyboard Layer 0 (Background)
//Storyboard Layer 1 (Fail)
//Storyboard Layer 2 (Pass)
//Storyboard Layer 3 (Foreground)
//Storyboard Sound Samples
//Background Colour Transformations
3,100,163,162,255

[TimingPoints]
2390,405.405405405405,4,1,1,100,1,0
9184,-100,4,2,1,100,0,0
11917,-100,4,1,1,100,0,0
15569,-100,4,2,1,100,0,0
17596,-100,4,1,1,71,0,0
18508,-100,4,1,1,71,0,0
27934,-100,4,1,1,51,0,0
31380,-100,4,1,1,41,0,0
37663,-100,4,1,1,66,0,0
39285,-100,4,1,1,81,0,0
40666,-100,4,1,1,100,0,0
42085,-100,4,1,1,100,0,0
46177,-100,4,1,1,100,0,1
48204,-100,4,1,1,61,0,0
50738,-100,4,1,1,79,0,0
52663,-100,4,1,1,61,0,0
58339,-100,4,1,1,71,0,0
59049,-100,4,1,1,100,0,1
61278,-100,4,1,1,71,0,0
68580,-200,4,1,1,71,0,0
70463,-100,4,1,1,100,0,1
72055,-100,4,1,1,70,0,0
73846,-100,4,1,1,87,0,0
75366,-100,4,1,1,100,0,1

[Colours]
Combo1 : 134,115,204
Combo2 : 237,61,119
Combo3 : 255,246,88
Combo4 : 229,110,47
Combo5 : 3,171,248

[HitObjects]
256,192,5633,1,4
64,128,6849,2,4,B|-8:200|88:272,2,140
176,128,8065,2,4,B|248:200|152:272,2,140
288,128,9281,6,4,L|345:85|424:152,1,140
248,200,10295,2,4,L|342:350|342:350|440:184,1,350
429,88,11714,1,4
429,88,12119,5,4
104,32,13335,2,4,B|312:32|312:192,1,280
208,208,14552,2,4,B|88:208|88:112,2,140
320,208,15768,5,4
360,112,16173,2,4,B|144:112,2,210
288,200,17795,2,4,B|336:256,3,70
277,253,18606,6,4,L|125:253,2,140,0|0|4
277,309,19619,1,4
389,309,20025,2,0,B|389:101|157:101,1,350,0|8
56,40,21849,6,0,L|56:328,1,280
136,240,23065,1,2
136,127,23471,1,10
215,206,23876,1,10
215,95,24281,1,10
30,167,25092,6,2,B|30:71|150:71,1,140
227,73,25903,1,2
338,73,26308,2,8,B|474:73|474:145,2,140,4|4|10
338,186,27525,2,8,L|186:186,1,140
159,146,28133,6,0,B|7:146,1,140
19,90,28741,2,0,L|187:90,1,140
271,90,29552,2,2,B|423:90,3,140
411,202,31173,5,8
24,136,38065,6,0,B|144:0|288:16,1,280,0|0
462,155,39687,6,0,L|366:315|254:317,1,280
160,316,40903,6,4,L|88:316|88:220,1,140
256,208,42322,12,0,45160
168,120,46173,6,0,L|120:120|120:168|120:288,1,210
232,282,47187,2,6,L|384:282|384:210,1,210
384,56,48403,6,0,B|232:56|232:184|64:184,2,350
384,167,50835,2,2,L|384:239|312:279,2,140
384,168,51849,1,2
136,64,59146,6,6,B|40:168|144:256,1,210
246,247,60160,6,6,B|342:143|238:55,1,210
472,32,61376,6,0,B|336:152|480:280,1,280
430,310,62389,2,0,C|310:214,1,140
281,183,62998,1,0
169,183,63403,1,6
57,183,63808,2,6,C|17:127|65:63,2,140,6|6|4
400,288,65430,6,0,L|112:288,1,280,0|0
139,176,66646,2,0,B|259:32|387:192,2,280,0|0|0
256,208,68471,12,2,70295
400,64,70700,6,4,B|448:168|400:280,1,210
348,268,71511,1,6
292,268,71714,1,6
236,268,71917,1,4
180,268,72119,6,6,B|28:156|196:36,2,280
237,268,73944,6,0,B|237:172|325:172,1,140
315,116,74552,2,0,B|467:116,1,140
256,208,75362,12,0,78606
