osu file format v14

[General]
AudioFilename: Pokemoshka.mp3
AudioLeadIn: 0
PreviewTime: 48040
Countdown: 0
SampleSet: None
StackLeniency: 0.7
Mode: 2
LetterboxInBreaks: 0
WidescreenStoryboard: 0

[Editor]
DistanceSpacing: 1.4
BeatDivisor: 4
GridSize: 8
TimelineZoom: 4.799997

[Metadata]
Title:Pokemoshka
TitleUnicode:Pokémoshka
Artist:Himawari
ArtistUnicode:Himawari
Creator:[Yue]
Version:Collab CtB
Source:
Tags:Pokemon Rival
BeatmapID:655383
BeatmapSetID:290998

[Difficulty]
HPDrainRate:7
CircleSize:4
OverallDifficulty:9
ApproachRate:9
SliderMultiplier:2.1
SliderTickRate:1

[Events]
//Background and Video events
0,0,"POKEBG.png",0,0
Video,-340,"Pokemoshka_Video.avi"
//Break Periods
2,66971,75537
//Storyboard Layer 0 (Background)
//Storyboard Layer 1 (Fail)
//Storyboard Layer 2 (Pass)
//Storyboard Layer 3 (Foreground)
//Storyboard Sound Samples

[TimingPoints]
1211,292.682926829268,4,2,1,60,1,0
1211,-133.333333333333,4,2,1,60,0,0
4723,-100,4,1,1,70,0,0
5893,-83.3333333333333,4,1,0,75,0,1
15259,-100,4,1,1,70,0,0
24625,-100,4,1,0,70,0,0
29308,-100,4,1,1,70,0,0
38674,-100,4,1,1,60,0,0
48040,-83.3333333333333,4,1,1,75,0,1
66771,-100,4,1,1,65,0,0
85503,-100,4,1,1,70,0,0
94869,-100,4,1,1,60,0,0
104235,-83.3333333333333,4,1,1,75,0,1
122967,-100,4,1,0,65,0,0
132332,-100,4,1,2,50,0,0
141991,-100,4,1,2,60,0,0
148723,-100,4,1,0,65,0,0
150479,-100,4,1,0,70,0,0
162771,-83.3333333333333,4,1,1,75,0,1
172137,-100,4,1,1,70,0,0
186105,252.100840336134,4,1,1,80,1,0
190155,230.769230769231,4,1,1,80,1,0
193830,214.285714285714,4,1,1,80,1,0
197044,-100,4,1,1,80,0,0

[Colours]
Combo1 : 223,142,32
Combo2 : 189,2,210
Combo3 : 213,17,154
Combo4 : 134,205,27
Combo5 : 249,101,13
Combo6 : 0,116,232

[HitObjects]
128,96,1211,5,2,0:0:0:0:
364,100,1503,1,0,0:0:0:0:
216,192,1650,2,0,L|296:192,1,78.7500030040742,0|2,0:0|0:0,0:0:0:0:
116,240,2089,5,0,0:0:0:0:
256,260,2235,2,0,B|160:260|160:260|160:324,2,157.500006008148,0|2|0,0:0|0:0|0:0,0:0:0:0:
116,240,2967,1,2,0:0:0:0:
448,344,3259,5,0,0:0:0:0:
372,160,3552,2,0,L|212:160,1,157.500006008148,2|0,0:0|0:0,0:0:0:0:
308,332,3991,2,0,L|364:276,1,78.7500030040742,0|2,0:0|0:0,0:0:0:0:
140,100,4430,1,0,0:0:0:0:
384,192,4723,5,4,0:0:0:0:
128,192,5015,1,4,0:0:0:0:
448,160,5308,1,4,0:0:0:0:
64,160,5601,1,4,0:0:0:0:
192,192,5893,6,0,L|320:192,1,125.999996154785,6|0,0:0|0:0,0:0:0:0:
480,224,6186,1,2,0:0:0:0:
320,128,6332,1,2,0:0:0:0:
480,288,6479,2,0,L|352:288,1,125.999996154785,2|2,0:0|0:0,0:0:0:0:
224,288,6771,2,0,L|96:288,2,125.999996154785,0|2|2,0:0|0:0|0:0,0:0:0:0:
128,224,7210,1,0,0:0:0:0:
256,224,7357,1,2,0:0:0:0:
384,224,7503,1,0,0:0:0:0:
256,160,7649,2,2,B|160:160|160:160|160:96|288:64,1,251.999992309571,2|2,0:0|0:0,0:0:0:0:
160,64,8088,5,2,0:0:0:0:
320,128,8235,2,0,L|416:32,1,125.999996154785,2|0,0:0|0:0,0:0:0:0:
288,192,8528,1,2,0:0:0:0:
160,192,8674,1,2,0:0:0:0:
416,192,8820,2,0,L|320:288,1,125.999996154785,2|2,0:0|0:0,0:0:0:0:
480,288,9113,5,0,0:0:0:0:
356,288,9259,1,2,0:0:0:0:
432,288,9405,1,2,0:0:0:0:
304,288,9552,1,0,0:0:0:0:
384,288,9698,1,2,0:0:0:0:
260,288,9844,1,0,0:0:0:0:
132,288,9991,2,0,P|196:224|292:320,1,251.999992309571,6|0,0:0|0:0,0:0:0:0:
144,168,10576,6,0,P|192:200|272:184,1,125.999996154785,6|0,0:0|0:0,0:0:0:0:
372,168,10869,2,0,P|324:200|244:184,1,125.999996154785,2|2,0:0|0:0,0:0:0:0:
304,80,11161,1,2,0:0:0:0:
176,80,11308,1,2,0:0:0:0:
352,128,11454,1,0,0:0:0:0:
224,128,11601,1,2,0:0:0:0:
400,176,11747,1,2,0:0:0:0:
276,176,11893,1,0,0:0:0:0:
112,192,12040,5,2,0:0:0:0:
256,272,12186,1,0,0:0:0:0:
432,224,12332,2,2,P|340:291|272:192,1,251.999992309571,2|2,0:0|0:0,0:0:0:0:
432,160,12771,1,2,0:0:0:0:
64,256,12918,2,0,L|160:160,1,125.999996154785,2|0,0:0|0:0,0:0:0:0:
448,256,13210,2,0,L|352:160,1,125.999996154785,2|2,0:0|0:0,0:0:0:0:
256,64,13503,2,0,L|256:192,1,125.999996154785,2|2,0:0|0:0,0:0:0:0:
384,64,13796,5,0,0:0:0:0:
256,80,13942,1,2,0:0:0:0:
128,64,14088,1,2,0:0:0:0:
256,160,14235,1,0,0:0:0:0:
416,160,14381,2,0,L|288:160,1,125.999996154785,2|0,0:0|0:0,0:0:0:0:
416,240,14674,2,2,P|336:208|352:52,1,251.999992309571,6|0,0:0|0:0,0:0:0:0:
160,80,15259,5,4,0:0:0:0:
416,96,15406,1,0,0:0:0:0:
288,160,15552,1,8,0:0:0:0:
416,224,15698,1,0,0:0:0:0:
256,256,15845,2,0,L|160:304,1,105,0|0,0:0|0:0,0:0:0:0:
288,224,16137,2,0,L|172:224,1,105,8|0,0:0|0:0,0:0:0:0:
128,128,16430,2,0,B|224:156|224:156|332:104,1,210,0|8,0:0|0:0,0:0:0:0:
448,96,16869,1,0,0:0:0:0:
272,96,17015,2,0,L|132:260,1,210,0|8,0:0|0:0,0:0:0:0:
316,192,17454,6,0,L|381:100,1,105,0|0,0:0|0:0,0:0:0:0:
196,192,17747,2,0,L|131:100,1,105,0|8,0:0|0:0,0:0:0:0:
256,256,18040,1,0,0:0:0:0:
352,256,18186,2,0,L|128:256,1,210,0|8,0:0|0:0,0:0:0:0:
352,192,18625,1,8,0:0:0:0:
244,152,18771,2,0,P|276:192|244:232,1,105,8|0,0:0|0:0,0:0:0:0:
372,132,19064,2,0,P|364:80|404:40,2,105,8|0|0,0:0|0:0|0:0,0:0:0:0:
480,224,19503,1,0,0:0:0:0:
388,304,19650,2,0,L|276:304,1,105,8|8,0:0|0:0,0:0:0:0:
0,256,19942,6,0,B|44:192|44:192|188:192,1,210,4|8,0:0|0:0,0:0:0:0:
64,288,20381,1,0,0:0:0:0:
192,288,20528,2,0,L|64:256,1,105,0|0,0:0|0:0,0:0:0:0:
224,288,20820,1,8,0:0:0:0:
320,160,20967,1,0,0:0:0:0:
224,160,21113,2,0,B|282:241|282:241|410:241,1,210,0|8,0:0|0:0,0:0:0:0:
256,320,21552,1,0,0:0:0:0:
352,160,21698,2,0,P|286:246|227:165,1,210,0|8,0:0|0:0,0:0:0:0:
256,128,22137,1,0,0:0:0:0:
128,64,22284,6,0,L|64:160,1,105,0|0,0:0|0:0,0:0:0:0:
384,64,22576,2,0,L|448:160,1,105,8|0,0:0|0:0,0:0:0:0:
256,256,22869,1,8,0:0:0:0:
176,192,23015,1,8,0:0:0:0:
336,192,23162,1,0,0:0:0:0:
176,192,23308,1,8,0:0:0:0:
336,192,23454,2,0,L|448:192,1,105,8|0,0:0|0:0,0:0:0:0:
288,192,23747,2,0,L|176:192,1,105,8|8,0:0|0:0,0:0:0:0:
256,80,24040,2,0,B|352:80|352:80|208:80,1,210,4|0,2:0|0:0,0:0:0:0:
384,80,24479,1,0,0:0:0:0:
256,148,24625,6,0,L|152:148,1,105,6|0,0:0|0:0,0:0:0:0:
256,224,24918,1,2,0:0:0:0:
384,224,25064,1,2,0:0:0:0:
512,224,25210,2,0,P|488:272|440:296,2,105,2|2|2,0:0|0:0|0:0,0:0:0:0:
320,288,25650,1,2,0:0:0:0:
192,288,25796,1,2,0:0:0:0:
320,224,25942,5,0,0:0:0:0:
192,224,26089,2,0,L|64:224,1,105,2|0,0:0|0:0,0:0:0:0:
192,160,26381,2,2,P|108:179|35:88,1,210,2|2,0:0|0:0,0:0:0:0:
192,96,26820,1,2,0:0:0:0:
320,96,26967,1,2,0:0:0:0:
448,96,27113,1,0,0:0:0:0:
416,144,27259,6,0,L|298:170,1,105,2|2,0:0|0:0,0:0:0:0:
416,224,27552,1,2,0:0:0:0:
288,288,27698,1,2,0:0:0:0:
416,288,27845,2,0,L|544:288,2,105,0|2|2,0:0|0:0|0:0,0:0:0:0:
288,352,28284,1,0,0:0:0:0:
128,352,28430,2,0,P|148:304|196:272,1,105,2|0,0:0|0:0,0:0:0:0:
480,256,28723,2,2,B|416:160|416:160|288:160,1,210,6|0,0:0|0:0,0:0:0:0:
184,100,29162,1,0,0:0:0:0:
44,60,29308,5,4,0:0:0:0:
128,288,29454,1,0,0:0:0:0:
96,192,29601,2,0,L|224:192,1,105,8|0,0:0|0:0,0:0:0:0:
364,124,29893,2,0,B|256:64|256:64|352:64,1,210,0|8,0:0|0:0,0:0:0:0:
480,128,30332,1,0,0:0:0:0:
384,192,30479,2,0,L|480:256,1,105
320,192,30771,2,0,L|224:256,1,105,8|0,0:0|0:0,0:0:0:0:
352,288,31064,2,0,B|284:240|284:240|384:160,1,210,0|8,0:0|0:0,0:0:0:0:
256,32,31503,6,0,P|312:104|440:72,1,210,2|0,0:0|0:0,0:0:0:0:
352,160,31942,1,8,0:0:0:0:
480,160,32089,1,0,0:0:0:0:
352,64,32235,2,0,L|224:64,2,105,0|0|8,0:0|0:0|0:0,0:0:0:0:
288,128,32674,1,0,0:0:0:0:
192,192,32820,2,0,L|80:224,2,105
272,224,33259,1,0,0:0:0:0:
352,288,33406,2,0,L|128:288,1,210,0|8,0:0|0:0,0:0:0:0:
208,352,33845,1,0,0:0:0:0:
336,352,33991,6,0,L|400:268,1,105,4|0,0:0|0:0,0:0:0:0:
496,256,34284,2,0,L|416:176,1,105,8|0,0:0|0:0,0:0:0:0:
304,192,34576,2,0,L|368:96,1,105
256,96,34869,2,0,L|144:96,1,105,0|8,0:0|0:0,0:0:0:0:
64,208,35162,1,0,0:0:0:0:
176,208,35308,1,0,0:0:0:0:
96,240,35454,1,8,0:0:0:0:
208,240,35601,1,0,0:0:0:0:
416,272,35747,2,0,P|336:208|416:144,1,210,0|8,0:0|0:0,0:0:0:0:
480,208,36186,1,0,0:0:0:0:
336,192,36332,6,0,L|224:192,1,105
348,144,36625,2,0,L|460:144,1,105,8|0,0:0|0:0,0:0:0:0:
324,100,36918,2,0,L|212:100,1,105,0|0,0:0|0:0,0:0:0:0:
360,68,37210,2,0,L|472:68,1,105,8|0,0:0|0:0,0:0:0:0:
384,160,37503,1,0,0:0:0:0:
288,160,37650,1,0,0:0:0:0:
192,160,37796,1,8,0:0:0:0:
336,208,37942,1,0,0:0:0:0:
192,320,38089,6,0,L|256:320,1,52.5
208,256,38235,2,0,L|272:256,1,52.5
256,192,38381,2,0,L|128:192,1,105,8|4,0:0|2:0,0:0:0:0:
480,224,38674,6,0,P|418:175|514:147,1,210,4|0,1:0|0:0,0:0:0:0:
400,160,39113,1,2,0:0:0:0:
304,112,39259,2,0,L|192:112,1,105,8|0,0:0|0:0,0:0:0:0:
128,48,39552,2,0,L|256:48,1,105
64,160,39845,2,0,L|135:77,1,105,0|2,0:0|0:0,0:0:0:0:
272,80,40137,2,0,L|352:183,1,105,8|2,0:0|0:0,0:0:0:0:
16,224,40430,2,0,B|16:320|16:320|96:320|96:320|32:320,1,210,12|0,0:0|0:0,0:0:0:0:
144,240,40869,1,8,0:0:0:0:
192,144,41015,6,0,L|304:144,1,105
400,144,41308,1,10,0:0:0:0:
272,288,41454,1,0,0:0:0:0:
368,288,41601,2,0,L|460:344,1,105,10|0,0:0|0:0,0:0:0:0:
432,256,41893,1,8,0:0:0:0:
320,96,42040,1,0,0:0:0:0:
208,112,42186,2,0,P|160:80|144:24,2,105,2|0|10,0:0|0:0|0:0,0:0:0:0:
112,176,42625,2,0,L|224:176,1,105,2|12,0:0|0:0,0:0:0:0:
352,160,42845,2,0,L|416:160,5,52.5
192,128,43357,6,0,P|176:240|96:272,1,210,4|8,0:0|0:0,0:0:0:0:
320,128,43796,2,0,P|336:240|416:272,1,210,4|8,0:0|0:0,0:0:0:0:
352,320,44235,2,0,L|464:320,1,105,0|0,0:0|0:0,0:0:0:0:
352,320,44528,2,0,L|240:320,2,105,10|0|10,0:0|0:0|0:0,0:0:0:0:
272,240,44967,1,0,0:0:0:0:
160,240,45113,1,4,0:0:0:0:
464,240,45259,1,0,0:0:0:0:
368,240,45406,2,0,B|304:288|304:288|416:204,1,210,2|8,0:0|0:0,0:0:0:0:
160,288,45991,5,8,0:0:0:0:
352,288,46284,1,8,0:0:0:0:
128,288,46576,1,2,0:0:0:0:
384,288,46869,1,4,0:0:0:0:
32,288,47162,1,4,0:0:0:0:
480,288,47454,2,0,L|256:288,1,210,4|0,0:0|0:0,0:0:0:0:
416,128,48040,5,12,0:0:0:0:
280,128,48186,1,0,0:0:0:0:
416,128,48332,2,0,L|320:32,1,125.999996154785
192,192,48625,1,8,0:0:0:0:
360,256,48771,1,0,0:0:0:0:
264,248,48918,1,8,0:0:0:0:
112,256,49064,2,0,L|236:224,1,125.999996154785,0|8,0:0|0:0,0:0:0:0:
216,172,49357,1,0,0:0:0:0:
352,160,49503,1,8,0:0:0:0:
159,263,49650,1,0,0:0:0:0:
64,224,49796,2,0,B|272:56,1,251.999992309571,8|8,0:0|0:0,0:0:0:0:
424,96,50235,1,0,0:0:0:0:
316,236,50381,5,8,0:0:0:0:
216,272,50528,1,0,0:0:0:0:
334,163,50674,2,0,P|400:196|342:249,1,125.999996154785,8|0,0:0|0:0,0:0:0:0:
208,220,50967,2,0,P|160:200|198:124,1,125.999996154785,8|0,0:0|0:0,0:0:0:0:
320,192,51259,1,8,0:0:0:0:
168,240,51406,1,0,0:0:0:0:
380,233,51552,1,8,0:0:0:0:
160,160,51698,1,0,0:0:0:0:
352,288,51845,1,8,0:0:0:0:
192,320,51991,1,0,0:0:0:0:
256,160,52137,1,8,0:0:0:0:
384,152,52284,1,0,0:0:0:0:
216,240,52430,1,0,0:0:0:0:
336,224,52576,1,8,0:0:0:0:
128,96,52723,6,0,P|68:76|40:24,1,125.999996154785,12|0,0:0|0:0,0:0:0:0:
308,103,53015,1,8,0:0:0:0:
472,288,53162,2,0,L|221:223,1,251.999992309571,8|0,0:0|0:0,0:0:0:0:
136,160,53601,1,8,0:0:0:0:
256,124,53747,2,0,P|216:164|238:222,1,125.999996154785,0|8,0:0|0:0,0:0:0:0:
356,208,54040,1,0,0:0:0:0:
180,136,54186,2,0,B|432:140,1,251.999992309571,8|8,0:0|0:0,0:0:0:0:
176,100,54625,2,0,L|172:232,1,125.999996154785,0|8,0:0|0:0,0:0:0:0:
349,194,54918,1,0,0:0:0:0:
96,192,55064,6,0,P|139:122|252:215,1,251.999992309571,12|8,0:0|0:0,0:0:0:0:
252,115,55503,1,0,0:0:0:0:
324,104,55650,2,0,P|380:128|406:71,1,125.999996154785,8|0,0:0|0:0,0:0:0:0:
324,176,55942,1,8,0:0:0:0:
192,172,56089,1,0,0:0:0:0:
284,152,56235,2,0,L|188:64,1,125.999996154785,8|0,0:0|0:0,0:0:0:0:
86,235,56528,2,0,P|136:272|169:208,1,125.999996154785,8|0,0:0|0:0,0:0:0:0:
328,132,56820,1,0,0:0:0:0:
276,116,56893,1,0,0:0:0:0:
180,88,56967,1,0,0:0:0:0:
176,140,57040,1,0,0:0:0:0:
252,212,57113,1,0,0:0:0:0:
328,240,57186,1,0,0:0:0:0:
264,244,57259,1,0,0:0:0:0:
196,224,57332,1,0,0:0:0:0:
328,52,57406,6,0,B|448:124,1,125.999996154785,12|0,0:0|0:0,0:0:0:0:
253,230,57698,2,0,B|120:280,1,125.999996154785,8|0,0:0|0:0,0:0:0:0:
68,152,57991,2,0,P|150:227|231:135,1,251.999992309571,8|8,0:0|0:0,0:0:0:0:
176,172,58430,1,0,0:0:0:0:
336,108,58576,2,0,P|296:60|252:103,1,125.999996154785,8|0,0:0|0:0,0:0:0:0:
212,245,58869,2,0,P|248:292|296:250,1,125.999996154785,8|0,0:0|0:0,0:0:0:0:
416,200,59162,2,0,P|361:122|266:227,1,251.999992309571,8|8,0:0|0:0,0:0:0:0:
135,275,59601,1,0,0:0:0:0:
112,152,59747,6,0,L|196:48,1,125.999996154785,8|0,0:0|0:0,0:0:0:0:
292,184,60040,1,8,0:0:0:0:
260,136,60186,1,0,0:0:0:0:
176,268,60332,2,0,L|136:149,1,125.999996154785,8|0,0:0|0:0,0:0:0:0:
370,155,60625,1,8,0:0:0:0:
246,127,60771,1,0,0:0:0:0:
292,156,60918,2,0,P|332:112|292:64,1,125.999996154785,12|0,0:0|0:0,0:0:0:0:
176,236,61210,2,0,P|133:281|182:316,1,125.999996154785,8|0,0:0|0:0,0:0:0:0:
392,156,61503,2,0,B|130:149,1,251.999992309571,8|8,0:0|0:0,0:0:0:0:
43,254,61942,1,0,0:0:0:0:
100,84,62089,6,0,L|232:84,1,125.999996154785,12|0,0:0|0:0,0:0:0:0:
334,332,62381,2,0,L|192:312,1,125.999996154785,8|0,0:0|0:0,0:0:0:0:
420,355,62674,1,8,0:0:0:0:
470,282,62820,1,0,0:0:0:0:
176,168,62967,1,8,0:0:0:0:
296,156,63113,2,0,P|248:204|308:249,1,125.999996154785,0|8,0:0|0:0,0:0:0:0:
88,120,63406,2,0,L|165:240,1,125.999996154785,0|8,0:0|0:0,0:0:0:0:
303,38,63698,1,0,0:0:0:0:
226,90,63845,1,8,0:0:0:0:
268,136,63991,1,0,0:0:0:0:
324,136,64137,1,8,0:0:0:0:
276,188,64284,1,0,0:0:0:0:
240,236,64430,5,12,0:0:0:0:
292,124,64576,1,0,0:0:0:0:
160,88,64723,2,0,P|136:156|184:198,1,125.999996154785,8|0,0:0|0:0,0:0:0:0:
116,224,65015,1,8,0:0:0:0:
336,232,65162,2,0,P|396:200|353:148,1,125.999996154785,0|8,0:0|0:0,0:0:0:0:
227,349,65454,1,0,0:0:0:0:
131,246,65601,1,8,0:0:0:0:
276,275,65747,1,0,0:0:0:0:
144,330,65893,1,8,0:0:0:0:
252,112,66040,2,0,L|332:112,6,62.9999980773926,0|0|0|0|0|0|0,0:0|0:0|0:0|0:0|0:0|0:0|0:0,0:0:0:0:
72,132,66771,1,0,0:0:0:0:
268,88,76137,5,0,0:0:0:0:
106,75,76284,1,0,0:0:0:0:
176,136,76430,2,0,L|208:261,1,105
336,256,76723,2,0,P|272:184|355:125,1,210,0|8,0:0|0:0,0:0:0:0:
202,346,77162,1,8,0:0:0:0:
360,136,77308,2,0,P|319:101|285:152,1,105,0|0,0:0|0:0,0:0:0:0:
88,176,77601,2,0,P|128:205|96:246,1,105
272,240,77893,2,0,P|203:191|273:112,1,210,0|8,0:0|0:0,0:0:0:0:
368,192,78332,1,8,0:0:0:0:
128,112,78479,6,0,P|162:153|154:237,1,105
320,152,78771,2,0,P|301:91|328:48,1,105,0|8,0:0|0:0,0:0:0:0:
168,232,79064,2,0,P|148:308|68:244,1,210,8|8,0:0|0:0,0:0:0:0:
296,200,79503,1,0,0:0:0:0:
180,96,79650,2,0,P|132:128|170:169,1,105,0|0,1:0|0:0,0:0:0:0:
370,121,79942,2,0,P|372:68|432:80,1,105,0|0,0:0|0:0,0:0:0:0:
248,188,80235,2,0,P|203:268|133:190,1,210,0|8,1:0|0:0,0:0:0:0:
272,164,80674,1,8,0:0:0:0:
424,216,80820,5,0,0:0:0:0:
92,218,80967,2,0,L|228:44,1,210,0|0,0:0|1:0,0:0:0:0:
72,48,81406,2,0,B|56:168,1,105,8|0,0:0|0:0,0:0:0:0:
175,275,81698,2,0,B|240:184,1,105,0|8,1:0|0:0,0:0:0:0:
221,351,81991,1,0,0:0:0:0:
307,351,82137,1,0,0:0:0:0:
184,264,82284,1,8,0:0:0:0:
336,264,82430,1,0,0:0:0:0:
368,124,82576,2,0,B|128:108,1,210
284,188,83015,1,0,1:0:0:0:
432,196,83162,5,0,1:0:0:0:
24,96,83308,2,0,B|140:136,1,105,0|8,0:0|0:0,0:0:0:0:
247,73,83601,1,8,0:0:0:0:
232,144,83747,2,0,P|170:230|120:154,1,210,0|0,0:0|1:0,0:0:0:0:
322,166,84186,1,0,0:0:0:0:
324,149,84332,2,0,L|388:52,1,105,0|0,1:0|0:0,0:0:0:0:
237,218,84625,1,8,0:0:0:0:
314,276,84771,1,8,0:0:0:0:
404,220,84918,1,0,0:0:0:0:
208,224,84991,1,0,0:0:0:0:
208,216,85064,1,0,0:0:0:0:
260,260,85137,1,0,0:0:0:0:
136,140,85210,2,0,B|241:146,1,105,0|4,1:0|0:0,0:0:0:0:
343,358,85503,5,8,0:0:0:0:
208,344,85650,1,0,0:0:0:0:
72,280,85796,1,8,0:0:0:0:
272,288,85942,1,8,0:0:0:0:
432,272,86089,1,0,0:0:0:0:
196,176,86235,1,0,0:0:0:0:
320,192,86381,1,8,0:0:0:0:
256,136,86528,1,8,0:0:0:0:
400,120,86674,1,0,0:0:0:0:
80,192,86967,5,0,0:0:0:0:
408,192,87259,1,0,0:0:0:0:
40,328,87845,1,0,0:0:0:0:
456,256,88137,1,0,0:0:0:0:
176,208,88430,1,0,0:0:0:0:
496,112,88723,5,8,0:0:0:0:
328,128,88869,1,8,0:0:0:0:
192,120,89015,1,0,0:0:0:0:
288,128,89162,1,0,0:0:0:0:
408,272,89308,2,0,B|208:205,2,210
287,270,90186,6,0,L|396:244,1,105,8|0,0:0|0:0,0:0:0:0:
220,248,90479,1,8,0:0:0:0:
256,184,90625,2,0,L|124:212,1,105,8|0,0:0|0:0,0:0:0:0:
60,144,90918,1,0,0:0:0:0:
284,116,91064,2,0,L|196:196,1,105,8|8,0:0|0:0,0:0:0:0:
440,144,91357,2,0,P|384:76|352:158,2,210,0|0|0,1:0|1:0|1:0,0:0:0:0:
152,296,92235,1,8,0:0:0:0:
392,224,92528,5,8,0:0:0:0:
180,224,92674,1,0,0:0:0:0:
304,200,92820,1,8,0:0:0:0:
200,168,92967,1,8,0:0:0:0:
384,160,93113,1,0,0:0:0:0:
240,120,93259,1,0,0:0:0:0:
125,195,93406,2,0,L|120:312,1,105,8|8,0:0|0:0,0:0:0:0:
264,256,93698,6,0,L|440:132,2,210,4|4|4,0:0|0:0|0:0,0:0:0:0:
168,256,94357,1,0,0:0:0:0:
236,256,94430,1,0,0:0:0:0:
304,264,94503,1,0,0:0:0:0:
200,256,94576,1,4,0:0:0:0:
424,176,94723,1,0,0:0:0:0:
196,128,94869,6,0,B|424:100,1,210,4|8,0:0|0:0,0:0:0:0:
288,192,95308,1,2,0:0:0:0:
472,208,95454,2,0,L|347:36,1,210
283,263,95893,1,0,0:0:0:0:
160,264,96040,2,0,B|165:133,1,105,8|2,0:0|0:0,0:0:0:0:
440,144,96332,2,0,B|356:48,1,105,8|2,0:0|0:0,0:0:0:0:
248,112,96625,2,0,L|136:80,1,105,12|0,0:0|0:0,0:0:0:0:
284,140,96918,2,0,L|382:196,1,105,8|0,0:0|0:0,0:0:0:0:
110,339,97210,5,8,0:0:0:0:
288,256,97357,1,2,0:0:0:0:
34,261,97503,2,0,L|64:136,1,105,2|8,0:0|0:0,0:0:0:0:
164,192,97796,2,0,B|384:184,1,210,8|10,0:0|0:0,0:0:0:0:
364,289,98235,1,10,0:0:0:0:
220,156,98381,2,0,L|104:128,1,105,8|2,0:0|0:0,0:0:0:0:
276,224,98674,2,0,L|402:226,1,105,10|8,0:0|0:0,0:0:0:0:
320,113,98967,2,0,L|200:100,1,105,0|0,1:0|1:0,0:0:0:0:
416,117,99259,1,0,0:0:0:0:
264,160,99406,1,0,0:0:0:0:
160,48,99552,6,0,L|148:272,1,210,4|8,0:0|0:0,0:0:0:0:
504,72,99991,1,2,0:0:0:0:
408,96,100137,2,0,P|387:72|300:48,1,105,8|2,0:0|0:0,0:0:0:0:
244,142,100430,2,0,L|352:180,1,105,0|0,0:0|0:0,0:0:0:0:
150,85,100723,2,0,P|116:12|22:87,1,210,8|8,0:0|0:0,0:0:0:0:
208,80,101162,2,0,P|240:124|271:75,1,105,0|10,0:0|0:0,0:0:0:0:
101,185,101601,2,0,L|240:192,1,105,8|0,0:0|0:0,0:0:0:0:
332,120,101893,5,8,0:0:0:0:
184,264,102186,1,8,0:0:0:0:
384,192,102332,1,0,0:0:0:0:
96,220,102479,1,8,0:0:0:0:
255,205,102771,1,8,0:0:0:0:
360,196,103064,1,4,0:0:0:0:
84,196,103357,1,4,0:0:0:0:
400,288,103650,5,4,0:0:0:0:
336,280,103723,1,0,0:0:0:0:
386,226,103796,1,0,0:0:0:0:
320,216,103869,1,0,0:0:0:0:
399,148,103942,2,0,L|448:44,1,105,0|0,0:0|0:0,0:0:0:0:
220,235,104235,6,0,P|160:320|85:222,1,251.999992309571,12|8,0:0|0:0,0:0:0:0:
305,185,104674,1,0,0:0:0:0:
128,68,104820,2,0,L|144:248,1,125.999996154785,8|0,0:0|0:0,0:0:0:0:
328,128,105113,1,8,0:0:0:0:
176,152,105259,1,0,0:0:0:0:
360,192,105406,1,8,0:0:0:0:
152,208,105552,1,0,0:0:0:0:
356,120,105698,1,8,0:0:0:0:
256,84,105845,1,0,0:0:0:0:
192,144,105991,2,0,P|220:212|170:225,1,125.999996154785,8|0,0:0|0:0,0:0:0:0:
336,240,106284,1,8,0:0:0:0:
203,265,106430,1,0,0:0:0:0:
320,116,106576,6,0,L|188:88,1,125.999996154785,8|0,0:0|0:0,0:0:0:0:
231,193,106869,1,8,0:0:0:0:
119,257,107015,1,0,0:0:0:0:
364,274,107162,2,0,P|336:208|266:243,1,125.999996154785,8|0,0:0|0:0,0:0:0:0:
296,349,107454,1,0,0:0:0:0:
152,232,107601,1,8,0:0:0:0:
260,256,107747,2,0,P|176:193|268:93,1,251.999992309571,8|8,0:0|0:0,0:0:0:0:
84,349,108186,1,0,0:0:0:0:
316,172,108332,2,0,L|176:160,1,125.999996154785,12|0,0:0|0:0,0:0:0:0:
104,144,108625,2,0,B|200:268,1,125.999996154785,8|0,0:0|0:0,0:0:0:0:
360,232,108918,5,12,0:0:0:0:
228,362,109064,1,0,0:0:0:0:
204,216,109210,2,0,L|112:120,1,125.999996154785,8|0,0:0|0:0,0:0:0:0:
373,351,109503,1,8,0:0:0:0:
256,216,109650,1,8,0:0:0:0:
344,64,109796,2,0,L|388:200,1,125.999996154785
60,120,110089,2,0,L|192:120,1,125.999996154785,8|0,0:0|0:0,0:0:0:0:
297,261,110381,2,0,P|228:344|151:220,1,251.999992309571,8|8,0:0|0:0,0:0:0:0:
235,204,110820,1,0,0:0:0:0:
92,196,110967,2,0,L|180:104,1,125.999996154785,8|0,0:0|0:0,0:0:0:0:
284,52,111259,6,0,L|408:284,1,251.999992309571,8|8,0:0|0:0,0:0:0:0:
324,177,111698,1,0,0:0:0:0:
148,52,111845,2,0,L|144:184,1,125.999996154785,8|0,0:0|0:0,0:0:0:0:
389,106,112137,1,8,0:0:0:0:
312,36,112284,1,0,0:0:0:0:
348,164,112430,1,12,0:0:0:0:
120,192,112576,1,0,0:0:0:0:
219,217,112723,1,8,0:0:0:0:
296,149,112869,1,0,0:0:0:0:
196,76,113015,6,0,L|268:80,7,62.9999980773926
84,260,113601,6,0,L|216:280,1,125.999996154785,12|0,0:0|0:0,0:0:0:0:
368,196,113893,2,0,L|240:184,1,125.999996154785,8|0,0:0|0:0,0:0:0:0:
304,264,114186,2,0,L|436:256,1,125.999996154785,8|0,0:0|0:0,0:0:0:0:
327,113,114479,1,8,0:0:0:0:
152,112,114625,1,8,0:0:0:0:
232,268,114771,2,0,L|240:132,1,125.999996154785,0|8,0:0|0:0,0:0:0:0:
406,172,115064,2,0,L|484:64,1,125.999996154785,8|0,0:0|0:0,0:0:0:0:
336,244,115357,2,0,B|72:224,1,251.999992309571,8|8,0:0|0:0,0:0:0:0:
292,347,115796,1,0,0:0:0:0:
256,124,115942,6,0,P|216:172|170:120,1,125.999996154785,12|0,0:0|0:0,0:0:0:0:
168,160,116235,1,8,0:0:0:0:
484,305,116381,1,0,0:0:0:0:
241,138,116528,2,0,P|196:112|243:54,1,125.999996154785,8|0,0:0|0:0,0:0:0:0:
323,205,116820,1,8,0:0:0:0:
144,128,116967,1,0,0:0:0:0:
24,224,117113,2,0,B|288:180,1,251.999992309571,8|8,0:0|0:0,0:0:0:0:
144,256,117552,1,0,0:0:0:0:
368,240,117698,2,0,L|424:124,1,125.999996154785,8|0,0:0|0:0,0:0:0:0:
0,256,117991,2,0,L|80:88,1,125.999996154785,8|0,0:0|0:0,0:0:0:0:
480,80,118284,5,12,0:0:0:0:
144,192,118430,1,0,0:0:0:0:
432,256,118576,2,0,L|504:144,1,125.999996154785,8|0,0:0|0:0,0:0:0:0:
256,365,118869,1,8,0:0:0:0:
359,357,119015,1,0,0:0:0:0:
435,286,119162,1,8,0:0:0:0:
420,175,119308,1,0,0:0:0:0:
136,212,119454,1,8,0:0:0:0:
301,277,119601,1,0,0:0:0:0:
420,175,119747,2,0,L|407:77,1,85,8|0,0:0|0:0,0:0:0:0:
364,68,120040,2,0,P|312:150|208:49,1,251.999992309571,8|8,0:0|0:0,0:0:0:0:
92,299,120479,1,0,0:0:0:0:
228,38,120625,6,0,P|192:-10|134:42,1,125.999996154785,8|0,0:0|0:0,0:0:0:0:
120,164,120918,2,0,P|172:224|214:160,1,125.999996154785,8|0,0:0|0:0,0:0:0:0:
427,280,121210,2,0,P|392:232|333:284,1,125.999996154785,8|0,0:0|0:0,0:0:0:0:
496,215,121503,1,8,0:0:0:0:
440,131,121650,1,0,0:0:0:0:
512,59,121796,1,8,0:0:0:0:
496,215,121942,1,0,0:0:0:0:
335,180,122089,2,0,B|196:160,1,125.999996154785,8|0,0:0|0:0,0:0:0:0:
232,280,122381,1,0,0:0:0:0:
208,272,122454,1,0,0:0:0:0:
136,256,122528,1,0,0:0:0:0:
84,272,122601,1,0,0:0:0:0:
176,264,122674,1,0,0:0:0:0:
116,192,122967,6,2,B|255:190,1,105,8|0,0:0|0:0,0:0:0:0:
208,318,123259,2,0,L|332:316,1,105,0|2,0:0|0:0,0:0:0:0:
494,218,123552,2,0,B|260:216,1,210,10|0,0:0|0:0,0:0:0:0:
278,105,123991,1,0,0:0:0:0:
160,248,124137,2,0,L|278:207,1,105,10|2,0:0|0:0,0:0:0:0:
328,152,124430,1,0,0:0:0:0:
224,104,124576,2,0,L|104:96,1,105,2|10,0:0|0:0,0:0:0:0:
204,204,124869,1,2,0:0:0:0:
88,284,125015,6,0,P|56:232|99:205,1,105,0|2,0:0|0:0,0:0:0:0:
276,232,125308,2,0,P|266:277|204:296,1,105,10|0,0:0|0:0,0:0:0:0:
336,160,125601,2,0,P|376:120|432:157,1,105,2|2,0:0|0:0,0:0:0:0:
262,117,125893,1,10,0:0:0:0:
199,174,126040,1,0,0:0:0:0:
412,204,126186,1,2,0:0:0:0:
112,188,126332,1,2,0:0:0:0:
408,104,126479,5,10,0:0:0:0:
132,112,126625,1,0,0:0:0:0:
280,240,126771,1,0,0:0:0:0:
84,264,126918,1,2,0:0:0:0:
192,264,127064,1,10,0:0:0:0:
136,272,127210,1,2,0:0:0:0:
256,224,127357,1,0,0:0:0:0:
397,176,127503,1,2,0:0:0:0:
292,160,127650,1,10,0:0:0:0:
152,144,127796,1,2,0:0:0:0:
256,108,127942,5,0,0:0:0:0:
416,152,128089,1,2,0:0:0:0:
232,184,128235,1,10,0:0:0:0:
148,200,128381,1,2,0:0:0:0:
284,256,128528,1,0,0:0:0:0:
400,248,128674,1,2,0:0:0:0:
140,232,128820,5,10,0:0:0:0:
250,155,128967,1,2,0:0:0:0:
288,244,129113,2,0,L|360:156,1,105,0|2,0:0|0:0,0:0:0:0:
178,116,129406,1,10,0:0:0:0:
144,240,129552,1,2,0:0:0:0:
268,228,129698,1,2,0:0:0:0:
384,240,129845,1,0,0:0:0:0:
152,268,129991,6,0,P|116:296|63:247,1,105,10|2,0:0|0:0,0:0:0:0:
230,258,130284,1,0,0:0:0:0:
320,216,130430,1,2,0:0:0:0:
184,184,130576,1,10,0:0:0:0:
328,160,130723,1,2,0:0:0:0:
192,136,130869,1,0,0:0:0:0:
350,201,131015,1,2,0:0:0:0:
168,124,131162,6,0,L|280:120,1,105,10|0,0:0|0:0,0:0:0:0:
115,250,131454,1,2,0:0:0:0:
172,52,131601,2,0,L|56:52,1,105,2|2,0:0|0:0,0:0:0:0:
263,350,131893,1,0,0:0:0:0:
168,312,131967,1,0,0:0:0:0:
160,260,132040,1,0,0:0:0:0:
172,192,132113,1,0,0:0:0:0:
204,160,132186,1,0,0:0:0:0:
148,136,132259,1,0,0:0:0:0:
80,168,132332,5,12,0:0:0:0:
256,144,132479,1,0,0:0:0:0:
160,180,132625,2,0,L|48:172,1,105,8|0,0:0|0:0,0:0:0:0:
343,120,132918,2,0,L|452:128,1,105,8|0,0:0|0:0,0:0:0:0:
304,228,133210,1,8,0:0:0:0:
152,232,133357,1,0,0:0:0:0:
280,160,133503,1,8,0:0:0:0:
120,144,133650,1,0,0:0:0:0:
440,192,133796,5,8,0:0:0:0:
336,248,133942,1,0,0:0:0:0:
216,280,134089,1,8,0:0:0:0:
128,192,134235,1,0,0:0:0:0:
328,184,134381,1,8,0:0:0:0:
224,212,134528,1,0,0:0:0:0:
396,240,134674,5,8,0:0:0:0:
352,80,134820,1,0,0:0:0:0:
448,128,134967,1,8,0:0:0:0:
240,104,135113,1,0,0:0:0:0:
204,188,135259,1,8,0:0:0:0:
320,184,135406,1,0,0:0:0:0:
112,152,135552,1,8,0:0:0:0:
248,176,135698,1,0,0:0:0:0:
104,208,135845,5,8,0:0:0:0:
280,264,135991,1,0,0:0:0:0:
384,176,136137,1,8,0:0:0:0:
248,192,136284,1,0,0:0:0:0:
8,152,136430,2,0,P|40:104|131:199,1,210,4|8,0:0|0:0,0:0:0:0:
304,144,137015,5,4,0:0:0:0:
96,188,137162,1,0,0:0:0:0:
272,208,137308,1,8,0:0:0:0:
120,256,137454,1,0,0:0:0:0:
224,248,137601,1,8,0:0:0:0:
344,224,137747,1,0,0:0:0:0:
128,248,137893,1,8,0:0:0:0:
256,224,138040,1,0,0:0:0:0:
296,180,138186,5,8,0:0:0:0:
144,120,138332,1,0,0:0:0:0:
328,112,138479,1,8,0:0:0:0:
120,192,138625,1,0,0:0:0:0:
264,96,138771,1,8,0:0:0:0:
400,176,138918,1,0,0:0:0:0:
193,194,139064,1,8,0:0:0:0:
352,248,139210,1,0,0:0:0:0:
224,140,139357,5,14,0:0:0:0:
112,200,139503,1,2,0:0:0:0:
216,240,139650,1,8,0:0:0:0:
296,184,139796,1,0,0:0:0:0:
392,120,139942,1,14,0:0:0:0:
248,192,140089,1,2,0:0:0:0:
160,216,140235,1,8,0:0:0:0:
304,176,140381,1,0,0:0:0:0:
0,248,140528,5,14,0:0:0:0:
256,256,140820,1,10,0:0:0:0:
512,256,141113,1,14,0:0:0:0:
0,200,141406,1,2,0:0:0:0:
512,192,141698,1,0,0:0:0:0:
398,301,141991,5,0,0:0:0:0:
232,320,142137,1,0,0:0:0:0:
316,260,142284,2,0,B|116:168,1,210,12|0,0:2|0:0,0:0:0:0:
284,156,142723,1,0,0:0:0:0:
72,200,142869,2,0,B|260:84,2,210,12|0|0,0:2|0:0|0:0,0:0:0:0:
160,80,143601,1,0,0:0:0:0:
320,192,143747,2,0,L|312:76,1,105,0|0,0:0|0:0,0:0:0:0:
480,200,144040,6,0,P|460:268|359:188,1,210,12|0,0:2|0:0,0:0:0:0:
264,192,144479,1,0,0:0:0:0:
93,213,144625,2,0,L|288:108,1,210,12|0,0:2|0:0,0:0:0:0:
96,200,145064,1,0,0:0:0:0:
296,236,145210,5,12,0:2:0:0:
140,192,145503,1,0,0:0:0:0:
232,184,145650,1,0,0:0:0:0:
432,136,145796,1,0,0:0:0:0:
356,132,145942,1,0,0:0:0:0:
212,113,146089,1,0,0:0:0:0:
367,73,146235,1,0,0:0:0:0:
188,144,146381,6,0,P|221:223|315:144,1,210,12|0,0:2|0:0,0:0:0:0:
152,272,146820,2,0,L|140:148,1,105,0|12,0:0|0:2,0:0:0:0:
288,147,147259,1,0,0:0:0:0:
144,176,147406,2,0,L|132:72,1,105,0|12,0:0|0:2,0:0:0:0:
376,208,147845,2,0,L|173:264,1,210
312,96,148284,2,0,L|208:52,1,105
405,199,148723,5,12,0:2:0:0:
176,112,148869,1,0,0:0:0:0:
288,140,149015,1,0,0:0:0:0:
152,192,149162,1,0,0:0:0:0:
352,296,149308,1,12,0:2:0:0:
188,232,149454,1,0,0:0:0:0:
312,184,149601,2,0,L|312:300,1,105
72,224,149893,2,0,L|160:148,1,105,12|0,0:2|0:0,0:0:0:0:
469,200,150186,2,2,B|260:204,1,210
486,298,152528,6,0,L|468:172,1,105,0|0,0:0|0:0,0:0:0:0:
56,200,152820,2,0,L|48:92,1,105,0|0,0:0|0:0,0:0:0:0:
236,304,153113,2,0,L|288:172,1,105,0|0,0:0|0:0,0:0:0:0:
232,128,153406,2,0,B|8:116,1,210,4|8,0:0|0:0,0:0:0:0:
160,160,153845,2,0,P|180:80|288:139,1,210,0|0,1:0|1:0,0:0:0:0:
449,301,154284,2,0,P|400:308|395:252,1,105,8|0,0:0|0:0,0:0:0:0:
240,232,154576,6,0,P|288:225|294:281,1,105
252,99,154869,1,8,0:0:0:0:
341,112,155015,1,0,0:0:0:0:
136,128,155162,2,0,L|157:246,1,105
292,304,155454,2,0,L|188:257,1,105,8|0,0:0|1:0,0:0:0:0:
172,184,155747,5,0,0:0:0:0:
284,278,155893,1,0,0:0:0:0:
152,84,156040,2,0,L|272:96,1,105,8|0,0:0|0:0,0:0:0:0:
304,184,156332,1,0,0:0:0:0:
32,208,156479,1,0,0:0:0:0:
144,260,156625,2,0,L|160:136,1,105,8|0,0:0|0:0,0:0:0:0:
224,96,156918,6,0,P|276:172|189:221,1,210,0|8,1:0|0:0,0:0:0:0:
123,211,157357,1,0,0:0:0:0:
376,292,157503,2,0,P|404:208|500:265,1,210,0|8,1:0|0:0,0:0:0:0:
272,256,158089,6,0,P|316:280|345:242,1,105,4|0,2:2|0:0,0:0:0:0:
136,96,158381,2,0,P|98:70|63:110,1,105,8|0,0:0|1:0,0:0:0:0:
372,176,158674,2,0,P|416:208|445:162,1,105,0|0,0:0|1:0,0:0:0:0:
132,27,158967,1,8,0:0:0:0:
268,204,159113,1,0,0:0:0:0:
328,64,159259,6,0,L|324:288,1,210,0|8,1:0|0:0,0:0:0:0:
200,208,159698,1,0,0:0:0:0:
68,128,159845,2,0,L|204:144,1,105,0|0,0:0|1:0,0:0:0:0:
376,140,160137,2,0,L|252:160,1,105,8|0,0:0|1:0,0:0:0:0:
64,236,160430,6,0,L|280:228,1,210,0|8,1:0|0:0,0:0:0:0:
477,194,160869,2,0,L|244:176,1,210,0|0,1:0|1:0,0:0:0:0:
140,140,161308,2,0,L|200:48,1,105,8|0,0:0|0:0,0:0:0:0:
327,126,161601,6,0,L|208:160,1,105
288,268,161893,2,0,L|400:216,1,105,8|0,0:0|1:0,0:0:0:0:
272,192,162186,2,0,L|240:128,1,52.5
400,200,162332,2,0,L|416:144,1,52.5
296,104,162479,1,4,0:0:0:0:
424,264,162771,6,0,P|496:220|397:106,1,251.999992309571,14|8,0:0|0:0,0:0:0:0:
311,129,163210,1,0,0:0:0:0:
320,220,163357,2,0,L|168:208,1,125.999996154785,8|0,0:0|0:0,0:0:0:0:
88,261,163650,2,0,L|224:264,1,125.999996154785,8|0,0:0|0:0,0:0:0:0:
224,196,163942,1,8,0:0:0:0:
72,160,164089,1,0,0:0:0:0:
364,232,164235,5,8,0:0:0:0:
296,176,164381,1,0,0:0:0:0:
152,208,164528,1,8,0:0:0:0:
240,224,164674,1,0,0:0:0:0:
192,120,164820,1,8,0:0:0:0:
412,132,164967,1,0,0:0:0:0:
164,164,165113,5,8,0:0:0:0:
264,168,165259,1,0,0:0:0:0:
380,180,165406,1,8,0:0:0:0:
172,276,165552,1,0,0:0:0:0:
332,176,165698,1,8,0:0:0:0:
132,100,165845,2,0,L|268:58,1,125.999996154785,0|8,0:0|0:0,0:0:0:0:
328,148,166137,1,0,0:0:0:0:
188,224,166284,5,8,0:0:0:0:
72,192,166430,1,0,0:0:0:0:
200,144,166576,1,8,0:0:0:0:
288,132,166723,1,0,0:0:0:0:
288,180,166796,1,0,0:0:0:0:
112,132,166869,2,0,L|108:268,1,125.999996154785,8|0,0:0|0:0,0:0:0:0:
250,184,167162,1,8,0:0:0:0:
192,144,167308,1,0,0:0:0:0:
240,88,167454,5,12,0:0:0:0:
368,96,167601,1,0,0:0:0:0:
224,224,167747,1,8,0:0:0:0:
112,208,167893,1,0,0:0:0:0:
288,200,168040,1,8,0:0:0:0:
196,200,168186,1,0,0:0:0:0:
56,144,168332,5,8,0:0:0:0:
180,80,168479,1,0,0:0:0:0:
256,152,168625,1,8,0:0:0:0:
144,192,168771,1,0,0:0:0:0:
316,168,168918,1,8,0:0:0:0:
216,264,169064,1,0,0:0:0:0:
344,256,169210,1,8,0:0:0:0:
464,256,169357,1,0,0:0:0:0:
320,112,169503,2,0,L|252:232,1,125.999996154785,8|0,0:0|0:0,0:0:0:0:
148,144,169796,6,0,L|284:95,1,125.999996154785,8|0,0:0|0:0,0:0:0:0:
392,216,170089,2,0,L|288:120,1,125.999996154785,8|0,0:0|0:0,0:0:0:0:
216,272,170381,2,0,L|342:223,1,125.999996154785,8|0,0:0|0:0,0:0:0:0:
104,152,170674,2,0,L|77:293,1,125.999996154785,8|0,0:0|0:0,0:0:0:0:
321,329,170967,2,0,L|288:200,1,125.999996154785,12|0,0:0|0:0,0:0:0:0:
398,366,171259,1,8,0:0:0:0:
511,277,171406,1,0,0:0:0:0:
164,184,171552,6,0,L|232:184,8,62.9999980773926,0|0|0|0|0|0|0|0|4,0:0|0:0|0:0|0:0|0:0|0:0|0:0|0:0|0:0,0:0:0:0:
96,272,172284,5,0,0:0:0:0:
172,144,172430,2,0,B|52:144,1,105,8|0,0:0|0:0,0:0:0:0:
288,136,172723,2,0,P|352:204|456:151,1,210,0|8,0:0|0:0,0:0:0:0:
164,304,173162,1,0,0:0:0:0:
312,256,173308,2,0,P|262:177|248:124,1,105
512,104,173601,2,0,L|432:184,1,105,8|0,0:0|0:0,0:0:0:0:
80,192,173893,2,0,L|7:102,1,105
192,208,174186,1,8,0:0:0:0:
320,208,174332,1,0,0:0:0:0:
416,160,174479,6,0,P|348:200|245:129,1,210,0|8,0:0|0:0,0:0:0:0:
208,200,174918,1,0,0:0:0:0:
352,208,175064,1,0,0:0:0:0:
256,280,175210,1,0,0:0:0:0:
112,144,175357,2,0,P|151:175|209:134,1,105,8|0,0:0|0:0,0:0:0:0:
192,136,175650,6,0,P|172:104|117:68,1,105
400,256,175942,2,0,P|444:288|483:249,1,105,8|0,0:0|0:0,0:0:0:0:
224,184,176235,2,0,P|284:132|396:189,1,210,0|8,0:0|0:0,0:0:0:0:
280,232,176674,1,0,0:0:0:0:
104,256,176820,6,0,L|80:36,1,210,4|8,0:0|0:0,0:0:0:0:
272,312,177259,1,0,0:0:0:0:
92,281,177406,2,0,L|84:172,1,105,0|0,0:0|0:0,0:0:0:0:
344,312,177698,1,8,0:0:0:0:
132,220,177845,1,0,0:0:0:0:
384,268,177991,2,0,L|356:56,1,210,0|8,0:0|0:0,0:0:0:0:
212,96,178430,1,0,0:0:0:0:
80,216,178576,2,0,L|184:200,1,105
400,304,178869,1,8,0:0:0:0:
240,366,179015,1,0,0:0:0:0:
85,308,179162,6,0,P|40:252|95:133,1,210,4|8,0:0|0:0,0:0:0:0:
316,184,179601,1,0,0:0:0:0:
176,184,179747,1,0,0:0:0:0:
296,256,179893,1,0,0:0:0:0:
384,176,180040,1,8,0:0:0:0:
248,160,180186,1,0,0:0:0:0:
440,248,180332,1,0,0:0:0:0:
184,288,180479,1,0,0:0:0:0:
408,104,180625,1,8,0:0:0:0:
256,224,180771,1,0,0:0:0:0:
144,228,180918,6,0,P|119:222|28:200,1,105,8|0,0:0|0:0,0:0:0:0:
304,88,181210,2,0,L|368:84,4,52.5,4|0|0|0|0,0:0|0:0|0:0|0:0|0:0,0:0:0:0:
