osu file format v13

[General]
AudioFilename: Metal cloud.mp3
AudioLeadIn: 0
PreviewTime: 45920
Countdown: 0
SampleSet: None
StackLeniency: 0.7
Mode: 3
LetterboxInBreaks: 0
SpecialStyle: 0
WidescreenStoryboard: 1

[Editor]
Bookmarks: 7390,12765,24247,32635,37684
DistanceSpacing: 0.8
BeatDivisor: 4
GridSize: 32
TimelineZoom: 1

[Metadata]
Title:Metal Cloud
TitleUnicode:メタルクラウド
Artist:Hikoshi Hashimoto
ArtistUnicode:橋本 彦士
Creator:Lazly-kun
Version:7K NM
Source:ブレイブフロンティア (Brave Frontier)
Tags:Brave frontier, game music, video game, game, RPG
BeatmapID:570460
BeatmapSetID:247257

[Difficulty]
HPDrainRate:8
CircleSize:7
OverallDifficulty:8
ApproachRate:5
SliderMultiplier:1.4
SliderTickRate:1

[Events]
//Background and Video events
0,0,"brave-frontier-alim-1.jpg",0,0
//Break Periods
//Storyboard Layer 0 (Background)
//Storyboard Layer 1 (Fail)
//Storyboard Layer 2 (Pass)
//Storyboard Layer 3 (Foreground)
//Storyboard Sound Samples

[TimingPoints]
306,325.734324324324,4,1,0,100,1,0
47211,-100,4,1,0,100,0,1
62846,-100,4,1,0,100,0,0

[HitObjects]
182,192,1446,5,0,0:0:0:0:
329,192,1446,1,0,0:0:0:0:
109,192,1608,1,0,0:0:0:0:
402,192,1608,1,0,0:0:0:0:
256,192,1934,5,0,0:0:0:0:
36,192,1934,128,0,2911:0:0:0:0:
475,192,1934,128,0,2911:0:0:0:0:
256,192,2097,1,0,0:0:0:0:
109,192,2911,128,0,3889:0:0:0:0:
256,192,3400,1,0,0:0:0:0:
256,192,3563,1,0,0:0:0:0:
182,192,3889,128,0,4866:0:0:0:0:
256,192,3889,1,0,0:0:0:0:
256,192,4051,1,0,0:0:0:0:
109,192,4866,128,0,5843:0:0:0:0:
256,192,5354,1,0,0:0:0:0:
256,192,5517,1,0,0:0:0:0:
256,192,5843,1,0,0:0:0:0:
36,192,5843,128,0,7797:0:0:0:0:
256,192,6006,1,0,0:0:0:0:
329,192,6983,1,0,0:0:0:0:
402,192,7064,1,0,0:0:0:0:
475,192,7146,1,0,0:0:0:0:
329,192,7309,1,0,0:0:0:0:
402,192,7472,1,0,0:0:0:0:
475,192,7635,1,0,0:0:0:0:
329,192,7797,1,0,0:0:0:0:
182,192,7797,1,0,0:0:0:0:
256,192,7797,1,0,0:0:0:0:
182,192,7960,1,0,0:0:0:0:
329,192,7960,1,0,0:0:0:0:
109,192,8286,1,0,0:0:0:0:
402,192,8286,1,0,0:0:0:0:
182,192,8775,1,0,0:0:0:0:
329,192,8775,1,0,0:0:0:0:
109,192,9100,1,0,0:0:0:0:
402,192,9100,1,0,0:0:0:0:
329,192,9263,1,0,0:0:0:0:
182,192,9263,1,0,0:0:0:0:
256,192,9752,1,0,0:0:0:0:
256,192,9915,1,0,0:0:0:0:
36,192,10240,1,0,0:0:0:0:
475,192,10240,1,0,0:0:0:0:
109,192,10729,1,0,0:0:0:0:
402,192,10729,1,0,0:0:0:0:
182,192,11055,1,0,0:0:0:0:
329,192,11055,1,0,0:0:0:0:
256,192,11218,1,0,0:0:0:0:
329,192,11706,1,0,0:0:0:0:
182,192,11706,1,0,0:0:0:0:
402,192,11869,1,0,0:0:0:0:
109,192,11869,1,0,0:0:0:0:
256,192,12195,1,0,0:0:0:0:
182,192,12683,1,0,0:0:0:0:
329,192,12683,1,0,0:0:0:0:
109,192,13009,1,0,0:0:0:0:
402,192,13009,1,0,0:0:0:0:
256,192,13172,1,0,0:0:0:0:
36,192,13661,1,0,0:0:0:0:
329,192,13823,1,0,0:0:0:0:
402,192,13905,1,0,0:0:0:0:
475,192,13986,1,0,0:0:0:0:
256,192,14312,1,0,0:0:0:0:
329,192,14475,1,0,0:0:0:0:
402,192,14638,1,0,0:0:0:0:
475,192,14801,1,0,0:0:0:0:
256,192,14964,1,0,0:0:0:0:
182,192,15126,1,0,0:0:0:0:
109,192,15289,1,0,0:0:0:0:
36,192,15452,1,0,0:0:0:0:
329,192,15615,128,0,16104:0:0:0:0:
402,192,16104,128,0,17244:0:0:0:0:
475,192,17244,128,0,18872:0:0:0:0:
36,192,17569,1,0,0:0:0:0:
109,192,17732,1,0,0:0:0:0:
256,192,17895,1,0,0:0:0:0:
182,192,18058,1,0,0:0:0:0:
109,192,18221,1,0,0:0:0:0:
329,192,18872,128,0,19198:0:0:0:0:
182,192,18872,128,0,19198:0:0:0:0:
402,192,19198,128,0,19524:0:0:0:0:
109,192,19198,128,0,19524:0:0:0:0:
475,192,19524,128,0,20501:0:0:0:0:
36,192,19524,128,0,20501:0:0:0:0:
109,192,20501,128,0,20827:0:0:0:0:
402,192,20501,128,0,20827:0:0:0:0:
329,192,20827,128,0,21152:0:0:0:0:
182,192,20827,128,0,21152:0:0:0:0:
256,192,21152,128,0,21478:0:0:0:0:
36,192,21478,1,0,0:0:0:0:
109,192,21641,1,0,0:0:0:0:
182,192,21804,1,0,0:0:0:0:
256,192,21967,1,0,0:0:0:0:
329,192,22130,1,0,0:0:0:0:
402,192,22293,1,0,0:0:0:0:
475,192,22455,1,0,0:0:0:0:
402,192,22618,1,0,0:0:0:0:
329,192,22781,1,0,0:0:0:0:
256,192,22944,1,0,0:0:0:0:
182,192,23107,1,0,0:0:0:0:
109,192,23270,1,0,0:0:0:0:
36,192,23433,128,0,23921:0:0:0:0:
475,192,23433,128,0,23921:0:0:0:0:
109,192,23921,128,0,25387:0:0:0:0:
402,192,23921,128,0,25387:0:0:0:0:
256,192,23921,1,0,0:0:0:0:
256,192,24247,1,0,0:0:0:0:
256,192,24410,1,0,0:0:0:0:
256,192,24736,1,0,0:0:0:0:
256,192,25061,1,0,0:0:0:0:
36,192,25387,1,0,0:0:0:0:
109,192,25550,1,0,0:0:0:0:
182,192,25713,1,0,0:0:0:0:
256,192,25876,1,0,0:0:0:0:
329,192,26039,1,0,0:0:0:0:
36,192,26690,128,0,27016:0:0:0:0:
475,192,26690,128,0,27016:0:0:0:0:
109,192,27016,128,0,27341:0:0:0:0:
402,192,27016,128,0,27341:0:0:0:0:
329,192,27341,128,0,28319:0:0:0:0:
182,192,27341,128,0,28319:0:0:0:0:
402,192,28319,128,0,28644:0:0:0:0:
109,192,28319,128,0,28644:0:0:0:0:
475,192,28644,128,0,28970:0:0:0:0:
36,192,28644,128,0,28970:0:0:0:0:
402,192,28970,128,0,29296:0:0:0:0:
109,192,28970,128,0,29296:0:0:0:0:
182,192,29296,128,0,30273:0:0:0:0:
329,192,29296,128,0,30273:0:0:0:0:
256,192,30273,128,0,31250:0:0:0:0:
182,192,31250,1,0,0:0:0:0:
329,192,31250,1,0,0:0:0:0:
109,192,31413,1,0,0:0:0:0:
402,192,31413,1,0,0:0:0:0:
256,192,31739,1,0,0:0:0:0:
329,192,32065,1,0,0:0:0:0:
182,192,32065,1,0,0:0:0:0:
109,192,32227,1,0,0:0:0:0:
402,192,32227,1,0,0:0:0:0:
182,192,32553,1,0,0:0:0:0:
329,192,32553,1,0,0:0:0:0:
256,192,32879,1,0,0:0:0:0:
402,192,33205,1,0,0:0:0:0:
109,192,33205,1,0,0:0:0:0:
256,192,33368,1,0,0:0:0:0:
256,192,33693,1,0,0:0:0:0:
36,192,34019,1,0,0:0:0:0:
475,192,34019,1,0,0:0:0:0:
329,192,34182,1,0,0:0:0:0:
182,192,34182,1,0,0:0:0:0:
402,192,34508,1,0,0:0:0:0:
109,192,34508,1,0,0:0:0:0:
256,192,34833,1,0,0:0:0:0:
402,192,35159,1,0,0:0:0:0:
109,192,35159,1,0,0:0:0:0:
256,192,35322,1,0,0:0:0:0:
256,192,35647,1,0,0:0:0:0:
329,192,35973,1,0,0:0:0:0:
182,192,35973,1,0,0:0:0:0:
256,192,36136,1,0,0:0:0:0:
36,192,36462,1,0,0:0:0:0:
475,192,36462,1,0,0:0:0:0:
256,192,36787,1,0,0:0:0:0:
256,192,37113,1,0,0:0:0:0:
36,192,37439,1,0,0:0:0:0:
475,192,37439,1,0,0:0:0:0:
402,192,37765,1,0,0:0:0:0:
109,192,37765,1,0,0:0:0:0:
475,192,38091,1,0,0:0:0:0:
402,192,38254,1,0,0:0:0:0:
329,192,38416,1,0,0:0:0:0:
182,192,38579,1,0,0:0:0:0:
109,192,38742,1,0,0:0:0:0:
36,192,38905,1,0,0:0:0:0:
36,192,39068,128,0,41022:0:0:0:0:
109,192,41022,128,0,42977:0:0:0:0:
182,192,42977,128,0,44931:0:0:0:0:
402,192,44931,128,0,45908:0:0:0:0:
109,192,44931,128,0,45908:0:0:0:0:
36,192,45908,128,0,46886:0:0:0:0:
475,192,45908,128,0,46886:0:0:0:0:
109,192,46886,1,0,0:0:0:0:
402,192,46886,1,0,0:0:0:0:
256,192,47211,1,0,0:0:0:0:
182,192,47211,1,0,0:0:0:0:
329,192,47211,1,0,0:0:0:0:
36,192,47537,1,0,0:0:0:0:
475,192,47537,1,0,0:0:0:0:
256,192,47863,1,0,0:0:0:0:
109,192,47863,1,0,0:0:0:0:
402,192,47863,1,0,0:0:0:0:
182,192,48188,1,0,0:0:0:0:
329,192,48188,1,0,0:0:0:0:
256,192,48514,1,0,0:0:0:0:
36,192,48514,1,0,0:0:0:0:
475,192,48514,1,0,0:0:0:0:
109,192,48840,1,0,0:0:0:0:
402,192,48840,1,0,0:0:0:0:
256,192,49166,1,0,0:0:0:0:
182,192,49166,1,0,0:0:0:0:
329,192,49166,1,0,0:0:0:0:
475,192,49491,1,0,0:0:0:0:
36,192,49491,1,0,0:0:0:0:
109,192,49817,1,0,0:0:0:0:
402,192,49817,1,0,0:0:0:0:
256,192,49817,1,0,0:0:0:0:
182,192,50143,1,0,0:0:0:0:
329,192,50143,1,0,0:0:0:0:
256,192,50469,1,0,0:0:0:0:
36,192,50469,1,0,0:0:0:0:
475,192,50469,1,0,0:0:0:0:
402,192,50794,1,0,0:0:0:0:
109,192,50794,1,0,0:0:0:0:
256,192,51120,1,0,0:0:0:0:
182,192,51120,1,0,0:0:0:0:
329,192,51120,1,0,0:0:0:0:
36,192,51446,1,0,0:0:0:0:
475,192,51446,1,0,0:0:0:0:
256,192,51772,1,0,0:0:0:0:
109,192,51772,1,0,0:0:0:0:
402,192,51772,1,0,0:0:0:0:
475,192,52097,1,0,0:0:0:0:
36,192,52097,1,0,0:0:0:0:
256,192,52423,1,0,0:0:0:0:
109,192,52423,1,0,0:0:0:0:
402,192,52423,1,0,0:0:0:0:
329,192,52749,1,0,0:0:0:0:
182,192,52749,1,0,0:0:0:0:
256,192,53074,1,0,0:0:0:0:
182,192,53074,1,0,0:0:0:0:
329,192,53074,1,0,0:0:0:0:
182,192,53726,1,0,0:0:0:0:
256,192,53726,1,0,0:0:0:0:
329,192,53726,1,0,0:0:0:0:
256,192,54215,1,0,0:0:0:0:
256,192,54377,1,0,0:0:0:0:
329,192,54703,128,0,55029:0:0:0:0:
182,192,54703,128,0,55029:0:0:0:0:
109,192,55029,128,0,55355:0:0:0:0:
402,192,55029,128,0,55355:0:0:0:0:
36,192,55355,128,0,55680:0:0:0:0:
475,192,55355,128,0,55680:0:0:0:0:
402,192,55680,128,0,56006:0:0:0:0:
109,192,55680,128,0,56006:0:0:0:0:
182,192,56006,128,0,56332:0:0:0:0:
329,192,56006,128,0,56332:0:0:0:0:
402,192,56332,128,0,56658:0:0:0:0:
109,192,56332,128,0,56658:0:0:0:0:
256,192,56658,128,0,56983:0:0:0:0:
329,192,56983,128,0,57309:0:0:0:0:
182,192,56983,128,0,57309:0:0:0:0:
402,192,57309,128,0,57635:0:0:0:0:
109,192,57309,128,0,57635:0:0:0:0:
475,192,57635,128,0,57960:0:0:0:0:
36,192,57635,128,0,57960:0:0:0:0:
402,192,57960,128,0,58286:0:0:0:0:
109,192,57960,128,0,58286:0:0:0:0:
182,192,58286,128,0,58612:0:0:0:0:
329,192,58286,128,0,58612:0:0:0:0:
256,192,58612,128,0,60403:0:0:0:0:
36,192,59426,1,0,0:0:0:0:
109,192,59589,1,0,0:0:0:0:
182,192,59752,1,0,0:0:0:0:
329,192,59915,1,0,0:0:0:0:
402,192,60078,1,0,0:0:0:0:
475,192,60403,128,0,63172:0:0:0:0:
402,192,60403,128,0,63172:0:0:0:0:
36,192,60566,1,0,0:0:0:0:
109,192,60892,1,0,0:0:0:0:
182,192,61218,1,0,0:0:0:0:
256,192,61381,1,0,0:0:0:0:
109,192,61706,1,0,0:0:0:0:
182,192,62032,1,0,0:0:0:0:
256,192,62195,1,0,0:0:0:0:
