osu file format v13

[General]
AudioFilename: Metal cloud.mp3
AudioLeadIn: 0
PreviewTime: 45920
Countdown: 0
SampleSet: Normal
StackLeniency: 0.7
Mode: 3
LetterboxInBreaks: 0
SpecialStyle: 0
WidescreenStoryboard: 0

[Editor]
Bookmarks: 5029,7067,7148,13715,14312,19472,21175,23351,23758,26039,28482,59345
DistanceSpacing: 0.8
BeatDivisor: 4
GridSize: 32
TimelineZoom: 1

[Metadata]
Title:Metal Cloud
TitleUnicode:メタルクラウド
Artist:Hikoshi Hashimoto
ArtistUnicode:橋本 彦士
Creator:Lazly-kun
Version:7K EZ
Source:ブレイブフロンティア (Brave Frontier)
Tags:Brave frontier, game music, video game, game, RPG
BeatmapID:569250
BeatmapSetID:247257

[Difficulty]
HPDrainRate:7
CircleSize:7
OverallDifficulty:7
ApproachRate:5
SliderMultiplier:1.4
SliderTickRate:1

[Events]
//Background and Video events
0,0,"brave-frontier-alim-1.jpg",0,0
//Break Periods
//Storyboard Layer 0 (Background)
//Storyboard Layer 1 (Fail)
//Storyboard Layer 2 (Pass)
//Storyboard Layer 3 (Foreground)
//Storyboard Sound Samples

[TimingPoints]
306,325.734324324324,4,1,0,100,1,0
47211,-100,4,1,0,100,0,1
62846,-100,4,1,0,100,0,0

[HitObjects]
109,192,1934,5,0,0:0:0:0:
329,192,1934,128,0,2911:0:0:0:0:
109,192,2097,1,0,0:0:0:0:
402,192,2911,128,0,3889:0:0:0:0:
36,192,3889,1,0,0:0:0:0:
475,192,3889,128,0,4866:0:0:0:0:
36,192,4051,1,0,0:0:0:0:
329,192,4866,128,0,5843:0:0:0:0:
182,192,5843,1,0,0:0:0:0:
256,192,5843,128,0,7797:0:0:0:0:
182,192,6006,1,0,0:0:0:0:
36,192,7797,1,0,0:0:0:0:
36,192,8775,1,0,0:0:0:0:
109,192,9100,1,0,0:0:0:0:
182,192,9426,1,0,0:0:0:0:
256,192,9752,1,0,0:0:0:0:
256,192,9915,1,0,0:0:0:0:
36,192,10729,1,0,0:0:0:0:
109,192,11055,1,0,0:0:0:0:
182,192,11380,1,0,0:0:0:0:
36,192,11706,1,0,0:0:0:0:
109,192,11869,1,0,0:0:0:0:
329,192,12683,128,0,13661:0:0:0:0:
402,192,13661,128,0,15289:0:0:0:0:
36,192,14312,1,0,0:0:0:0:
109,192,14475,1,0,0:0:0:0:
182,192,14638,1,0,0:0:0:0:
256,192,14801,1,0,0:0:0:0:
329,192,15615,128,0,16104:0:0:0:0:
402,192,16104,128,0,17244:0:0:0:0:
475,192,17244,128,0,18872:0:0:0:0:
36,192,17569,1,0,0:0:0:0:
109,192,17732,1,0,0:0:0:0:
182,192,17895,1,0,0:0:0:0:
256,192,18058,1,0,0:0:0:0:
329,192,18221,1,0,0:0:0:0:
329,192,18872,128,0,19198:0:0:0:0:
402,192,19198,128,0,19524:0:0:0:0:
475,192,19524,128,0,20501:0:0:0:0:
402,192,20501,128,0,20827:0:0:0:0:
475,192,20827,128,0,21152:0:0:0:0:
329,192,21152,128,0,21478:0:0:0:0:
36,192,21478,1,0,0:0:0:0:
36,192,21641,1,0,0:0:0:0:
109,192,21804,1,0,0:0:0:0:
109,192,21967,1,0,0:0:0:0:
182,192,22130,1,0,0:0:0:0:
182,192,22293,1,0,0:0:0:0:
256,192,22455,1,0,0:0:0:0:
256,192,22618,1,0,0:0:0:0:
329,192,22781,1,0,0:0:0:0:
329,192,22944,1,0,0:0:0:0:
402,192,23107,1,0,0:0:0:0:
402,192,23270,1,0,0:0:0:0:
329,192,23433,128,0,23921:0:0:0:0:
402,192,23921,128,0,25387:0:0:0:0:
36,192,24736,1,0,0:0:0:0:
109,192,25061,1,0,0:0:0:0:
182,192,25387,1,0,0:0:0:0:
256,192,25550,1,0,0:0:0:0:
329,192,25713,1,0,0:0:0:0:
402,192,25876,1,0,0:0:0:0:
475,192,26039,1,0,0:0:0:0:
36,192,26690,128,0,27016:0:0:0:0:
109,192,27016,128,0,27341:0:0:0:0:
182,192,27341,128,0,28319:0:0:0:0:
256,192,28319,128,0,28644:0:0:0:0:
475,192,28644,128,0,28970:0:0:0:0:
402,192,28970,128,0,29296:0:0:0:0:
329,192,29296,128,0,30273:0:0:0:0:
256,192,30273,128,0,31250:0:0:0:0:
182,192,31250,128,0,33205:0:0:0:0:
329,192,31250,128,0,33205:0:0:0:0:
109,192,33205,128,0,35159:0:0:0:0:
402,192,33205,128,0,35159:0:0:0:0:
475,192,35159,128,0,37113:0:0:0:0:
36,192,35159,128,0,37113:0:0:0:0:
256,192,37113,128,0,39068:0:0:0:0:
36,192,39068,128,0,41022:0:0:0:0:
475,192,39068,128,0,41022:0:0:0:0:
402,192,41022,128,0,42977:0:0:0:0:
109,192,41022,128,0,42977:0:0:0:0:
329,192,42977,128,0,44931:0:0:0:0:
182,192,42977,128,0,44931:0:0:0:0:
475,192,44931,128,0,45908:0:0:0:0:
36,192,44931,128,0,45908:0:0:0:0:
109,192,45908,128,0,46886:0:0:0:0:
402,192,45908,128,0,46886:0:0:0:0:
36,192,46886,1,0,0:0:0:0:
475,192,46886,1,0,0:0:0:0:
256,192,47211,1,0,0:0:0:0:
109,192,47537,1,0,0:0:0:0:
402,192,47537,1,0,0:0:0:0:
256,192,47863,1,0,0:0:0:0:
475,192,48188,1,0,0:0:0:0:
36,192,48188,1,0,0:0:0:0:
256,192,48514,1,0,0:0:0:0:
329,192,48840,1,0,0:0:0:0:
182,192,48840,1,0,0:0:0:0:
256,192,49166,1,0,0:0:0:0:
475,192,49491,1,0,0:0:0:0:
36,192,49491,1,0,0:0:0:0:
256,192,49817,1,0,0:0:0:0:
109,192,50143,1,0,0:0:0:0:
402,192,50143,1,0,0:0:0:0:
256,192,50469,1,0,0:0:0:0:
475,192,50794,1,0,0:0:0:0:
36,192,50794,1,0,0:0:0:0:
256,192,51120,1,0,0:0:0:0:
36,192,51446,1,0,0:0:0:0:
475,192,51446,1,0,0:0:0:0:
256,192,51772,1,0,0:0:0:0:
109,192,52097,1,0,0:0:0:0:
402,192,52097,1,0,0:0:0:0:
256,192,52423,1,0,0:0:0:0:
109,192,52749,1,0,0:0:0:0:
402,192,52749,1,0,0:0:0:0:
256,192,53074,1,0,0:0:0:0:
256,192,53726,1,0,0:0:0:0:
109,192,53726,1,0,0:0:0:0:
402,192,53726,1,0,0:0:0:0:
256,192,54215,1,0,0:0:0:0:
256,192,54377,1,0,0:0:0:0:
329,192,54703,128,0,55029:0:0:0:0:
182,192,55029,128,0,55355:0:0:0:0:
402,192,55355,128,0,55680:0:0:0:0:
109,192,55680,128,0,56006:0:0:0:0:
475,192,56006,128,0,56332:0:0:0:0:
36,192,56332,128,0,56658:0:0:0:0:
402,192,56658,128,0,56983:0:0:0:0:
109,192,56983,128,0,57309:0:0:0:0:
329,192,57309,128,0,57635:0:0:0:0:
182,192,57635,128,0,57960:0:0:0:0:
329,192,57960,128,0,58286:0:0:0:0:
182,192,58286,128,0,58612:0:0:0:0:
402,192,58612,128,0,60403:0:0:0:0:
36,192,59426,1,0,0:0:0:0:
109,192,59589,1,0,0:0:0:0:
182,192,59752,1,0,0:0:0:0:
256,192,59915,1,0,0:0:0:0:
329,192,60078,1,0,0:0:0:0:
475,192,60403,128,0,63172:0:0:0:0:
36,192,60566,5,0,0:0:0:0:
109,192,60892,1,0,0:0:0:0:
182,192,61218,1,0,0:0:0:0:
109,192,61381,1,0,0:0:0:0:
36,192,61706,1,0,0:0:0:0:
109,192,62032,1,0,0:0:0:0:
182,192,62195,1,0,0:0:0:0:
