osu file format v9

[General]
AudioFilename: Egao no Wake.mp3
AudioLeadIn: 0
PreviewTime: 61056
Countdown: 0
SampleSet: Soft
StackLeniency: 0.7
Mode: 0
LetterboxInBreaks: 1

[Editor]
Bookmarks: 9320,17942,28721,61056,78302
DistanceSpacing: 1
BeatDivisor: 4
GridSize: 8

[Metadata]
Title:Egao no Wake (TV Size)
Artist:Hikita Kaori
Creator:eveless
Version:Insane
Source:Syounen Onmyouji
Tags:Yuki Kajiura

[Difficulty]
HPDrainRate:7
CircleSize:5
OverallDifficulty:7
ApproachRate:8
SliderMultiplier:1.6
SliderTickRate:1

[Events]
//Background and Video events
0,0,"2008819152842_617.jpg"
//Break Periods
//Storyboard Layer 0 (Background)
//Storyboard Layer 1 (Fail)
//Storyboard Layer 2 (Pass)
//Storyboard Layer 3 (Foreground)
//Storyboard Sound Samples
//Background Colour Transformations
3,100,163,162,255

[TimingPoints]
9320,359.281437125748,6,2,1,70,1,0
12553,-100,6,1,1,20,0,0
12912,-100,6,1,1,40,0,0
13451,-100,6,2,1,70,0,0
17224,-100,6,2,1,40,0,0
17942,-100,6,2,1,60,0,0
20098,-200,6,2,1,70,0,0
20996,-100,6,2,1,70,0,0
21894,-100,6,2,1,40,0,0
22254,-100,6,2,1,69,0,0
26565,-200,6,2,1,50,0,0
28002,-66.6666666666667,6,1,1,20,0,0
28361,-66.6666666666667,6,1,1,40,0,0
28721,-200,6,2,1,50,0,0
37343,-133.333333333333,6,2,1,50,0,0
43811,-100,6,2,1,50,0,0
44080,-100,6,2,1,30,0,0
44349,-100,6,2,1,50,0,0
57104,-100,6,2,1,55,0,0
57463,-100,6,2,1,60,0,0
58002,-100,6,2,1,65,0,0
58541,-100,6,2,1,70,0,0
58900,-100,6,2,1,80,0,0
59080,-100,6,2,1,50,0,0
59619,-100,6,1,1,20,0,0
59978,-100,6,1,1,30,0,0
60337,-100,6,1,1,45,0,0
61056,-100,6,2,1,100,0,1
61415,-100,6,2,1,80,0,1
86924,-100,6,2,1,90,0,0
89799,-100,6,2,1,70,0,0
93751,-100,6,1,1,30,0,0
94110,-100,6,1,1,20,0,0
94469,-100,6,2,1,40,0,0
95188,-100,6,1,1,15,0,0
95547,-100,6,2,1,20,0,0

[Colours]
Combo1 : 252,177,78
Combo2 : 177,236,79
Combo3 : 227,112,248
Combo4 : 240,5,5

[HitObjects]
80,136,9320,6,0,B|136:64|248:96,1,160,4|8
224,168,9858,2,0,B|296:216|384:176,1,160,2|0
448,152,10397,1,8
448,152,10487,1,0
416,272,10757,1,2
296,288,11026,1,0
296,288,11116,1,8
296,288,11296,6,0,B|216:296,1,80,2|0
80,216,11834,2,0,B|104:152|160:128,1,120,8|0
152,168,12194,2,0,B|200:160|232:208,1,80,2|0
72,304,12553,1,8
72,304,12733,1,0
152,304,12912,1,0
152,304,13092,1,8
232,304,13272,2,0,B|336:304,1,80,8|0
392,304,13631,5,4
312,168,13990,1,0
232,304,14349,1,8
336,248,14619,5,0
336,248,14709,1,2
392,192,14888,1,0
312,168,15068,1,0
256,224,15248,1,0
272,304,15427,1,8
352,328,15607,1,0
416,272,15787,6,0,B|496:304,1,80,4|2
256,224,16146,2,0,B|168:192,1,80,0|0
352,192,16505,2,0,B|392:104,1,80,10|0
126,264,16864,6,0,B|160:192,1,80,0|8
331,187,17224,2,0,B|256:160,1,80,4|0
21,82,17583,2,0,B|96:112,1,80,8|0
198,74,17942,5,4
318,74,18212,1,0
318,74,18302,1,8
199,181,18661,1,8
314,310,19020,5,0
193,310,19290,1,0
193,310,19379,1,8
310,198,19739,1,8
432,304,20098,6,0,B|464:264,1,40,4|2
384,240,20457,2,0,B|408:200,1,40,8|0
312,200,20817,1,8
312,200,20996,1,0
352,312,21176,6,0,B|272:336,1,80,0|0
240,272,21535,2,0,B|144:288,1,80,0|8
200,192,21894,1,4
200,192,22074,1,8
122,212,22254,6,0,B|34:212|2:156,1,120,4|0
0,144,22613,1,0
80,128,22793,2,0,B|64:80|80:32,1,80,0|8
160,144,23152,1,0
296,224,23331,6,0,B|312:272|288:320,1,80,0|0
236,177,23691,1,8
318,146,23870,1,0
416,265,24050,1,8
382,195,24230,6,0,B|422:171|462:179,1,80,0|0
133,192,24769,2,0,B|93:216|53:208,1,80,0|0
216,160,25128,1,8
256,240,25308,1,0
256,240,25397,1,0
256,240,25487,2,0,B|272:288|256:336,1,80,4|8
256,144,25846,6,0,B|240:96|256:48,1,80,8|0
129,185,26206,1,8
129,185,26565,6,0,B|184:176|256:224|288:296|264:360,1,240,4|0
242,342,28002,6,0,B|224:296|256:224|328:176|383:185,1,240,0|0
408,344,28721,5,4
408,344,29260,1,2
408,344,29799,2,0,B|328:352|248:304,1,160,2|0
200,256,30876,2,0,B|160:200|96:184,1,120,2|0
64,184,31595,1,2
88,104,31954,2,0,B|64:72,1,40,0|2
216,120,32493,2,0,B|244:162,1,40,0|2
368,192,33032,5,4
368,192,33571,1,2
368,192,34110,2,0,B|400:264|368:320,1,120,2|0
336,320,34828,2,0,B|296:312|256:336,2,80,2|0|2
264,288,35906,2,0,B|280:216|240:160,1,120,2|0
168,152,36805,1,2
168,152,36984,2,0,B|160:192|176:232,1,80,2|4
296,208,37703,5,2
360,336,38062,1,10
360,336,38242,1,0
312,280,38421,2,0,B|299:286|251:278,1,59.9999982118607,0|2
272,136,38960,2,0,B|240:112|240:80,2,59.9999982118607,0|2|0
344,152,39499,6,0,B|376:176|392:240|376:280,1,119.999996423721,0|2
312,288,40038,1,2
240,296,40218,2,0,B|152:264|88:288|104:296,1,119.999996423721,8|2
56,304,40757,1,2
72,152,41116,2,0,B|56:88,1,59.9999982118607,0|2
144,176,41475,2,0,B|160:248,1,59.9999982118607,0|4
296,216,42014,6,0,B|328:288,1,59.9999982118607,0|2
440,200,42553,6,0,B|496:248,2,59.9999982118607,0|10|0
296,216,43272,2,0,B|240:168,1,59.9999982118607,0|2
192,136,43631,1,2
126,97,43811,6,0,B|-10:97,2,120,4|0|2
192,136,44529,2,0,B|280:136,1,80,0|2
128,184,44888,2,0,B|72:224|80:304,2,120,2|0|2
202,213,45607,2,0,B|216:248|202:292,1,80,0|2
202,291,45966,5,4
424,192,46505,1,0
424,192,46685,2,0,B|400:96|288:96,1,160,10|0
368,248,47403,2,0,B|384:288|432:304,1,80,2|0
264,216,47763,2,0,B|224:192|136:208|104:256,1,160,2|0
64,304,48302,1,2
104,152,48661,1,0
104,152,48840,2,0,B|64:112|56:80,1,80,10|0
192,144,49200,2,0,B|224:224|304:256,2,160,2|2|0
144,80,50098,1,2
144,80,50278,5,4
296,128,50637,1,2
296,128,50817,2,0,B|368:128|400:232|368:272,1,160,0|2
448,208,51355,2,0,B|368:176|288:224,2,160,2|8|2
416,280,52254,1,2
416,280,52433,6,0,B|336:320|248:320,1,160,0|2
336,352,52972,2,0,B|304:272|216:248,1,160,0|2
144,248,53511,1,2
88,304,53691,2,0,B|56:344|0:344,1,80,0|0
56,184,54230,1,10
128,152,54409,1,2
128,152,54589,6,0,B|312:152,1,160,4|0
336,88,55128,2,0,B|400:144|352:224|312:224,1,160,2|0
304,307,55667,2,0,B|256:312|224:232|256:176,1,160,2|0
320,224,56206,1,2
344,144,56385,2,0,B|392:160|416:208|416:248|384:304,1,160,10|4
398,275,56924,5,0
376,352,57104,1,0
376,351,57284,1,0
296,360,57463,1,2
296,360,57643,1,0
216,344,57822,1,2
216,344,58002,1,0
144,304,58182,1,0
144,304,58361,1,0
104,232,58541,1,2
104,232,58721,1,0
104,232,58900,5,4
168,184,59080,1,0
184,152,59170,1,0
216,136,59260,1,0
248,136,59349,1,0
280,152,59439,1,2
296,176,59529,1,0
304,208,59619,5,0
296,240,59709,1,0
280,264,59799,1,0
248,272,59888,1,0
224,256,59978,1,0
240,224,60068,1,0
272,216,60158,1,0
296,240,60248,5,0
304,272,60337,1,0
320,296,60427,1,0
352,312,60517,1,0
384,312,60607,1,0
416,304,60697,1,0
440,280,60787,1,0
448,248,60876,1,0
440,216,60966,1,0
424,184,61056,6,0,B|376:112|264:104,1,160,4|8
240,192,61595,2,0,B|152:176|72:232,1,160,0|2
32,296,62134,1,8
32,296,62314,1,2
192,336,62493,2,0,B|88:336,1,80,0|0
288,304,62852,2,0,B|384:304,1,80,8|2
199,237,63212,6,0,B|159:149|191:61,1,160,4|8
328,236,63751,2,0,B|368:148|336:60,1,160,0|2
256,32,64290,1,8
256,32,64469,1,2
256,188,64649,2,0,B|256:92,1,80,0|0
258,270,65008,2,0,B|258:366,1,80,8|2
184,232,65367,6,0,B|112:264|48:224,1,120,4|0
40,208,65727,1,10
84,123,65906,2,0,B|136:68|232:76,1,160,0|0
231,172,66445,1,10
322,142,66625,2,0,B|362:126|386:78,2,80,0|0|2
322,143,67074,1,0
322,143,67164,1,8
294,234,67343,1,2
386,261,67523,6,0,B|442:253|522:269,2,120,2|2|2
291,282,68242,1,0
291,282,68421,1,0
202,320,68601,2,0,B|114:344|34:312,2,160,10|4|2
256,240,69499,1,0
256,240,69589,1,0
256,240,69679,6,0,B|224:168|112:160,1,160,4|8
256,240,70218,2,0,B|288:168|400:160,1,160,0|2
480,192,70757,1,8
480,192,70846,1,0
480,192,70936,1,2
408,248,71116,2,0,B|400:344,1,80,0|0
408,136,71475,2,0,B|400:40,1,80,8|2
328,191,71834,6,0,B|224:175|168:191,1,160,4|10
0,328,72373,2,0,B|54:343|158:327,1,160,0|0
232,264,72912,1,8
232,264,73002,1,0
232,264,73092,1,2
400,256,73272,2,0,B|304:304,1,80,0|2
112,216,73631,2,0,B|208:168,1,80,8|2
136,312,73990,6,0,B|96:336|32:336|8:304,2,120,4|2|2
232,320,74709,1,0
312,272,74888,1,0
312,272,74978,1,0
312,272,75068,1,8
376,184,75248,2,0,B|384:224|400:264,1,80,0|2
416,104,75607,2,0,B|408:64|392:24,1,80,0|10
256,192,76146,5,4
64,192,76505,1,0
160,192,76685,1,4
448,192,77044,1,0
352,192,77224,1,4
256,192,77403,1,0
256,192,77493,1,0
256,192,77583,1,2
232,288,77763,1,0
144,328,77942,1,2
56,296,78122,1,0
152,240,78302,6,0,B|88:168|112:72,1,160,4|8
200,56,78840,1,2
288,104,79020,2,0,B|352:104|384:80,2,80,0|0|10
328,192,79559,1,0
328,192,79649,1,0
328,192,79739,1,2
448,288,79918,2,0,B|368:272,1,80,0|10
288,320,80278,1,0
288,320,80457,6,0,B|224:352|128:336,1,160,4|10
192,256,80996,2,0,B|112:256|64:192,1,120,0|0
64,187,81355,1,0
152,160,81535,2,0,B|120:120|120:72,1,80,10|0
256,184,81894,6,0,B|352:184|440:240,1,160,2|10
464,296,82433,1,0
464,296,82523,1,0
464,296,82613,1,4
368,320,82793,1,0
272,296,82972,1,8
176,320,83152,1,2
80,312,83331,2,0,B|48:336|-8:336,1,80,8|2
144,240,83691,6,0,B|176:216|232:216,1,80,0|0
312,216,84050,1,10
400,176,84230,1,0
456,96,84409,1,8
456,0,84589,1,2
456,0,84769,5,6
312,32,85038,1,2
312,32,85128,1,0
225,80,85308,1,2
255,169,85487,1,8
312,32,85667,1,0
344,120,85846,2,0,B|384:144|384:208,1,80,2|0
256,168,86206,2,0,B|272:216|240:264,1,80,8|0
152,176,86565,2,0,B|152:224|112:240,1,80,2|8
112,239,86834,1,0
112,239,86924,1,4
256,192,87014,12,0,89799
184,192,90158,6,0,B|88:200,1,80,0|2
336,192,90517,2,0,B|416:208,1,80,0|2
256,136,90876,1,0
256,240,91056,1,2
256,192,91236,12,0,93391
264,64,93751,5,0
232,136,93930,1,0
264,208,94110,1,0
288,288,94290,1,0
256,360,94469,5,2
192,256,94739,1,2
288,184,95008,1,2
232,136,95188,1,0
288,80,95367,1,0
256,8,95547,5,4
