osu file format v9

[General]
AudioFilename: Egao no Wake.mp3
AudioLeadIn: 0
PreviewTime: 61056
Countdown: 0
SampleSet: Soft
StackLeniency: 0.7
Mode: 0
LetterboxInBreaks: 1

[Editor]
DistanceSpacing: 0.8
BeatDivisor: 4
GridSize: 8

[Metadata]
Title:Egao no Wake (TV Size)
Artist:Hikita Kaori
Creator:eveless
Version:Hard
Source:Syounen Onmyouji
Tags:Yuki Kajiura

[Difficulty]
HPDrainRate:5
CircleSize:4
OverallDifficulty:5
ApproachRate:7
SliderMultiplier:1.4
SliderTickRate:1

[Events]
//Background and Video events
0,0,"2008819152842_617.jpg"
//Break Periods
//Storyboard Layer 0 (Background)
//Storyboard Layer 1 (Fail)
//Storyboard Layer 2 (Pass)
//Storyboard Layer 3 (Foreground)
//Storyboard Sound Samples
//Background Colour Transformations
3,100,163,162,255

[TimingPoints]
9320,359.281437125748,6,2,1,70,1,0
26565,-200,6,2,1,70,0,0
28541,-100,6,2,1,70,0,0
58900,-100,6,2,1,80,0,0
61056,-100,6,2,1,90,0,1
86924,-100,6,2,1,90,0,0
91595,-100,6,2,1,59,0,0

[Colours]
Combo1 : 252,177,78
Combo2 : 177,236,79
Combo3 : 227,112,248
Combo4 : 240,5,5

[HitObjects]
72,192,9320,1,4
167,132,9679,1,8
256,192,10038,1,0
440,192,10397,5,0
345,252,10757,1,8
256,192,11116,1,0
256,192,11475,6,0,B|288:128|256:40,2,140,0|8|0
256,192,12553,6,0,B|224:256|256:344,2,140,0|8|0
368,192,13631,6,0,B|440:176|472:96,2,140,0|8|0
256,192,14709,2,0,B|184:208|152:288,2,140,0|8|0
312,288,15787,2,0,B|368:344,3,70,0|0|8|0
416,344,16505,1,8
432,232,16864,2,0,B|408:160,3,70,0|0|8|0
352,160,17583,1,8
256,104,17942,5,4
144,104,18302,1,8
32,104,18661,1,8
32,216,19020,5,0
144,216,19379,1,8
256,216,19739,1,8
256,328,20098,5,0
144,328,20457,1,8
32,328,20817,1,8
32,328,21176,5,0
176,240,21715,2,0,B|264:232,1,70,0|8
304,224,22074,1,0
360,208,22254,6,0,B|416:144|384:64,2,140,4|8|0
408,240,23152,1,0
408,296,23331,2,0,B|352:360|272:352,1,140,4|8
176,352,24050,2,0,B|96:352,1,70,8|0
48,352,24409,5,4
88,184,24948,1,0
88,184,25128,1,8
184,136,25487,1,4
288,184,25846,1,8
392,136,26206,1,4
392,136,26385,1,0
392,136,26565,6,0,B|416:240|264:352|152:328,1,350,4|0
88,240,28721,5,4
88,240,29260,1,2
88,240,29799,1,2
192,192,30158,2,0,B|344:184,1,140,0|2
440,176,30876,5,0
440,176,31415,1,2
440,176,31954,1,2
400,280,32314,2,0,B|240:304,1,140,0|2
152,320,33032,5,4
152,320,33571,1,2
152,320,34110,1,2
248,264,34469,2,0,B|144:144,1,140,0|2
144,48,35188,5,0
144,48,35727,1,2
144,48,36266,1,0
216,136,36625,2,0,B|352:80,1,140,2|0
368,192,37343,6,0,B|408:288|312:360|240:344,2,210,4|2|0
312,208,38601,2,0,B|160:208,1,140,2|0
112,208,39140,1,2
112,208,39319,1,0
56,208,39499,6,0,B|32:112|144:56|208:88,2,210,0|2|0
88,248,40757,2,0,B|168:280,1,70,0|2
192,232,41116,2,0,B|280:208,1,70,2|0
312,200,41475,1,2
328,256,41655,6,0,B|464:232|456:88,2,210,4|2|0
301,305,42912,2,0,B|241:334|149:313,1,140,2|0
124,276,43451,2,0,B|84:216|100:132,1,140,2|0
200,184,44170,1,0
200,184,44349,1,2
256,88,44709,1,2
256,88,44888,6,0,B|416:96,2,140,0|2|0
144,64,45966,5,4
104,152,46325,2,0,B|40:184|32:272,1,140,2|0
120,336,47044,1,2
232,312,47403,2,0,B|320:288,2,70,0|2|0
264,200,48122,6,0,B|304:120|392:136,1,140,0|2
416,168,48661,2,0,B|432:248|352:280,1,140,0|2
392,320,49200,2,0,B|248:320,1,140,2|0
140,320,49918,1,2
140,320,50278,5,0
96,216,50637,2,0,B|24:264,1,70,2|0
24,144,51176,2,0,B|64:72,1,70,2|0
152,136,51715,2,0,B|240:144|256:232,1,140,2|0
256,328,52433,5,2
392,232,52972,1,0
256,128,53511,1,2
304,232,53870,1,0
192,232,54230,1,2
80,232,54589,6,0,B|8:232,1,70,4|2
80,144,55128,2,0,B|160:144,1,70,0|2
264,144,55667,1,2
376,144,56026,1,0
488,144,56385,1,2
440,248,56745,6,0,B|368:280|288:248,1,140,4|0
280,200,57284,2,0,B|216:176|136:192,1,140,4|0
88,208,57822,1,4
24,304,58182,1,0
128,336,58541,1,4
200,248,58900,6,0,B|264:288,3,70,4|0|0|0
264,232,59619,6,0,B|368:200,2,105,0|4|4
256,88,61056,6,0,B|160:88|112:144,1,140,4|8
176,160,61595,2,0,B|120:208|128:288,2,140,0|8|0
224,192,62493,1,8
336,192,62852,1,8
448,192,63212,6,0,B|432:112|368:64,1,140,0|8
368,128,63751,2,0,B|312:88|224:104,2,140,0|8|0
336,176,64649,1,8
376,280,65008,1,0
264,304,65367,6,0,B|176:312|112:280,1,140,0|8
176,256,65906,2,0,B|112:192|112:128,1,140,0|8
112,80,66445,1,8
216,56,66805,1,0
280,144,67164,2,0,B|352:136,1,70,8|0
408,128,67523,5,8
408,128,68062,1,8
408,128,68601,1,8
472,216,68960,1,4
376,280,69320,1,8
304,192,69679,6,0,B|224:176|152:192,1,140,0|8
176,248,70218,2,0,B|96:248|32:296,1,140,0|8
16,336,70757,1,0
128,336,71116,1,8
240,368,71475,1,0
240,368,71834,6,0,B|304:304,1,70,8|0
256,208,72373,2,0,B|288:128,1,70,0|8
256,32,72912,1,8
176,112,73272,1,0
64,120,73631,1,8
128,208,73990,6,0,B|144:288|80:336,1,140,0|8
48,288,74529,2,0,B|136:288|176:368,1,140,0|8
224,344,75068,1,0
264,240,75427,1,8
256,128,75787,1,8
256,16,76146,6,0,B|176:48|112:24,1,140,4|8
160,64,76685,2,0,B|96:112|96:192,1,140,4|8
152,168,77224,2,0,B|144:240|176:312,1,140,4|8
280,328,77942,1,12
368,264,78302,6,0,B|440:256|472:168,1,140,4|8
464,120,78840,1,0
368,56,79200,2,0,B|328:40|288:64,1,70,8|0
248,160,79739,2,0,B|192:216|120:208,1,140,8|0
32,144,80457,5,8
128,88,80817,1,0
184,72,80996,2,0,B|240:56|336:72,1,140,8|0
288,112,81535,2,0,B|352:144|368:224,1,140,8|0
320,320,82254,1,8
208,328,82613,6,0,B|152:312|128:248|144:192,2,140,8|0|8
256,232,83691,1,8
328,152,84050,2,0,B|296:120|232:112|184:144,1,140,0|8
104,80,84769,5,4
104,80,85308,1,8
104,80,85846,1,8
216,72,86206,2,0,B|304:64|360:80,1,140,0|8
424,168,86924,5,4
256,192,87014,12,0,91236
256,192,91595,6,0,B|192:168|96:192,1,140,8|0
112,296,92314,2,0,B|176:320|272:296,1,140,8|0
352,256,93032,1,8
296,160,93391,6,0,B|232:96|256:16,2,140,0|8|0
408,168,94469,1,8
456,272,94828,2,0,B|392:344|328:344,1,140,0|8
256,272,95547,5,4
